<?xml version="1.0" standalone="no"?>
<!DOCTYPE svg PUBLIC "-//W3C//DTD SVG 1.1//EN" "http://www.w3.org/Graphics/SVG/1.1/DTD/svg11.dtd" >
<svg xmlns="http://www.w3.org/2000/svg" xmlns:xlink="http://www.w3.org/1999/xlink" version="1.1">
<metadata>
Created by FontForge 20201107 at Tue Mar 22 23:55:24 2022
 By 
(c) 2018 Uber Technologies, Inc. All rights reserved.
</metadata>
<defs>
<font id="UberMoveText-Regular" horiz-adv-x="605" >
  <font-face 
    font-family="Uber Move Text"
    font-weight="400"
    font-stretch="normal"
    units-per-em="1000"
    panose-1="2 1 5 3 3 2 1 6 3 3"
    ascent="800"
    descent="-200"
    x-height="527"
    cap-height="700"
    bbox="-79 -256 2101 972"
    underline-thickness="50"
    underline-position="-125"
    unicode-range="U+000D-FB02"
  />
<missing-glyph horiz-adv-x="514" 
d="M60 -100h394v850h-394v-850z" />
    <glyph glyph-name=".notdef" horiz-adv-x="514" 
d="M60 -100h394v850h-394v-850z" />
    <glyph glyph-name="uni0000" horiz-adv-x="223" 
 />
    <glyph glyph-name="uni0000" horiz-adv-x="223" 
 />
    <glyph glyph-name="uni000D" unicode="&#xd;" horiz-adv-x="223" 
 />
    <glyph glyph-name="space" unicode=" " horiz-adv-x="223" 
 />
    <glyph glyph-name="exclam" unicode="!" horiz-adv-x="207" 
d="M137 186l6 544h-79l6 -544h67zM104 94q-21 0 -36 -15t-15 -37q0 -21 15 -36t36 -15t36 15t15 36q0 22 -15 37t-36 15z" />
    <glyph glyph-name="quotedbl" unicode="&#x22;" horiz-adv-x="304" 
d="M56 525h62l6 207h-73zM186 525h62l6 207h-73z" />
    <glyph glyph-name="numbersign" unicode="#" horiz-adv-x="643" 
d="M68 0h72l62 218h164l-62 -218h71l62 218h135v59h-118l42 146h126v59h-109l62 218h-71l-62 -218h-164l62 218h-72l-62 -218h-136v-59h119l-42 -146h-127v-59h110zM219 277l42 146h164l-42 -146h-164z" />
    <glyph glyph-name="dollar" unicode="$" horiz-adv-x="548" 
d="M304 -64v79q93 4 147.5 54.5t54.5 128.5q0 65 -41.5 107t-122.5 66l-38 11v233q47 -12 77 -46t38 -86h76q-10 80 -61.5 133t-129.5 66v80h-63v-76q-85 -4 -142 -52.5t-57 -127.5q0 -63 41 -106.5t120 -66.5l38 -11v-237q-51 11 -84 46t-42 88h-76q9 -81 64 -134t138 -66
v-83h63zM227 402q-54 16 -81.5 42.5t-27.5 67.5q0 46 34.5 75.5t88.5 33.5v-223zM314 303q60 -16 88 -44t28 -69q0 -46 -33 -76t-93 -34v226z" />
    <glyph glyph-name="percent" unicode="%" horiz-adv-x="856" 
d="M215 369q69 0 118.5 50.5t49.5 122.5q0 17 -3.5 33t-9.5 31t-15 28.5t-20.5 25t-25 21t-28.5 16t-31.5 10t-34.5 3.5t-35.5 -3.5t-33 -10t-29 -16t-25 -21t-21 -25t-15.5 -28.5t-9.5 -31t-3.5 -33q0 -72 50 -122.5t122 -50.5zM269 0l383 700h-65l-383 -700h65zM215 425
q-48 0 -80 35t-32 82q0 46 33 79t79 33q43 0 76 -33t33 -79q0 -47 -32.5 -82t-76.5 -35zM642 331q-70 0 -119.5 -50.5t-49.5 -122.5q0 -17 3.5 -33t9.5 -31t15 -28.5t20.5 -25t25 -21t29 -16t32 -10t34.5 -3.5t35 3.5t32.5 10t29 16t25 21t21 25t15.5 28.5t9.5 31t3.5 33
q0 72 -49.5 122.5t-121.5 50.5zM642 275q47 0 79.5 -35t32.5 -82q0 -46 -33 -78.5t-79 -32.5q-44 0 -77 32.5t-33 78.5q0 47 32.5 82t77.5 35z" />
    <glyph glyph-name="ampersand" unicode="&#x26;" horiz-adv-x="661" 
d="M490 51q26 -29 49.5 -40t58.5 -11h43v70h-31q-17 0 -32.5 7.5t-31.5 25.5l-42 47q4 5 7.5 11t7.5 12l111 174l-61 35l-109 -174l-3 -5l-147 164l38 22q57 34 84.5 72.5t27.5 89.5q0 68 -48.5 112t-123.5 44t-123 -46t-48 -117q0 -40 17 -76t57 -81l7 -7l-35 -20
q-65 -37 -95 -80t-30 -103q0 -20 4 -38.5t12 -35.5t19.5 -32t26 -27.5t31.5 -22.5t36.5 -17t41 -10.5t44.5 -3.5q63 0 110.5 22.5t93.5 75.5zM250 435q-29 33 -42.5 59t-13.5 52q0 43 26.5 69t68.5 26q40 0 67.5 -27t27.5 -67q0 -31 -18.5 -57t-55.5 -47l-45 -25zM117 180
q0 37 20 67.5t60 53.5l46 27l168 -189q-36 -44 -72 -62.5t-83 -18.5q-59 0 -99 35.5t-40 86.5z" />
    <glyph glyph-name="quotesingle" unicode="'" horiz-adv-x="175" 
d="M56 525h62l6 207h-73z" />
    <glyph glyph-name="parenleft" unicode="(" horiz-adv-x="368" 
d="M125 332q0 139 56.5 246.5t158.5 168.5l-38 56q-119 -70 -185 -192t-66 -279t66 -278.5t185 -191.5l39 56q-102 61 -159 168.5t-57 245.5z" />
    <glyph glyph-name="parenright" unicode=")" horiz-adv-x="368" 
d="M244 333q0 -139 -56.5 -246.5t-158.5 -168.5l38 -56q119 70 185 192t66 279t-66 278.5t-185 191.5l-39 -56q102 -61 159 -168.5t57 -245.5z" />
    <glyph glyph-name="asterisk" unicode="*" horiz-adv-x="419" 
d="M351 401l29 46l-120 72l120 73l-29 46l-115 -72l1 134h-53l1 -134l-116 72l-29 -46l120 -73l-120 -72l29 -46l116 72l-1 -134h53l-1 133z" />
    <glyph glyph-name="plus" unicode="+" horiz-adv-x="550" 
d="M308 144v182h176v64h-176v178h-65v-178h-177v-64h177v-182h65z" />
    <glyph glyph-name="comma" unicode="," horiz-adv-x="219" 
d="M44 -109v-42q57 10 89 55.5t32 106.5q0 39 -16.5 60t-43.5 21q-19 0 -33.5 -14t-14.5 -34q0 -8 2 -14t5 -11t7 -8.5t8.5 -7t9.5 -6.5t9 -6t7 -6t5 -7t2 -9q0 -23 -20 -48t-48 -30z" />
    <glyph glyph-name="hyphen" unicode="-" horiz-adv-x="456" 
d="M66 264h324v69h-324v-69z" />
    <glyph glyph-name="period" unicode="." horiz-adv-x="212" 
d="M106 94q-21 0 -36 -15t-15 -37q0 -21 15 -36t36 -15t36 15t15 36q0 22 -15 37t-36 15z" />
    <glyph glyph-name="slash" unicode="/" horiz-adv-x="411" 
d="M93 0l304 700h-79l-304 -700h79z" />
    <glyph glyph-name="zero" unicode="0" horiz-adv-x="626" 
d="M65 261q0 -122 68.5 -196.5t179.5 -74.5q110 0 178.5 74.5t68.5 196.5v179q0 123 -68.5 197t-178.5 74q-111 0 -179.5 -74t-68.5 -197v-179zM483 266q0 -96 -46.5 -152t-123.5 -56q-78 0 -124.5 56t-46.5 152v170q0 96 46.5 151.5t124.5 55.5q77 0 123.5 -55.5
t46.5 -151.5v-170z" />
    <glyph glyph-name="one" unicode="1" horiz-adv-x="450" 
d="M404 68h-139v632h-208v-68h131v-564h-139v-68h355v68z" />
    <glyph glyph-name="two" unicode="2" horiz-adv-x="520" 
d="M467 511q0 84 -61 141t-156 57q-75 0 -131.5 -36t-85.5 -98l62 -32q23 46 62.5 72.5t90.5 26.5q60 0 101 -38t41 -97q1 -51 -22 -90.5t-66 -85.5l-256 -280v-51h428v68l-322 -1l209 228q52 57 79.5 105.5t26.5 110.5z" />
    <glyph glyph-name="three" unicode="3" horiz-adv-x="546" 
d="M255 710q-78 0 -134.5 -36t-84.5 -96l64 -31q21 43 60.5 69.5t90.5 26.5q60 0 99.5 -36t39.5 -93q0 -51 -34.5 -86t-86.5 -35h-76v-67h85q57 0 95.5 -37.5t38.5 -94.5q0 -60 -42 -98.5t-107 -38.5q-57 0 -102 28t-68 76l-63 -34q28 -62 90 -99.5t144 -37.5q25 0 47.5 4
t43 11.5t38.5 18t32.5 24t26.5 29.5t20 34t12 38t4 41q0 63 -36.5 110.5t-94.5 65.5q49 18 79 59.5t30 95.5q0 20 -4 39t-12 36t-19 32t-25 27.5t-31 22.5t-36 17.5t-40 11t-44 3.5z" />
    <glyph glyph-name="four" unicode="4" horiz-adv-x="584" 
d="M377 0h77v184h94v67h-94v449h-99l-324 -458v-58h346v-184zM118 251l259 370v-370h-259z" />
    <glyph glyph-name="five" unicode="5" horiz-adv-x="557" 
d="M282 438q-40 0 -75.5 -13.5t-62.5 -38.5l10 246h304v68h-370l-17 -371l63 -9q28 26 62 39.5t74 13.5q68 0 112 -44t44 -112t-45 -114t-112 -46q-54 0 -97.5 28t-66.5 77l-64 -35q30 -64 91.5 -100.5t139.5 -36.5q25 0 47.5 4.5t43.5 13t39.5 20.5t34 27.5t27.5 33.5
t20.5 39t13 43.5t4.5 47.5q0 96 -62 157.5t-158 61.5z" />
    <glyph glyph-name="six" unicode="6" horiz-adv-x="596" 
d="M313 644q46 0 85 -26.5t61 -71.5l63 33q-31 60 -85.5 95.5t-124.5 35.5q-114 0 -182 -90.5t-68 -247.5v-58q0 -37 4.5 -70.5t13.5 -63t21.5 -55.5t29.5 -47t36.5 -37.5t43 -27.5t49.5 -17t54 -6q24 0 46.5 4.5t43 13t38.5 21t33.5 28.5t27 34.5t20 40t13 45.5t4.5 50
q0 23 -4 45t-12.5 42t-20 37.5t-26 32.5t-31.5 27t-37 20t-42 12.5t-45 4.5q-65 0 -116.5 -38t-69.5 -107v58q0 140 49 211.5t128 71.5zM310 58q-66 0 -111 46.5t-45 115.5q0 70 44.5 116.5t111.5 46.5t111.5 -46.5t44.5 -116.5t-44.5 -116t-111.5 -46z" />
    <glyph glyph-name="seven" unicode="7" horiz-adv-x="526" 
d="M497 643v57h-467v-68h381l-333 -632h88z" />
    <glyph glyph-name="eight" unicode="8" horiz-adv-x="578" 
d="M289 -10q25 0 48.5 3.5t44.5 11t39 17.5t33.5 23.5t27.5 29t20.5 33.5t13 38t4.5 42q0 64 -39 111t-102 64q54 19 86 61t32 98q0 81 -58.5 134.5t-149.5 53.5q-90 0 -148.5 -53.5t-58.5 -134.5q0 -56 32 -98t85 -61q-63 -17 -101.5 -64t-38.5 -111q0 -22 4.5 -42
t12.5 -38t20 -33.5t27.5 -29t34 -23.5t39 -17.5t44 -11t48.5 -3.5zM289 393q-57 0 -94.5 35t-37.5 90q0 57 37.5 92t94.5 35q58 0 95 -35t37 -92q0 -55 -37.5 -90t-94.5 -35zM289 328q67 0 110.5 -38.5t43.5 -98.5t-43.5 -98t-110.5 -38t-110.5 38t-43.5 98t43.5 98.5
t110.5 38.5z" />
    <glyph glyph-name="nine" unicode="9" horiz-adv-x="596" 
d="M283 56q-46 0 -85 26.5t-61 71.5l-63 -33q31 -60 85.5 -95.5t124.5 -35.5q114 0 182 90.5t68 247.5v58q0 37 -4.5 70.5t-13.5 63t-21.5 55.5t-29.5 47t-36.5 37.5t-43 27.5t-49.5 17t-54 6q-24 0 -46.5 -4.5t-43 -13t-38.5 -21t-33.5 -28.5t-27 -34.5t-20 -40t-13 -45.5
t-4.5 -50q0 -23 4 -45t12.5 -42t20 -37.5t26 -32.5t31.5 -27t37 -20t42 -12.5t45 -4.5q65 0 116.5 38t69.5 107v-58q0 -140 -49 -211.5t-128 -71.5zM286 642q66 0 111 -46.5t45 -115.5q0 -70 -44.5 -116.5t-111.5 -46.5t-111.5 46.5t-44.5 116.5t44.5 116t111.5 46z" />
    <glyph glyph-name="colon" unicode=":" horiz-adv-x="212" 
d="M106 94q-21 0 -36 -15t-15 -37q0 -21 15 -36t36 -15t36 15t15 36q0 22 -15 37t-36 15zM106 517q-21 0 -36 -15t-15 -37q0 -21 15 -36t36 -15t36 15t15 36q0 22 -15 37t-36 15z" />
    <glyph glyph-name="semicolon" unicode=";" horiz-adv-x="219" 
d="M44 -109v-42q57 10 89 55.5t32 106.5q0 39 -16.5 60t-43.5 21q-19 0 -33.5 -14t-14.5 -34q0 -8 2 -14t5 -11t7 -8.5t8.5 -7t9.5 -6.5t9 -6t7 -6t5 -7t2 -9q0 -23 -20 -48t-48 -30zM108 517q-21 0 -36 -15t-15 -37q0 -21 15 -36t36 -15t36 15t15 36q0 22 -15 37t-36 15z
" />
    <glyph glyph-name="less" unicode="&#x3c;" horiz-adv-x="386" 
d="M355 527h-88l-246 -263l246 -264h92l-244 265z" />
    <glyph glyph-name="equal" unicode="=" horiz-adv-x="549" 
d="M483 465h-417v-59h417v59zM483 306h-417v-59h417v59z" />
    <glyph glyph-name="greater" unicode="&#x3e;" horiz-adv-x="386" 
d="M25 0h88l246 263l-246 264h-92l244 -265z" />
    <glyph glyph-name="question" unicode="?" horiz-adv-x="503" 
d="M458 510q0 21 -4 41.5t-12.5 39t-20 34.5t-26.5 30t-33 25t-38.5 19t-43.5 12t-48 4q-67 0 -122 -29.5t-92 -78.5l57 -41q28 37 68.5 58.5t86.5 21.5q67 0 109 -40.5t42 -98.5q0 -57 -38.5 -97t-101.5 -40h-39l3 -179h65l3 117q83 7 134 65t51 137zM235 94q-21 0 -36 -15
t-15 -37q0 -21 15 -36t36 -15t36 15t15 36q0 22 -15 37t-36 15z" />
    <glyph glyph-name="at" unicode="@" horiz-adv-x="837" 
d="M404 70q40 0 74.5 17.5t56.5 47.5q13 -27 39.5 -41t61.5 -14q14 0 27.5 3t26.5 9.5t24.5 16t21.5 21.5t18 27t14 32.5t9 37.5t3 42q0 33 -5.5 63.5t-16 59t-26 54t-35 47.5t-42.5 40.5t-50 33t-56.5 24.5t-62 15t-67.5 5q-30 0 -59 -4.5t-56 -13.5t-52 -22t-47.5 -29.5
t-42 -36t-36 -42t-29.5 -47.5t-22 -52t-13.5 -56t-4.5 -59t4.5 -58.5t13.5 -55.5t22 -52t29 -47t36 -42t42 -36t47 -29t52 -22t55.5 -13.5t58.5 -4.5q70 0 132.5 22t111.5 62l-36 38q-41 -34 -95.5 -53t-114.5 -19q-25 0 -49.5 4t-47 11.5t-43.5 18.5t-40 25t-35.5 31
t-30 36t-24.5 40.5t-18.5 45t-11.5 48t-4 50.5t4 51t11.5 48.5t18.5 45t24.5 40.5t30 36t35.5 31t40.5 25.5t44 19t47 11.5t50.5 4q30 0 58 -4.5t53.5 -13t48 -20.5t42.5 -28t36.5 -35t29.5 -40.5t22 -46t13.5 -51t4.5 -55.5q0 -58 -23.5 -96.5t-60.5 -38.5
q-28 0 -42.5 16.5t-14.5 39.5v222h-63v-42q-22 22 -52.5 35.5t-64.5 13.5q-72 0 -123 -50.5t-51 -122.5q0 -18 3.5 -35t10 -32.5t16 -29.5t21 -26t25.5 -21.5t30 -16t33 -10t35 -3.5zM408 127q-47 0 -80.5 34t-33.5 83q0 48 33.5 82t80.5 34t80.5 -34t33.5 -82t-33.5 -82.5
t-80.5 -34.5z" />
    <glyph glyph-name="A" unicode="A" horiz-adv-x="656" 
d="M373 700h-90l-277 -700h84l75 195h323l75 -195h87zM192 266l135 349l134 -349h-269z" />
    <glyph glyph-name="B" unicode="B" horiz-adv-x="638" 
d="M92 0h282q22 0 43 4t40 11.5t35.5 18t30.5 23.5t25 28.5t18.5 33.5t11.5 37t4 39q0 63 -42 112t-108 65q46 21 74.5 60.5t28.5 86.5q0 19 -4 37t-11.5 34t-18 30.5t-24 27t-29.5 22t-34 16.5t-38 10.5t-41 3.5h-243v-700zM331 631q54 0 88.5 -34.5t34.5 -83.5
q0 -47 -34.5 -81.5t-88.5 -34.5h-159v234h159zM366 69h-194v261h194q59 0 97 -38t38 -92t-38 -92.5t-97 -38.5z" />
    <glyph glyph-name="C" unicode="C" horiz-adv-x="692" 
d="M647 463q-5 29 -14 55.5t-21.5 49t-28 42.5t-34.5 35.5t-40.5 28t-45 21t-49 12.5t-52.5 4q-28 0 -54.5 -4.5t-51 -13t-46.5 -21.5t-41.5 -29.5t-36 -37t-29 -44t-21.5 -50.5t-13.5 -57.5t-4.5 -63.5v-80q0 -33 4.5 -63.5t13.5 -57.5t21.5 -50.5t29 -44t36 -37
t41.5 -29.5t46.5 -21.5t51 -13t54.5 -4.5q27 0 52.5 4t49 12.5t45 21t40 28t34.5 35.5t28.5 42.5t21.5 49t14 55.5h-78q-17 -84 -74.5 -129.5t-132.5 -45.5q-23 0 -44.5 4t-41 12.5t-37 20.5t-32.5 28t-26.5 35.5t-19.5 42.5t-12.5 50t-4.5 57v76q0 30 4.5 57t12.5 50
t19.5 42.5t26.5 35.5t32 28t37 20.5t41.5 12.5t44.5 4q75 0 132.5 -45.5t74.5 -129.5h78z" />
    <glyph glyph-name="D" unicode="D" horiz-adv-x="712" 
d="M648 310v79q0 142 -81.5 226.5t-224.5 84.5h-250v-700h250q41 0 77.5 7t67.5 21t56 34.5t45 46.5t33 57t20 67t7 77zM337 629q110 0 170.5 -64.5t60.5 -177.5v-75q0 -114 -60.5 -177.5t-170.5 -63.5h-165v558h165z" />
    <glyph glyph-name="E" unicode="E" horiz-adv-x="593" 
d="M92 0h443v71h-363v245h353v70h-353v243h363v71h-443v-700z" />
    <glyph glyph-name="F" unicode="F" horiz-adv-x="593" 
d="M172 0v316h353v70h-353v243h363v71h-443v-700h80z" />
    <glyph glyph-name="G" unicode="G" horiz-adv-x="734" 
d="M64 312q0 -36 5.5 -69t16 -62.5t25.5 -55t34.5 -47t42.5 -37.5t50 -27.5t56.5 -17.5t62.5 -6q68 0 127 34.5t91 94.5v-119h75v362h-283v-70h208v-33q0 -23 -4 -43.5t-12 -39t-19.5 -34t-25.5 -28.5t-31 -22.5t-35.5 -16.5t-39 -10.5t-42.5 -3.5q-99 0 -160.5 68
t-61.5 183v76q0 114 61 182t161 68q69 0 125.5 -38t82.5 -106l71 30q-34 87 -108 137t-173 50q-34 0 -64.5 -6t-58 -17.5t-51 -28t-43.5 -37.5t-35.5 -46.5t-26 -55t-16 -62t-5.5 -68.5v-78z" />
    <glyph glyph-name="H" unicode="H" horiz-adv-x="715" 
d="M172 0v315h371v-315h80v700h-80v-314h-371v314h-80v-700h80z" />
    <glyph glyph-name="I" unicode="I" horiz-adv-x="265" 
d="M172 0v700h-80v-700h80z" />
    <glyph glyph-name="J" unicode="J" horiz-adv-x="502" 
d="M19 48q34 -29 78 -44t94 -15q24 0 46.5 4t43.5 12t39 19.5t33.5 26.5t27.5 33.5t20.5 40t13 46.5t4.5 53v476h-80v-471q0 -81 -43 -124t-107 -43q-35 0 -67 11.5t-56 32.5z" />
    <glyph glyph-name="K" unicode="K" horiz-adv-x="609" 
d="M172 0v323l339 -323h113l-380 356l374 344h-106l-340 -318v318h-80v-700h80z" />
    <glyph glyph-name="L" unicode="L" horiz-adv-x="571" 
d="M535 71h-363v629h-80v-700h443v71z" />
    <glyph glyph-name="M" unicode="M" horiz-adv-x="890" 
d="M169 0l-1 624l240 -624h73l240 622l-1 -622h78v700h-123l-229 -597l-229 597h-125v-700h77z" />
    <glyph glyph-name="N" unicode="N" horiz-adv-x="742" 
d="M168 0l-1 587l395 -587h87v700h-76l1 -586l-393 586h-89v-700h76z" />
    <glyph glyph-name="O" unicode="O" horiz-adv-x="740" 
d="M64 390v-80q0 -36 5.5 -69.5t16.5 -62.5t27 -54.5t36 -46.5t44.5 -37.5t52.5 -27.5t59 -17t65 -6t65.5 6t59.5 17t52 27.5t44 37.5t36 46.5t27 54.5t16.5 62.5t5.5 69.5v80q0 36 -5.5 69.5t-16.5 62.5t-27 54.5t-36 46.5t-44 37.5t-52 27.5t-59.5 17t-65.5 6t-65 -6
t-59 -17t-52.5 -27.5t-44.5 -37.5t-36 -46.5t-27 -54.5t-16.5 -62.5t-5.5 -69.5zM144 385q0 120 62.5 186.5t163.5 66.5t163.5 -66.5t62.5 -186.5v-70q0 -120 -62.5 -186.5t-163.5 -66.5q-100 0 -163 66.5t-63 186.5v70z" />
    <glyph glyph-name="P" unicode="P" horiz-adv-x="606" 
d="M92 0h80v287h185q23 0 44 4t40 12t36 19t31.5 25t25.5 30t19 34.5t12 39t4 41.5q0 22 -4 42.5t-12 39t-19 35t-25.5 31t-31.5 25.5t-36 19t-40 12t-44 4h-265v-700zM353 629q59 0 97 -40t38 -97t-38 -96.5t-97 -39.5h-181v273h181z" />
    <glyph glyph-name="Q" unicode="Q" horiz-adv-x="740" 
d="M64 390v-80q0 -36 5.5 -69.5t16.5 -62.5t27 -54.5t36 -46.5t44.5 -37.5t52.5 -27.5t59 -17t65 -6q44 0 83.5 9.5t73.5 28.5l62 -76l58 48l-60 73q42 43 65.5 103t23.5 135v80q0 36 -5.5 69.5t-16.5 62.5t-27 54.5t-36 46.5t-44 37.5t-52 27.5t-59.5 17t-65.5 6t-65 -6
t-59 -17t-52.5 -27.5t-44.5 -37.5t-36 -46.5t-27 -54.5t-16.5 -62.5t-5.5 -69.5zM144 385q0 120 62.5 186.5t163.5 66.5t163.5 -66.5t62.5 -186.5v-70q0 -58 -15 -104t-43 -78l-91 111l-59 -48l90 -110q-23 -12 -50.5 -18t-57.5 -6q-100 0 -163 66.5t-63 186.5v70z" />
    <glyph glyph-name="R" unicode="R" horiz-adv-x="620" 
d="M172 0v300h156l180 -300h91l-187 307q66 17 108.5 69.5t42.5 121.5q0 21 -4 41t-11.5 38t-18.5 34t-25 30t-30.5 25t-35.5 18.5t-40 11.5t-43 4h-263v-700h80zM348 629q59 0 97 -38.5t38 -92.5t-38 -92t-97 -38h-176v261h176z" />
    <glyph glyph-name="S" unicode="S" horiz-adv-x="604" 
d="M48 210q10 -99 83.5 -159t183.5 -60q105 0 169 55t64 142q0 69 -43 115t-132 70l-125 34q-56 15 -85 44t-29 72q0 53 41 86t103 33q73 0 118.5 -40t56.5 -110h79q-12 98 -81 158t-171 60q-24 0 -47 -3.5t-43 -10.5t-38 -17t-33 -22.5t-27 -28t-20 -33.5t-12.5 -37.5
t-4.5 -41.5q0 -67 43 -114t124 -69l121 -32q64 -17 94.5 -47t30.5 -75q0 -54 -41 -86.5t-113 -32.5q-77 0 -126.5 40t-60.5 110h-79z" />
    <glyph glyph-name="T" unicode="T" horiz-adv-x="621" 
d="M26 629h244v-629h80v629h245v71h-569v-71z" />
    <glyph glyph-name="U" unicode="U" horiz-adv-x="709" 
d="M162 264v436h-80v-442q0 -30 5 -58t14.5 -52.5t23.5 -45.5t31 -38.5t37.5 -31.5t43 -23t47.5 -14t52 -5q69 0 121 34t80 83v-107h80v700h-80v-436q0 -23 -3.5 -44t-11 -39.5t-17.5 -34.5t-22.5 -29t-27.5 -23.5t-32 -17.5t-35.5 -10.5t-38.5 -3.5q-79 0 -133 55t-54 147z
" />
    <glyph glyph-name="V" unicode="V" horiz-adv-x="656" 
d="M283 0h90l277 700h-84l-236 -613l-237 613h-87z" />
    <glyph glyph-name="W" unicode="W" horiz-adv-x="945" 
d="M509 700h-70l-184 -579l-143 579h-83l183 -700h76l185 579l184 -579h76l183 700h-79l-143 -579z" />
    <glyph glyph-name="X" unicode="X" horiz-adv-x="597" 
d="M0 0h92l205 302l206 -302h94l-255 364l235 336h-91l-188 -273l-186 273h-94l235 -336z" />
    <glyph glyph-name="Y" unicode="Y" horiz-adv-x="618" 
d="M349 0v289l268 411h-92l-214 -333l-216 333h-94l268 -408v-292h80z" />
    <glyph glyph-name="Z" unicode="Z" horiz-adv-x="558" 
d="M44 629h371l-380 -575v-54h483v71h-382l380 574v55h-472v-71z" />
    <glyph glyph-name="bracketleft" unicode="[" horiz-adv-x="332" 
d="M49 -125h253v62h-182v791h182v62h-253v-915z" />
    <glyph glyph-name="backslash" unicode="\" horiz-adv-x="411" 
d="M396 0l-304 700h-79l304 -700h79z" />
    <glyph glyph-name="bracketright" unicode="]" horiz-adv-x="332" 
d="M282 790h-253v-62h182v-791h-182v-62h253v915z" />
    <glyph glyph-name="asciicircum" unicode="^" horiz-adv-x="517" 
d="M37 350h73l149 281l149 -281h72l-187 350h-69z" />
    <glyph glyph-name="underscore" unicode="_" horiz-adv-x="483" 
d="M486 -80h-489v-59h489v59z" />
    <glyph glyph-name="grave" unicode="`" horiz-adv-x="500" 
d="M237 718h-92l128 -130h78z" />
    <glyph glyph-name="a" unicode="a" horiz-adv-x="544" 
d="M42 145q0 -67 50 -110.5t125 -43.5q51 0 92.5 23.5t64.5 63.5q3 -35 27 -56.5t64 -21.5h43v68h-26q-16 0 -25 8.5t-9 22.5v267q0 77 -48.5 123t-130.5 46q-57 0 -103 -18.5t-86 -53.5l40 -55q31 30 66 44t75 14q53 0 82 -29.5t29 -80.5v-49l-167 -9q-74 -4 -118.5 -43
t-44.5 -110zM117 148q0 40 26 63t71 25l158 8v-63q0 -51 -42 -89t-102 -38q-49 0 -80 26.5t-31 67.5z" />
    <glyph glyph-name="b" unicode="b" horiz-adv-x="606" 
d="M88 0h77v93q25 -48 69.5 -75.5t101.5 -27.5q22 0 43 4.5t40 12.5t35.5 20t31 27.5t25.5 34t18.5 40t11.5 45.5t4 50v79q0 104 -59.5 168.5t-149.5 64.5q-56 0 -101 -26.5t-70 -72.5v296h-77v-733zM165 296q0 77 41.5 124.5t110.5 47.5t110.5 -47.5t41.5 -124.5v-65
q0 -78 -41.5 -125.5t-110.5 -47.5t-110.5 47.5t-41.5 125.5v65z" />
    <glyph glyph-name="c" unicode="c" horiz-adv-x="540" 
d="M282 -10q81 0 139 48t75 129h-77q-14 -51 -50 -80t-87 -29q-66 0 -106 47.5t-40 125.5v65q0 77 40 124.5t106 47.5q51 0 87 -29t50 -80h77q-17 82 -75 129.5t-139 47.5q-24 0 -46.5 -4.5t-42.5 -12.5t-37.5 -20t-32.5 -27.5t-26.5 -34t-19.5 -40t-12.5 -45.5t-4.5 -51
v-76q0 -26 4.5 -50.5t12.5 -46t19.5 -40t26.5 -34t32.5 -27.5t37.5 -20t42.5 -12.5t46.5 -4.5z" />
    <glyph glyph-name="d" unicode="d" horiz-adv-x="606" 
d="M518 0v733h-77v-298q-25 47 -70 74t-102 27q-90 0 -149.5 -64.5t-59.5 -168.5v-79q0 -26 4 -50t11.5 -45.5t18.5 -40t25.5 -34t31 -27.5t35.5 -20t39.5 -12.5t43.5 -4.5q57 0 102 27.5t70 76.5v-94h77zM441 296v-65q0 -78 -42 -125.5t-111 -47.5t-110.5 47.5t-41.5 125.5
v65q0 77 41.5 124.5t110.5 47.5t111 -47.5t42 -124.5z" />
    <glyph glyph-name="e" unicode="e" horiz-adv-x="547" 
d="M60 226q0 -26 4.5 -50t12.5 -45t20 -40t27 -34.5t33 -27.5t38.5 -20.5t43.5 -13t47 -4.5q62 0 110.5 23.5t85.5 70.5l-54 45q-28 -37 -63 -54.5t-77 -17.5q-66 0 -109 47t-43 122v13h356v65q0 25 -4 48.5t-11.5 44.5t-18.5 39.5t-25.5 33.5t-31 27.5t-35.5 20.5
t-39.5 12.5t-43.5 4.5q-24 0 -46.5 -4.5t-42.5 -13t-38 -20.5t-33 -27.5t-26.5 -34.5t-19.5 -40t-12.5 -45t-4.5 -50v-75zM281 469q58 0 97 -45t39 -117v-4h-281q0 73 41 119.5t104 46.5z" />
    <glyph glyph-name="f" unicode="f" horiz-adv-x="386" 
d="M32 459h108v-459h76v459h138v68h-138v99q0 25 12 38.5t34 13.5h92v68h-103q-52 0 -81.5 -30t-29.5 -79v-110h-108v-68z" />
    <glyph glyph-name="g" unicode="g" horiz-adv-x="602" 
d="M196 -215h139q84 0 132 48t48 131v563h-77v-91q-25 46 -69.5 73t-100.5 27q-90 0 -149 -65t-59 -169v-76q0 -104 59 -168.5t149 -64.5q56 0 100.5 26.5t69.5 73.5v-121q0 -59 -30.5 -89.5t-89.5 -30.5h-122v-67zM438 296v-65q0 -78 -41 -124t-109 -46t-110 46t-42 124v65
q0 78 42 125t110 47t109 -47t41 -125z" />
    <glyph glyph-name="h" unicode="h" 
d="M517 344q0 20 -3.5 39t-10 36.5t-16 33t-21.5 28.5t-26.5 23.5t-31.5 17.5t-36 11t-40 4q-56 0 -101 -29.5t-66 -79.5v305h-77v-733h77v323q0 61 40 102.5t103 41.5q60 0 96 -39.5t36 -98.5v-329h77v344z" />
    <glyph glyph-name="i" unicode="i" horiz-adv-x="253" 
d="M127 630q20 0 35 15.5t15 35.5q0 22 -15 37t-35 15q-21 0 -36.5 -15t-15.5 -37q0 -20 15.5 -35.5t36.5 -15.5zM165 527h-77v-527h77v527z" />
    <glyph glyph-name="j" unicode="j" horiz-adv-x="253" 
d="M127 630q20 0 35 15.5t15 35.5q0 22 -15 37t-35 15q-21 0 -36.5 -15t-15.5 -37q0 -20 15.5 -35.5t36.5 -15.5zM61 -215q49 0 76.5 27t27.5 69v646h-77v-635q0 -19 -11.5 -29.5t-32.5 -10.5h-34v-67h51z" />
    <glyph glyph-name="k" unicode="k" horiz-adv-x="505" 
d="M506 527h-99l-242 -234v440h-77v-733h77v248l249 -248h105l-281 274z" />
    <glyph glyph-name="l" unicode="l" horiz-adv-x="253" 
d="M165 0v733h-77v-733h77z" />
    <glyph glyph-name="m" unicode="m" horiz-adv-x="930" 
d="M165 319q0 63 38 105.5t97 42.5q57 0 91.5 -40.5t34.5 -100.5v-326h77v319q0 63 38 105.5t98 42.5q56 0 91 -40.5t35 -100.5v-326h77v341q0 21 -3.5 40t-9.5 37t-15.5 33.5t-21.5 29t-26 23.5t-30.5 17.5t-35 11.5t-38.5 4q-62 0 -107.5 -37t-62.5 -94q-16 57 -61 94
t-108 37q-53 0 -95.5 -29.5t-62.5 -79.5v99h-77v-527h77v319z" />
    <glyph glyph-name="n" unicode="n" 
d="M517 344q0 20 -3.5 39t-10 36.5t-16 33t-21.5 28.5t-26.5 23.5t-31.5 17.5t-36 11t-40 4q-56 0 -101 -29.5t-66 -79.5v99h-77v-527h77v323q0 61 40 102.5t103 41.5q60 0 96 -39.5t36 -98.5v-329h77v344z" />
    <glyph glyph-name="o" unicode="o" horiz-adv-x="574" 
d="M514 225v76q0 27 -4.5 51t-13 45.5t-20.5 40t-27 34t-33 27.5t-38.5 20t-43.5 12.5t-47 4.5q-25 0 -48 -4.5t-43.5 -12.5t-38.5 -20t-33 -27.5t-27 -34t-20 -40t-12.5 -45.5t-4.5 -51v-76q0 -26 4.5 -50.5t12.5 -46t20 -40t27.5 -34t33.5 -27.5t38.5 -20t43 -12.5
t47.5 -4.5q24 0 47 4.5t43.5 12.5t38.5 20t33 27.5t27 34t20.5 40t13 45.5t4.5 51zM438 296v-65q0 -78 -41.5 -125.5t-109.5 -47.5q-69 0 -110 47.5t-41 125.5v65q0 77 41 124.5t110 47.5q68 0 109.5 -47.5t41.5 -124.5z" />
    <glyph glyph-name="p" unicode="p" 
d="M88 527v-742h77v308q25 -48 69.5 -75.5t101.5 -27.5q22 0 43 4.5t40 12.5t35.5 20t31 27.5t25.5 34t18.5 40t11.5 45.5t4 50v79q0 104 -59.5 168.5t-149.5 64.5q-56 0 -101 -26.5t-70 -72.5v90h-77zM165 296q0 77 41.5 124.5t110.5 47.5t110.5 -47.5t41.5 -124.5v-65
q0 -78 -41.5 -125.5t-110.5 -47.5t-110.5 47.5t-41.5 125.5v65z" />
    <glyph glyph-name="q" unicode="q" horiz-adv-x="606" 
d="M518 527h-77v-92q-25 47 -70 74t-102 27q-90 0 -149.5 -64.5t-59.5 -168.5v-79q0 -26 4 -50t11.5 -45.5t18.5 -40t25.5 -34t31 -27.5t35.5 -20t39.5 -12.5t43.5 -4.5q57 0 102 27.5t70 76.5v-309h77v742zM441 296v-65q0 -78 -42 -125.5t-111 -47.5t-110.5 47.5
t-41.5 125.5v65q0 77 41.5 124.5t110.5 47.5t111 -47.5t42 -124.5z" />
    <glyph glyph-name="r" unicode="r" horiz-adv-x="375" 
d="M345 456v75h-44q-49 0 -85 -30.5t-52 -79.5v106h-76v-527h77v313q0 61 38 102t92 41h50z" />
    <glyph glyph-name="s" unicode="s" horiz-adv-x="488" 
d="M257 -10q81 0 132.5 42t51.5 110q0 53 -38 91t-107 56l-87 23q-39 10 -62 30t-23 52q0 34 27 56.5t74 22.5q50 0 87.5 -30.5t44.5 -74.5h76q-10 75 -69 121.5t-139 46.5q-79 0 -128 -42t-49 -109q0 -53 36 -89t102 -53l89 -23q42 -12 66 -32t24 -53q0 -34 -29.5 -57.5
t-78.5 -23.5q-59 0 -97 30.5t-46 75.5h-75q12 -73 71 -121.5t147 -48.5z" />
    <glyph glyph-name="t" unicode="t" horiz-adv-x="389" 
d="M253 0h103v68h-88q-25 0 -39 12.5t-14 35.5v343h141v68h-141v158h-76v-158h-108v-68h108v-354q0 -46 30 -75.5t84 -29.5z" />
    <glyph glyph-name="u" unicode="u" 
d="M88 182q0 -20 3.5 -39t10 -36.5t16 -33t21.5 -28t27 -23t32 -17.5t36 -11t40 -4q55 0 100 29t66 80v-99h77v527h-77v-323q0 -62 -40 -103t-103 -41q-59 0 -95.5 39.5t-36.5 97.5v330h-77v-345z" />
    <glyph glyph-name="v" unicode="v" horiz-adv-x="502" 
d="M217 0h68l213 527h-79l-166 -425l-167 425h-81z" />
    <glyph glyph-name="w" unicode="w" horiz-adv-x="742" 
d="M339 527l-130 -409l-110 409h-79l148 -527h69l134 413l133 -413h69l148 527h-77l-110 -407l-130 407h-65z" />
    <glyph glyph-name="x" unicode="x" horiz-adv-x="476" 
d="M1 0h86l150 213l150 -213h88l-196 272l184 255h-86l-139 -197l-138 197h-87l182 -256z" />
    <glyph glyph-name="y" unicode="y" horiz-adv-x="506" 
d="M178 -92q-10 -27 -27.5 -41.5t-45.5 -14.5h-56v-67h68q50 0 80 26t49 75l255 641h-80l-164 -421l-171 421h-81l212 -520z" />
    <glyph glyph-name="z" unicode="z" horiz-adv-x="473" 
d="M43 459h289l-293 -403v-56h392v68h-298l291 402v57h-381v-68z" />
    <glyph glyph-name="braceleft" unicode="{" horiz-adv-x="399" 
d="M255 168q28 61 2 106.5t-79 58.5q53 13 79 58.5t-2 106.5l-51 114q-26 59 -1.5 92t73.5 34q23 0 42.5 -4.5t39.5 -12.5l17 57q-27 12 -50.5 17t-52.5 5q-24 0 -45 -4t-38 -12t-30 -19.5t-22.5 -25.5t-14 -31t-4 -36t5.5 -40.5t15 -43.5l48 -104q22 -49 1 -84.5t-72 -35.5
h-89v-62h90q50 0 71 -35.5t-1 -84.5l-48 -104q-10 -22 -15 -43.5t-5.5 -40.5t4 -36t14 -31t22.5 -25.5t30 -19.5t38 -12t45 -4q29 0 52.5 5t50.5 17l-17 57q-20 -8 -39.5 -12.5t-42.5 -4.5q-49 1 -73.5 34t1.5 92z" />
    <glyph glyph-name="bar" unicode="|" horiz-adv-x="244" 
d="M160 -215v915h-77v-915h77z" />
    <glyph glyph-name="braceright" unicode="}" horiz-adv-x="399" 
d="M146 498q-28 -61 -2 -106.5t79 -58.5q-53 -13 -79 -58.5t2 -106.5l51 -114q26 -59 1.5 -92t-73.5 -34q-23 0 -42.5 4.5t-39.5 12.5l-17 -57q27 -12 50.5 -17t52.5 -5q24 0 45 4t38 12t30 19.5t22.5 25.5t14 31t4 36t-5.5 40.5t-15 43.5l-48 104q-22 49 -1 84.5t72 35.5
h89v62h-90q-50 0 -71 35.5t1 84.5l48 104q10 22 15 43.5t5.5 40.5t-4 36t-14 31t-22.5 25.5t-30 19.5t-38 12t-45 4q-29 0 -52.5 -5t-50.5 -17l17 -57q20 8 39.5 12.5t42.5 4.5q49 -1 73.5 -34t-1.5 -92z" />
    <glyph glyph-name="asciitilde" unicode="~" horiz-adv-x="551" 
d="M128 311q14 44 27.5 60t32.5 16q7 0 15.5 -2t18 -5.5t19.5 -8t21 -10l22 -11t22.5 -11t22.5 -10t21.5 -8t20.5 -5.5t19 -2q42 0 70.5 32.5t45.5 93.5l-62 16q-14 -44 -27.5 -60t-32.5 -16q-7 0 -15.5 2t-18 5.5t-19.5 8t-21 10l-22 11l-22 11t-22 10t-22 8t-21 5.5t-19 2
q-41 0 -70 -32.5t-46 -93.5z" />
    <glyph glyph-name="uni00A0" unicode="&#xa0;" horiz-adv-x="223" 
 />
    <glyph glyph-name="exclamdown" unicode="&#xa1;" horiz-adv-x="207" 
d="M70 514l-6 -544h79l-6 544h-67zM103 606q21 0 36 15t15 37q0 21 -15 36t-36 15t-36 -15t-15 -36q0 -22 15 -37t36 -15z" />
    <glyph glyph-name="cent" unicode="&#xa2;" horiz-adv-x="550" 
d="M316 628h-63v-94q-84 -10 -137.5 -73t-53.5 -160v-76q0 -96 53.5 -159.5t137.5 -73.5v-99h63v99q69 9 117.5 56t64.5 119h-77q-12 -43 -39 -70.5t-66 -35.5v404q39 -8 66 -35.5t39 -70.5h77q-16 74 -64.5 120t-117.5 55v94zM138 231v65q0 67 31.5 113t83.5 56v-404
q-52 10 -83.5 56t-31.5 114z" />
    <glyph glyph-name="sterling" unicode="&#xa3;" horiz-adv-x="567" 
d="M386 370h-191l-17 62q-26 96 8.5 153t111.5 57q61 0 103 -36.5t49 -98.5h75q-9 92 -71 146.5t-155 54.5q-26 0 -49 -4.5t-43 -12.5t-37.5 -20t-31 -27t-23.5 -33.5t-16 -39.5t-7.5 -45t1 -49.5t10.5 -53.5l14 -53h-72v-61h89l28 -103q16 -61 -10 -99.5t-75 -38.5h-40v-68
h500v68h-336q28 22 38.5 59.5t-2.5 85.5l-26 96h175v61z" />
    <glyph glyph-name="yen" unicode="&#xa5;" horiz-adv-x="625" 
d="M107 201v-57h169v-144h80v144h170v57h-170v80h170v57h-138l236 362h-92l-214 -333l-216 333h-94l238 -362h-139v-57h169v-80h-169z" />
    <glyph glyph-name="section" unicode="&#xa7;" horiz-adv-x="506" 
d="M440 35q0 34 -14 60t-42 46q48 14 77 52t29 90q0 56 -35 94t-101 61l-131 46q-43 15 -62.5 36t-19.5 50q0 34 25.5 55.5t67.5 21.5q43 0 80 -27t45 -72h74q-10 69 -64 115t-135 46q-74 0 -121 -40.5t-47 -106.5q0 -33 13.5 -59t39.5 -46q-46 -13 -75 -51t-29 -92
q0 -55 35 -94t101 -61l134 -46q41 -13 61 -35t20 -52q0 -34 -26 -54.5t-69 -20.5q-47 0 -84.5 27.5t-45.5 70.5h-74q11 -69 67 -114.5t137 -45.5q77 0 123 41.5t46 104.5zM331 372q44 -15 64.5 -39.5t20.5 -60.5q0 -47 -39.5 -74.5t-99.5 -8.5l-103 36q-44 15 -64.5 39.5
t-20.5 60.5q0 48 38.5 75.5t87.5 11.5z" />
    <glyph glyph-name="dieresis" unicode="&#xa8;" horiz-adv-x="519" 
d="M173 601q20 0 35 15t15 36t-15 35.5t-35 14.5t-35 -14.5t-15 -35.5t15 -36t35 -15zM347 601q20 0 35 15t15 36t-15 35.5t-35 14.5t-35 -14.5t-15 -35.5t15 -36t35 -15z" />
    <glyph glyph-name="copyright" unicode="&#xa9;" horiz-adv-x="835" 
d="M418 -11q30 0 59 4.5t56 13.5t51.5 22t47 29.5t42 36t36 42t29.5 47.5t22 52t13.5 56t4.5 59t-4.5 58.5t-13.5 55.5t-22 52t-29.5 47t-36 42t-42 36t-47 29t-51.5 22t-56 13.5t-59 4.5t-59 -4.5t-56 -13.5t-51.5 -22t-47 -29.5t-42 -36t-36 -42t-29.5 -47.5t-22 -52
t-13.5 -56t-4.5 -59t4.5 -58.5t13.5 -55.5t22 -52t29.5 -47t36 -42t42 -36t47 -29t51.5 -22t56 -13.5t59 -4.5zM418 39q-26 0 -50.5 4t-47.5 11.5t-44 18.5t-40 25t-35.5 31t-30.5 36t-25 40.5t-18.5 45t-11.5 48t-4 50.5t4 51t11.5 48.5t18.5 45t25 40.5t30.5 36t35.5 31
t40 25.5t44 19t47.5 11.5t50.5 4t50 -4t47 -11.5t44 -18.5t40 -25t35.5 -31t30.5 -36t25 -40.5t18.5 -45t11.5 -48t4 -50.5t-4 -51t-11.5 -48.5t-18.5 -45t-25 -40.5t-30.5 -36t-35.5 -31t-40 -25.5t-44 -19t-47.5 -11.5t-49.5 -4zM301 350q0 54 37 91.5t88 37.5
q33 0 60 -14.5t44 -39.5l46 34q-25 34 -63 55t-87 21q-20 0 -38.5 -3.5t-35.5 -11t-32 -17.5t-27.5 -22.5t-23 -27t-17.5 -31.5t-10.5 -35t-3.5 -37t3.5 -37.5t10.5 -35t17.5 -31.5t23 -27.5t27.5 -22.5t32 -17t35.5 -10.5t38.5 -3.5q49 0 87 21t63 56l-46 33
q-17 -25 -44 -39.5t-60 -14.5q-51 0 -88 37.5t-37 91.5z" />
    <glyph glyph-name="ordfeminine" unicode="&#xaa;" horiz-adv-x="402" 
d="M33 434q0 -48 35 -79t89 -31q35 0 63.5 16.5t44.5 44.5q4 -24 22.5 -38.5t46.5 -14.5h35v58h-19q-10 0 -16.5 6t-6.5 16v173q0 56 -35 89.5t-95 33.5q-40 0 -74 -13t-63 -37l31 -48q23 19 47 28.5t51 9.5q35 0 54 -18.5t19 -52.5v-29l-112 -7q-54 -3 -85.5 -30.5
t-31.5 -76.5zM97 436q0 25 16.5 40t44.5 16l104 6v-38q0 -34 -27 -58.5t-66 -24.5q-31 0 -51.5 17t-20.5 42z" />
    <glyph glyph-name="guillemotleft" unicode="&#xab;" horiz-adv-x="602" 
d="M355 527h-88l-246 -263l246 -264h92l-244 265zM571 527h-88l-246 -263l246 -264h92l-244 265z" />
    <glyph glyph-name="registered" unicode="&#xae;" horiz-adv-x="471" 
d="M235 309q21 0 40.5 4t37.5 11.5t34 18.5t29.5 24.5t24.5 29.5t18.5 34t11.5 38t4 41t-4 41t-11.5 38t-18.5 34t-24.5 29.5t-29.5 24.5t-34 18.5t-37.5 11.5t-40.5 4t-40.5 -4t-37.5 -11.5t-34 -18.5t-29.5 -24.5t-24.5 -29.5t-18.5 -34t-11.5 -38t-4 -41t4 -41t11.5 -38
t18.5 -34t24.5 -29.5t29.5 -24.5t34 -18.5t37.5 -11.5t40.5 -4zM235 346q-67 0 -114 48t-47 116t47 116t114 48t114 -48t47 -116t-47 -116t-114 -48zM168 419h38v74h25l42 -74h42l-47 79q16 7 25.5 20.5t9.5 30.5q0 24 -16.5 40.5t-41.5 16.5h-77v-187zM236 574q13 0 21 -7
t8 -18q0 -10 -8 -18t-21 -8h-30v51h30z" />
    <glyph glyph-name="macron" unicode="&#xaf;" horiz-adv-x="500" 
d="M378 671h-248v-55h248v55z" />
    <glyph glyph-name="degree" unicode="&#xb0;" horiz-adv-x="369" 
d="M185 424q58 0 100 42.5t42 102.5q0 56 -41 98.5t-101 42.5q-61 0 -102 -42.5t-41 -98.5q0 -60 41.5 -102.5t101.5 -42.5zM185 475q-38 0 -64 28t-26 67q0 36 26.5 62.5t63.5 26.5q36 0 62.5 -26t26.5 -63q0 -39 -26 -67t-63 -28z" />
    <glyph glyph-name="plusminus" unicode="&#xb1;" horiz-adv-x="550" 
d="M308 173v177h176v64h-176v173h-65v-173h-177v-64h177v-177h65zM484 63h-418v-63h418v63z" />
    <glyph glyph-name="twosuperior" unicode="&#xb2;" horiz-adv-x="309" 
d="M274 593q0 48 -34.5 80.5t-90.5 32.5q-44 0 -77 -20.5t-52 -57.5l47 -26q13 25 33.5 39t46.5 14q29 0 48.5 -18.5t19.5 -47.5q0 -23 -11 -42t-33 -43l-139 -150v-39h247v52l-164 -1l101 108q31 34 45 61t13 58z" />
    <glyph glyph-name="threesuperior" unicode="&#xb3;" horiz-adv-x="325" 
d="M156 706q-46 0 -80 -21t-50 -55l49 -25q11 23 31 36.5t45 13.5q29 0 48.5 -17t19.5 -44q0 -25 -17 -41.5t-42 -16.5h-47v-49h52q29 0 47 -18t18 -44q0 -28 -20 -47t-53 -19q-29 0 -51.5 14t-34.5 38l-50 -26q18 -35 53 -56t84 -21q58 0 95.5 33t37.5 81q0 33 -20 59
t-51 36q26 10 42 32.5t16 50.5q0 45 -35 75t-87 31z" />
    <glyph glyph-name="acute" unicode="&#xb4;" horiz-adv-x="500" 
d="M265 718l-114 -130h77l129 130h-92z" />
    <glyph glyph-name="paragraph" unicode="&#xb6;" horiz-adv-x="564" 
d="M24 495q0 -21 4 -41t12 -38.5t19 -34.5t25 -30t30.5 -25t35.5 -18.5t40 -11.5t43 -4h55v-292h69v292h71v-292h69v700h-264q-22 0 -43 -4t-40 -12t-35.5 -19t-30.5 -25t-25 -30t-19 -34.5t-12 -39t-4 -41.5z" />
    <glyph glyph-name="periodcentered" unicode="&#xb7;" horiz-adv-x="213" 
d="M106 353q-21 0 -36 -15t-15 -37q0 -21 15 -36t36 -15t36 15t15 36q0 22 -15 37t-36 15z" />
    <glyph glyph-name="cedilla" unicode="&#xb8;" horiz-adv-x="500" 
d="M378 -138q0 35 -24 57.5t-64 25.5l18 61h-47l-29 -98h33q27 0 43.5 -12.5t16.5 -32.5t-14.5 -33t-38.5 -13q-19 0 -36 8.5t-30 24.5l-37 -31q16 -22 44 -34.5t61 -12.5q44 0 74 26t30 64z" />
    <glyph glyph-name="onesuperior" unicode="&#xb9;" horiz-adv-x="274" 
d="M248 367h-80v333h-131v-52h71v-281h-80v-52h220v52z" />
    <glyph glyph-name="ordmasculine" unicode="&#xba;" horiz-adv-x="417" 
d="M372 493v48q0 77 -46.5 122.5t-117.5 45.5t-117 -46t-46 -122v-48q0 -76 46.5 -122t116.5 -46q71 0 117.5 45.5t46.5 122.5zM307 538v-42q0 -51 -27 -82t-72 -31t-71.5 31t-26.5 82v42q0 51 26.5 82.5t71.5 31.5t72 -31.5t27 -82.5z" />
    <glyph glyph-name="guillemotright" unicode="&#xbb;" horiz-adv-x="602" 
d="M247 0h88l246 263l-246 264h-92l244 -265zM31 0h88l246 263l-246 264h-92l244 -265z" />
    <glyph glyph-name="onequarter" unicode="&#xbc;" horiz-adv-x="693" 
d="M248 367h-80v333h-131v-52h71v-281h-80v-52h220v52zM570 0h60v97h48v51h-48v237h-77l-171 -243v-45h188v-97zM446 148l124 180v-180h-124zM193 0l384 700h-66l-383 -700h65z" />
    <glyph glyph-name="onehalf" unicode="&#xbd;" horiz-adv-x="723" 
d="M248 367h-80v333h-131v-52h71v-281h-80v-52h220v52zM693 278q0 48 -34.5 80.5t-90.5 32.5q-44 0 -77 -20.5t-52 -57.5l47 -26q13 25 33.5 39t46.5 14q29 0 48.5 -18.5t19.5 -47.5q0 -23 -11 -42t-33 -43l-139 -150v-39h247v52l-164 -1l101 108q31 34 45 61t13 58zM191 0
l384 700h-66l-383 -700h65z" />
    <glyph glyph-name="threequarters" unicode="&#xbe;" horiz-adv-x="699" 
d="M156 706q-46 0 -80 -21t-50 -55l49 -25q11 23 31 36.5t45 13.5q29 0 48.5 -17t19.5 -44q0 -25 -17 -41.5t-42 -16.5h-47v-49h52q29 0 47 -18t18 -44q0 -28 -20 -47t-53 -19q-29 0 -51.5 14t-34.5 38l-50 -26q18 -35 53 -56t84 -21q58 0 95.5 33t37.5 81q0 33 -20 59
t-51 36q26 10 42 32.5t16 50.5q0 45 -35 75t-87 31zM589 0h60v97h48v51h-48v237h-77l-171 -243v-45h188v-97zM465 148l124 180v-180h-124zM212 0l384 700h-66l-383 -700h65z" />
    <glyph glyph-name="questiondown" unicode="&#xbf;" horiz-adv-x="503" 
d="M45 195q0 -21 4 -41.5t12.5 -39t20 -34.5t26.5 -30t33 -25t38.5 -19t43.5 -12t48 -4q67 0 122 29.5t92 78.5l-57 41q-28 -37 -68.5 -58.5t-86.5 -21.5q-67 0 -109 40.5t-42 98.5q0 57 38.5 97t101.5 40h39l-3 179h-65l-3 -117q-83 -7 -134 -65t-51 -137zM268 611
q21 0 36 15t15 37q0 21 -15 36t-36 15t-36 -15t-15 -36q0 -22 15 -37t36 -15z" />
    <glyph glyph-name="Agrave" unicode="&#xc0;" horiz-adv-x="656" 
d="M373 700h-90l-277 -700h84l75 195h323l75 -195h87zM192 266l135 349l134 -349h-269zM274 915h-92l128 -130h78z" />
    <glyph glyph-name="Aacute" unicode="&#xc1;" horiz-adv-x="656" 
d="M373 700h-90l-277 -700h84l75 195h323l75 -195h87zM192 266l135 349l134 -349h-269zM382 915l-114 -130h77l129 130h-92z" />
    <glyph glyph-name="Acircumflex" unicode="&#xc2;" horiz-adv-x="656" 
d="M373 700h-90l-277 -700h84l75 195h323l75 -195h87zM192 266l135 349l134 -349h-269zM253 785l77 84l77 -84h71l-109 130h-78l-109 -130h71z" />
    <glyph glyph-name="Atilde" unicode="&#xc3;" horiz-adv-x="656" 
d="M373 700h-90l-277 -700h84l75 195h323l75 -195h87zM192 266l135 349l134 -349h-269zM268 906q-32 0 -55 -27.5t-37 -78.5l51 -12q12 37 22 50t23 13q4 0 9.5 -2t11 -5.5t12 -8t13.5 -9.5l14 -10t14 -9.5t14.5 -8t15 -5.5t14.5 -2q32 0 55 27t36 78l-51 12
q-11 -37 -21 -50t-23 -13q-5 0 -10 2t-11 5.5t-12 8t-13 9.5t-14 10.5t-14.5 10t-14.5 8t-14.5 5.5t-14.5 2z" />
    <glyph glyph-name="Adieresis" unicode="&#xc4;" horiz-adv-x="656" 
d="M373 700h-90l-277 -700h84l75 195h323l75 -195h87zM192 266l135 349l134 -349h-269zM242 798q20 0 35 15t15 36t-15 35.5t-35 14.5t-35 -14.5t-15 -35.5t15 -36t35 -15zM416 798q20 0 35 15t15 36t-15 35.5t-35 14.5t-35 -14.5t-15 -35.5t15 -36t35 -15z" />
    <glyph glyph-name="Aring" unicode="&#xc5;" horiz-adv-x="656" 
d="M373 700h-90l-277 -700h84l75 195h323l75 -195h87zM192 266l135 349l134 -349h-269zM329 768q43 0 74 30t31 72t-31 72t-74 30t-74 -30t-31 -72t31 -72t74 -30zM329 809q-26 0 -44 18t-18 43t18 43t44 18t44 -18t18 -43t-18 -43t-44 -18z" />
    <glyph glyph-name="AE" unicode="&#xc6;" horiz-adv-x="955" 
d="M897 71h-339v245h329v70h-329v243h339v71h-451l-433 -700h93l112 185h260v-185h419v71zM260 256l218 361v-361h-218z" />
    <glyph glyph-name="Ccedilla" unicode="&#xc7;" horiz-adv-x="692" 
d="M647 463q-5 29 -14 55.5t-21.5 49t-28 42.5t-34.5 35.5t-40.5 28t-45 21t-49 12.5t-52.5 4q-28 0 -54.5 -4.5t-51 -13t-46.5 -21.5t-41.5 -29.5t-36 -37t-29 -44t-21.5 -50.5t-13.5 -57.5t-4.5 -63.5v-80q0 -36 5.5 -68t15.5 -60.5t24.5 -53.5t33 -45.5t40.5 -37t47 -28
t52.5 -18.5t56.5 -9l-24 -82h33q27 0 43.5 -12.5t16.5 -32.5t-14.5 -33t-38.5 -13q-19 0 -36 8.5t-30 24.5l-37 -31q16 -22 44 -34.5t61 -12.5q44 0 74 26t30 64q0 35 -24 57.5t-64 25.5l13 45q99 7 170.5 72t90.5 175h-78q-17 -84 -74.5 -129.5t-132.5 -45.5q-23 0 -44.5 4
t-41 12.5t-37 20.5t-32.5 28t-26.5 35.5t-19.5 42.5t-12.5 50t-4.5 57v76q0 30 4.5 57t12.5 50t19.5 42.5t26.5 35.5t32 28t37 20.5t41.5 12.5t44.5 4q75 0 132.5 -45.5t74.5 -129.5h78z" />
    <glyph glyph-name="Egrave" unicode="&#xc8;" horiz-adv-x="593" 
d="M92 0h443v71h-363v245h353v70h-353v243h363v71h-443v-700zM267 915h-92l128 -130h78z" />
    <glyph glyph-name="Eacute" unicode="&#xc9;" horiz-adv-x="593" 
d="M92 0h443v71h-363v245h353v70h-353v243h363v71h-443v-700zM376 915l-114 -130h77l129 130h-92z" />
    <glyph glyph-name="Ecircumflex" unicode="&#xca;" horiz-adv-x="593" 
d="M92 0h443v71h-363v245h353v70h-353v243h363v71h-443v-700zM246 785l77 84l77 -84h71l-109 130h-78l-109 -130h71z" />
    <glyph glyph-name="Edieresis" unicode="&#xcb;" horiz-adv-x="593" 
d="M92 0h443v71h-363v245h353v70h-353v243h363v71h-443v-700zM236 798q20 0 35 15t15 36t-15 35.5t-35 14.5t-35 -14.5t-15 -35.5t15 -36t35 -15zM410 798q20 0 35 15t15 36t-15 35.5t-35 14.5t-35 -14.5t-15 -35.5t15 -36t35 -15z" />
    <glyph glyph-name="Igrave" unicode="&#xcc;" horiz-adv-x="265" 
d="M172 0v700h-80v-700h80zM77 915h-92l128 -130h78z" />
    <glyph glyph-name="Iacute" unicode="&#xcd;" horiz-adv-x="265" 
d="M172 0v700h-80v-700h80zM186 915l-114 -130h77l129 130h-92z" />
    <glyph glyph-name="Icircumflex" unicode="&#xce;" horiz-adv-x="265" 
d="M172 0v700h-80v-700h80zM56 785l77 84l77 -84h71l-109 130h-78l-109 -130h71z" />
    <glyph glyph-name="Idieresis" unicode="&#xcf;" horiz-adv-x="265" 
d="M172 0v700h-80v-700h80zM46 798q20 0 35 15t15 36t-15 35.5t-35 14.5t-35 -14.5t-15 -35.5t15 -36t35 -15zM220 798q20 0 35 15t15 36t-15 35.5t-35 14.5t-35 -14.5t-15 -35.5t15 -36t35 -15z" />
    <glyph glyph-name="Eth" unicode="&#xd0;" horiz-adv-x="719" 
d="M3 316h96v-316h250q41 0 77.5 7t67.5 21t56 34.5t45 46.5t33 57t20 67t7 77v79q0 142 -81.5 226.5t-224.5 84.5h-250v-315h-96v-69zM344 629q110 0 170.5 -64.5t60.5 -177.5v-75q0 -114 -60.5 -177.5t-170.5 -63.5h-165v245h151v69h-151v244h165z" />
    <glyph glyph-name="Ntilde" unicode="&#xd1;" horiz-adv-x="742" 
d="M168 0l-1 587l395 -587h87v700h-76l1 -586l-393 586h-89v-700h76zM310 906q-32 0 -55 -27.5t-37 -78.5l51 -12q12 37 22 50t23 13q4 0 9.5 -2t11 -5.5t12 -8t13.5 -9.5l14 -10t14 -9.5t14.5 -8t15 -5.5t14.5 -2q32 0 55 27t36 78l-51 12q-11 -37 -21 -50t-23 -13
q-5 0 -10 2t-11 5.5t-12 8t-13 9.5t-14 10.5t-14.5 10t-14.5 8t-14.5 5.5t-14.5 2z" />
    <glyph glyph-name="Ograve" unicode="&#xd2;" horiz-adv-x="740" 
d="M64 390v-80q0 -36 5.5 -69.5t16.5 -62.5t27 -54.5t36 -46.5t44.5 -37.5t52.5 -27.5t59 -17t65 -6t65.5 6t59.5 17t52 27.5t44 37.5t36 46.5t27 54.5t16.5 62.5t5.5 69.5v80q0 36 -5.5 69.5t-16.5 62.5t-27 54.5t-36 46.5t-44 37.5t-52 27.5t-59.5 17t-65.5 6t-65 -6
t-59 -17t-52.5 -27.5t-44.5 -37.5t-36 -46.5t-27 -54.5t-16.5 -62.5t-5.5 -69.5zM144 385q0 120 62.5 186.5t163.5 66.5t163.5 -66.5t62.5 -186.5v-70q0 -120 -62.5 -186.5t-163.5 -66.5q-100 0 -163 66.5t-63 186.5v70zM315 915h-92l128 -130h78z" />
    <glyph glyph-name="Oacute" unicode="&#xd3;" horiz-adv-x="740" 
d="M64 390v-80q0 -36 5.5 -69.5t16.5 -62.5t27 -54.5t36 -46.5t44.5 -37.5t52.5 -27.5t59 -17t65 -6t65.5 6t59.5 17t52 27.5t44 37.5t36 46.5t27 54.5t16.5 62.5t5.5 69.5v80q0 36 -5.5 69.5t-16.5 62.5t-27 54.5t-36 46.5t-44 37.5t-52 27.5t-59.5 17t-65.5 6t-65 -6
t-59 -17t-52.5 -27.5t-44.5 -37.5t-36 -46.5t-27 -54.5t-16.5 -62.5t-5.5 -69.5zM144 385q0 120 62.5 186.5t163.5 66.5t163.5 -66.5t62.5 -186.5v-70q0 -120 -62.5 -186.5t-163.5 -66.5q-100 0 -163 66.5t-63 186.5v70zM423 915l-114 -130h77l129 130h-92z" />
    <glyph glyph-name="Ocircumflex" unicode="&#xd4;" horiz-adv-x="740" 
d="M64 390v-80q0 -36 5.5 -69.5t16.5 -62.5t27 -54.5t36 -46.5t44.5 -37.5t52.5 -27.5t59 -17t65 -6t65.5 6t59.5 17t52 27.5t44 37.5t36 46.5t27 54.5t16.5 62.5t5.5 69.5v80q0 36 -5.5 69.5t-16.5 62.5t-27 54.5t-36 46.5t-44 37.5t-52 27.5t-59.5 17t-65.5 6t-65 -6
t-59 -17t-52.5 -27.5t-44.5 -37.5t-36 -46.5t-27 -54.5t-16.5 -62.5t-5.5 -69.5zM144 385q0 120 62.5 186.5t163.5 66.5t163.5 -66.5t62.5 -186.5v-70q0 -120 -62.5 -186.5t-163.5 -66.5q-100 0 -163 66.5t-63 186.5v70zM294 785l77 84l77 -84h71l-109 130h-78l-109 -130h71
z" />
    <glyph glyph-name="Otilde" unicode="&#xd5;" horiz-adv-x="740" 
d="M64 390v-80q0 -36 5.5 -69.5t16.5 -62.5t27 -54.5t36 -46.5t44.5 -37.5t52.5 -27.5t59 -17t65 -6t65.5 6t59.5 17t52 27.5t44 37.5t36 46.5t27 54.5t16.5 62.5t5.5 69.5v80q0 36 -5.5 69.5t-16.5 62.5t-27 54.5t-36 46.5t-44 37.5t-52 27.5t-59.5 17t-65.5 6t-65 -6
t-59 -17t-52.5 -27.5t-44.5 -37.5t-36 -46.5t-27 -54.5t-16.5 -62.5t-5.5 -69.5zM144 385q0 120 62.5 186.5t163.5 66.5t163.5 -66.5t62.5 -186.5v-70q0 -120 -62.5 -186.5t-163.5 -66.5q-100 0 -163 66.5t-63 186.5v70zM309 906q-32 0 -55 -27.5t-37 -78.5l51 -12
q12 37 22 50t23 13q4 0 9.5 -2t11 -5.5t12 -8t13.5 -9.5l14 -10t14 -9.5t14.5 -8t15 -5.5t14.5 -2q32 0 55 27t36 78l-51 12q-11 -37 -21 -50t-23 -13q-5 0 -10 2t-11 5.5t-12 8t-13 9.5t-14 10.5t-14.5 10t-14.5 8t-14.5 5.5t-14.5 2z" />
    <glyph glyph-name="Odieresis" unicode="&#xd6;" horiz-adv-x="740" 
d="M64 390v-80q0 -36 5.5 -69.5t16.5 -62.5t27 -54.5t36 -46.5t44.5 -37.5t52.5 -27.5t59 -17t65 -6t65.5 6t59.5 17t52 27.5t44 37.5t36 46.5t27 54.5t16.5 62.5t5.5 69.5v80q0 36 -5.5 69.5t-16.5 62.5t-27 54.5t-36 46.5t-44 37.5t-52 27.5t-59.5 17t-65.5 6t-65 -6
t-59 -17t-52.5 -27.5t-44.5 -37.5t-36 -46.5t-27 -54.5t-16.5 -62.5t-5.5 -69.5zM144 385q0 120 62.5 186.5t163.5 66.5t163.5 -66.5t62.5 -186.5v-70q0 -120 -62.5 -186.5t-163.5 -66.5q-100 0 -163 66.5t-63 186.5v70zM283 798q20 0 35 15t15 36t-15 35.5t-35 14.5
t-35 -14.5t-15 -35.5t15 -36t35 -15zM457 798q20 0 35 15t15 36t-15 35.5t-35 14.5t-35 -14.5t-15 -35.5t15 -36t35 -15z" />
    <glyph glyph-name="multiply" unicode="&#xd7;" horiz-adv-x="525" 
d="M108 161l154 156l154 -157l43 43l-155 157l154 156l-42 42l-153 -156l-154 156l-43 -43l154 -156l-154 -156z" />
    <glyph glyph-name="Oslash" unicode="&#xd8;" horiz-adv-x="740" 
d="M54 0h78l42 54q39 -31 89 -48t107 -17q34 0 65.5 6t59.5 17t52 27.5t44 37.5t36 46.5t27 54.5t16.5 62.5t5.5 69.5v80q0 64 -17.5 118.5t-49.5 94.5l76 97h-78l-42 -53q-38 31 -88 47.5t-107 16.5q-34 0 -65 -6t-59 -17t-52.5 -27.5t-44.5 -37.5t-36 -46.5t-27 -54.5
t-16.5 -62.5t-5.5 -69.5v-80q0 -64 17.5 -118t49.5 -94zM144 385q0 120 62.5 186.5t163.5 66.5q44 0 82 -13t66 -38l-336 -425q-18 30 -28 68.5t-10 84.5v70zM596 385v-70q0 -120 -62.5 -186.5t-163.5 -66.5q-44 0 -82 13.5t-66 38.5l336 425q18 -30 28 -69t10 -85z" />
    <glyph glyph-name="Ugrave" unicode="&#xd9;" horiz-adv-x="709" 
d="M162 264v436h-80v-442q0 -30 5 -58t14.5 -52.5t23.5 -45.5t31 -38.5t37.5 -31.5t43 -23t47.5 -14t52 -5q69 0 121 34t80 83v-107h80v700h-80v-436q0 -23 -3.5 -44t-11 -39.5t-17.5 -34.5t-22.5 -29t-27.5 -23.5t-32 -17.5t-35.5 -10.5t-38.5 -3.5q-79 0 -133 55t-54 147z
M295 915h-92l128 -130h78z" />
    <glyph glyph-name="Uacute" unicode="&#xda;" horiz-adv-x="709" 
d="M162 264v436h-80v-442q0 -30 5 -58t14.5 -52.5t23.5 -45.5t31 -38.5t37.5 -31.5t43 -23t47.5 -14t52 -5q69 0 121 34t80 83v-107h80v700h-80v-436q0 -23 -3.5 -44t-11 -39.5t-17.5 -34.5t-22.5 -29t-27.5 -23.5t-32 -17.5t-35.5 -10.5t-38.5 -3.5q-79 0 -133 55t-54 147z
M403 915l-114 -130h77l129 130h-92z" />
    <glyph glyph-name="Ucircumflex" unicode="&#xdb;" horiz-adv-x="709" 
d="M162 264v436h-80v-442q0 -30 5 -58t14.5 -52.5t23.5 -45.5t31 -38.5t37.5 -31.5t43 -23t47.5 -14t52 -5q69 0 121 34t80 83v-107h80v700h-80v-436q0 -23 -3.5 -44t-11 -39.5t-17.5 -34.5t-22.5 -29t-27.5 -23.5t-32 -17.5t-35.5 -10.5t-38.5 -3.5q-79 0 -133 55t-54 147z
M274 785l77 84l77 -84h71l-109 130h-78l-109 -130h71z" />
    <glyph glyph-name="Udieresis" unicode="&#xdc;" horiz-adv-x="709" 
d="M162 264v436h-80v-442q0 -30 5 -58t14.5 -52.5t23.5 -45.5t31 -38.5t37.5 -31.5t43 -23t47.5 -14t52 -5q69 0 121 34t80 83v-107h80v700h-80v-436q0 -23 -3.5 -44t-11 -39.5t-17.5 -34.5t-22.5 -29t-27.5 -23.5t-32 -17.5t-35.5 -10.5t-38.5 -3.5q-79 0 -133 55t-54 147z
M263 798q20 0 35 15t15 36t-15 35.5t-35 14.5t-35 -14.5t-15 -35.5t15 -36t35 -15zM437 798q20 0 35 15t15 36t-15 35.5t-35 14.5t-35 -14.5t-15 -35.5t15 -36t35 -15z" />
    <glyph glyph-name="Yacute" unicode="&#xdd;" horiz-adv-x="618" 
d="M349 0v289l268 411h-92l-214 -333l-216 333h-94l268 -408v-292h80zM362 915l-114 -130h77l129 130h-92z" />
    <glyph glyph-name="Thorn" unicode="&#xde;" horiz-adv-x="591" 
d="M172 700h-80v-700h80v145h168q23 0 44 4t40 12t36 18.5t31.5 24.5t25.5 30.5t19 34.5t12 38.5t4 41.5q0 22 -4 42t-12 38.5t-19 35t-25.5 30.5t-31.5 25t-36 19t-40 12t-44 4h-168v145zM336 485q59 0 97 -40t38 -97q0 -56 -38 -95.5t-97 -39.5h-164v272h164z" />
    <glyph glyph-name="germandbls" unicode="&#xdf;" horiz-adv-x="661" 
d="M384 392l67 41q40 25 60.5 54.5t20.5 76.5q0 19 -4 36t-12 32.5t-19 29t-25 25t-31 20.5t-36.5 15t-40.5 9.5t-44 3.5q-25 0 -48.5 -4t-44.5 -12t-39.5 -19.5t-34 -26t-27.5 -33t-20.5 -39.5t-13 -45.5t-4.5 -51.5v-504h77v504q0 72 43 117.5t112 45.5q59 0 97.5 -30.5
t38.5 -76.5q0 -25 -13.5 -44t-38.5 -35l-60 -38q-37 -23 -53.5 -46t-16.5 -60q0 -42 31.5 -68.5t88.5 -43.5l71 -21q35 -10 54.5 -28t19.5 -47q0 -33 -25 -55t-70 -22q-48 0 -79 24t-38 62h-74q10 -63 60.5 -105.5t131.5 -42.5q76 0 122 41t46 104q0 51 -33 84t-94 52
l-76 24q-28 8 -45.5 18.5t-17.5 30.5q0 14 9 24.5t28 23.5z" />
    <glyph glyph-name="agrave" unicode="&#xe0;" horiz-adv-x="544" 
d="M42 145q0 -67 50 -110.5t125 -43.5q51 0 92.5 23.5t64.5 63.5q3 -35 27 -56.5t64 -21.5h43v68h-26q-16 0 -25 8.5t-9 22.5v267q0 77 -48.5 123t-130.5 46q-57 0 -103 -18.5t-86 -53.5l40 -55q31 30 66 44t75 14q53 0 82 -29.5t29 -80.5v-49l-167 -9q-74 -4 -118.5 -43
t-44.5 -110zM117 148q0 40 26 63t71 25l158 8v-63q0 -51 -42 -89t-102 -38q-49 0 -80 26.5t-31 67.5zM206 741h-92l128 -130h78z" />
    <glyph glyph-name="aacute" unicode="&#xe1;" horiz-adv-x="544" 
d="M42 145q0 -67 50 -110.5t125 -43.5q51 0 92.5 23.5t64.5 63.5q3 -35 27 -56.5t64 -21.5h43v68h-26q-16 0 -25 8.5t-9 22.5v267q0 77 -48.5 123t-130.5 46q-57 0 -103 -18.5t-86 -53.5l40 -55q31 30 66 44t75 14q53 0 82 -29.5t29 -80.5v-49l-167 -9q-74 -4 -118.5 -43
t-44.5 -110zM117 148q0 40 26 63t71 25l158 8v-63q0 -51 -42 -89t-102 -38q-49 0 -80 26.5t-31 67.5zM314 741l-114 -130h77l129 130h-92z" />
    <glyph glyph-name="acircumflex" unicode="&#xe2;" horiz-adv-x="544" 
d="M42 145q0 -67 50 -110.5t125 -43.5q51 0 92.5 23.5t64.5 63.5q3 -35 27 -56.5t64 -21.5h43v68h-26q-16 0 -25 8.5t-9 22.5v267q0 77 -48.5 123t-130.5 46q-57 0 -103 -18.5t-86 -53.5l40 -55q31 30 66 44t75 14q53 0 82 -29.5t29 -80.5v-49l-167 -9q-74 -4 -118.5 -43
t-44.5 -110zM117 148q0 40 26 63t71 25l158 8v-63q0 -51 -42 -89t-102 -38q-49 0 -80 26.5t-31 67.5zM185 611l77 84l77 -84h71l-109 130h-78l-109 -130h71z" />
    <glyph glyph-name="atilde" unicode="&#xe3;" horiz-adv-x="544" 
d="M42 145q0 -67 50 -110.5t125 -43.5q51 0 92.5 23.5t64.5 63.5q3 -35 27 -56.5t64 -21.5h43v68h-26q-16 0 -25 8.5t-9 22.5v267q0 77 -48.5 123t-130.5 46q-57 0 -103 -18.5t-86 -53.5l40 -55q31 30 66 44t75 14q53 0 82 -29.5t29 -80.5v-49l-167 -9q-74 -4 -118.5 -43
t-44.5 -110zM117 148q0 40 26 63t71 25l158 8v-63q0 -51 -42 -89t-102 -38q-49 0 -80 26.5t-31 67.5zM200 732q-32 0 -55 -27.5t-37 -78.5l51 -12q12 37 22 50t23 13q4 0 9.5 -2t11 -5.5t12 -8t13.5 -9.5l14 -10t14 -9.5t14.5 -8t15 -5.5t14.5 -2q32 0 55 27t36 78l-51 12
q-11 -37 -21 -50t-23 -13q-5 0 -10 2t-11 5.5t-12 8t-13 9.5t-14 10.5t-14.5 10t-14.5 8t-14.5 5.5t-14.5 2z" />
    <glyph glyph-name="adieresis" unicode="&#xe4;" horiz-adv-x="544" 
d="M42 145q0 -67 50 -110.5t125 -43.5q51 0 92.5 23.5t64.5 63.5q3 -35 27 -56.5t64 -21.5h43v68h-26q-16 0 -25 8.5t-9 22.5v267q0 77 -48.5 123t-130.5 46q-57 0 -103 -18.5t-86 -53.5l40 -55q31 30 66 44t75 14q53 0 82 -29.5t29 -80.5v-49l-167 -9q-74 -4 -118.5 -43
t-44.5 -110zM117 148q0 40 26 63t71 25l158 8v-63q0 -51 -42 -89t-102 -38q-49 0 -80 26.5t-31 67.5zM174 624q20 0 35 15t15 36t-15 35.5t-35 14.5t-35 -14.5t-15 -35.5t15 -36t35 -15zM348 624q20 0 35 15t15 36t-15 35.5t-35 14.5t-35 -14.5t-15 -35.5t15 -36t35 -15z
" />
    <glyph glyph-name="aring" unicode="&#xe5;" horiz-adv-x="544" 
d="M42 145q0 -67 50 -110.5t125 -43.5q51 0 92.5 23.5t64.5 63.5q3 -35 27 -56.5t64 -21.5h43v68h-26q-16 0 -25 8.5t-9 22.5v267q0 77 -48.5 123t-130.5 46q-57 0 -103 -18.5t-86 -53.5l40 -55q31 30 66 44t75 14q53 0 82 -29.5t29 -80.5v-49l-167 -9q-74 -4 -118.5 -43
t-44.5 -110zM117 148q0 40 26 63t71 25l158 8v-63q0 -51 -42 -89t-102 -38q-49 0 -80 26.5t-31 67.5zM261 594q43 0 74 30t31 72t-31 72t-74 30t-74 -30t-31 -72t31 -72t74 -30zM261 635q-26 0 -44 18t-18 43t18 43t44 18t44 -18t18 -43t-18 -43t-44 -18z" />
    <glyph glyph-name="ae" unicode="&#xe6;" horiz-adv-x="864" 
d="M798 84l-53 45q-29 -37 -64 -54.5t-77 -17.5q-66 0 -109.5 47t-43.5 123v15h358v63q0 25 -4 48.5t-12 44.5t-19 39.5t-25 33.5t-31 27.5t-36 20.5t-40 12.5t-44 4.5q-54 0 -98.5 -24t-72.5 -66q-19 43 -60 66.5t-98 23.5t-103 -18.5t-86 -53.5l40 -55q31 30 66 44t75 14
q54 0 83.5 -29.5t29.5 -80.5v-52l-169 -9q-74 -4 -118.5 -42.5t-44.5 -107.5q0 -68 51 -112t129 -44q67 0 117.5 33.5t72.5 84.5q27 -54 77.5 -86t113.5 -32q62 0 110 24t85 70zM597 469q59 0 97.5 -45.5t38.5 -117.5v-1h-282q0 72 41.5 118t104.5 46zM117 148q0 40 26 62
t71 24l160 8v-62q0 -51 -42.5 -88t-102.5 -37q-49 0 -80.5 26.5t-31.5 66.5z" />
    <glyph glyph-name="ccedilla" unicode="&#xe7;" horiz-adv-x="540" 
d="M381 -138q0 35 -24 57.5t-64 25.5l14 46q72 7 122.5 54t66.5 122h-77q-14 -51 -50 -80t-87 -29q-66 0 -106 47.5t-40 125.5v65q0 77 40 124.5t106 47.5q51 0 87 -29t50 -80h77q-17 82 -75 129.5t-139 47.5q-24 0 -46.5 -4.5t-42.5 -12.5t-37.5 -20t-32.5 -27.5t-26.5 -34
t-19.5 -40t-12.5 -45.5t-4.5 -51v-76q0 -99 56.5 -163t143.5 -71l-25 -83h33q27 0 43.5 -12.5t16.5 -32.5t-14.5 -33t-38.5 -13q-19 0 -36 8.5t-30 24.5l-37 -31q16 -22 44 -34.5t61 -12.5q44 0 74 26t30 64z" />
    <glyph glyph-name="egrave" unicode="&#xe8;" horiz-adv-x="547" 
d="M60 226q0 -26 4.5 -50t12.5 -45t20 -40t27 -34.5t33 -27.5t38.5 -20.5t43.5 -13t47 -4.5q62 0 110.5 23.5t85.5 70.5l-54 45q-28 -37 -63 -54.5t-77 -17.5q-66 0 -109 47t-43 122v13h356v65q0 25 -4 48.5t-11.5 44.5t-18.5 39.5t-25.5 33.5t-31 27.5t-35.5 20.5
t-39.5 12.5t-43.5 4.5q-24 0 -46.5 -4.5t-42.5 -13t-38 -20.5t-33 -27.5t-26.5 -34.5t-19.5 -40t-12.5 -45t-4.5 -50v-75zM281 469q58 0 97 -45t39 -117v-4h-281q0 73 41 119.5t104 46.5zM228 742h-92l128 -130h78z" />
    <glyph glyph-name="eacute" unicode="&#xe9;" horiz-adv-x="547" 
d="M60 226q0 -26 4.5 -50t12.5 -45t20 -40t27 -34.5t33 -27.5t38.5 -20.5t43.5 -13t47 -4.5q62 0 110.5 23.5t85.5 70.5l-54 45q-28 -37 -63 -54.5t-77 -17.5q-66 0 -109 47t-43 122v13h356v65q0 25 -4 48.5t-11.5 44.5t-18.5 39.5t-25.5 33.5t-31 27.5t-35.5 20.5
t-39.5 12.5t-43.5 4.5q-24 0 -46.5 -4.5t-42.5 -13t-38 -20.5t-33 -27.5t-26.5 -34.5t-19.5 -40t-12.5 -45t-4.5 -50v-75zM281 469q58 0 97 -45t39 -117v-4h-281q0 73 41 119.5t104 46.5zM336 742l-114 -130h77l129 130h-92z" />
    <glyph glyph-name="ecircumflex" unicode="&#xea;" horiz-adv-x="547" 
d="M60 226q0 -26 4.5 -50t12.5 -45t20 -40t27 -34.5t33 -27.5t38.5 -20.5t43.5 -13t47 -4.5q62 0 110.5 23.5t85.5 70.5l-54 45q-28 -37 -63 -54.5t-77 -17.5q-66 0 -109 47t-43 122v13h356v65q0 25 -4 48.5t-11.5 44.5t-18.5 39.5t-25.5 33.5t-31 27.5t-35.5 20.5
t-39.5 12.5t-43.5 4.5q-24 0 -46.5 -4.5t-42.5 -13t-38 -20.5t-33 -27.5t-26.5 -34.5t-19.5 -40t-12.5 -45t-4.5 -50v-75zM281 469q58 0 97 -45t39 -117v-4h-281q0 73 41 119.5t104 46.5zM207 612l77 84l77 -84h71l-109 130h-78l-109 -130h71z" />
    <glyph glyph-name="edieresis" unicode="&#xeb;" horiz-adv-x="547" 
d="M60 226q0 -26 4.5 -50t12.5 -45t20 -40t27 -34.5t33 -27.5t38.5 -20.5t43.5 -13t47 -4.5q62 0 110.5 23.5t85.5 70.5l-54 45q-28 -37 -63 -54.5t-77 -17.5q-66 0 -109 47t-43 122v13h356v65q0 25 -4 48.5t-11.5 44.5t-18.5 39.5t-25.5 33.5t-31 27.5t-35.5 20.5
t-39.5 12.5t-43.5 4.5q-24 0 -46.5 -4.5t-42.5 -13t-38 -20.5t-33 -27.5t-26.5 -34.5t-19.5 -40t-12.5 -45t-4.5 -50v-75zM281 469q58 0 97 -45t39 -117v-4h-281q0 73 41 119.5t104 46.5zM196 625q20 0 35 15t15 36t-15 35.5t-35 14.5t-35 -14.5t-15 -35.5t15 -36t35 -15z
M370 625q20 0 35 15t15 36t-15 35.5t-35 14.5t-35 -14.5t-15 -35.5t15 -36t35 -15z" />
    <glyph glyph-name="igrave" unicode="&#xec;" horiz-adv-x="253" 
d="M165 527h-77v-527h77v527zM71 741h-92l128 -130h78z" />
    <glyph glyph-name="iacute" unicode="&#xed;" horiz-adv-x="253" 
d="M165 527h-77v-527h77v527zM179 741l-114 -130h77l129 130h-92z" />
    <glyph glyph-name="icircumflex" unicode="&#xee;" horiz-adv-x="253" 
d="M165 527h-77v-527h77v527zM50 612l77 84l77 -84h71l-109 130h-78l-109 -130h71z" />
    <glyph glyph-name="idieresis" unicode="&#xef;" horiz-adv-x="253" 
d="M165 527h-77v-527h77v527zM39 624q20 0 35 15t15 36t-15 35.5t-35 14.5t-35 -14.5t-15 -35.5t15 -36t35 -15zM213 624q20 0 35 15t15 36t-15 35.5t-35 14.5t-35 -14.5t-15 -35.5t15 -36t35 -15z" />
    <glyph glyph-name="eth" unicode="&#xf0;" horiz-adv-x="575" 
d="M60 224q0 -26 4.5 -50t12.5 -45.5t20 -40t27.5 -34t33.5 -27.5t38.5 -20t43 -12.5t47.5 -4.5t47.5 4.5t43.5 12.5t39 20t33 27.5t27 34t20.5 40.5t13 46.5t4.5 51.5v80q0 109 -31.5 199t-93.5 156l96 61l-30 47l-109 -68q-27 22 -59 40t-68 31l-29 -58q26 -9 50.5 -22
t45.5 -29l-81 -51l31 -47l94 59q36 -37 61 -84t38 -101q-25 38 -65 59.5t-91 21.5q-23 0 -44.5 -4t-41 -12.5t-36.5 -20t-31 -26.5t-25.5 -33.5t-19.5 -39.5t-12 -44.5t-4 -49.5v-67zM439 229q0 -77 -41.5 -124t-110.5 -47q-68 0 -109.5 47t-41.5 124v57q0 76 41.5 123.5
t109.5 47.5q69 0 110.5 -47.5t41.5 -123.5v-57z" />
    <glyph glyph-name="ntilde" unicode="&#xf1;" 
d="M517 344q0 20 -3.5 39t-10 36.5t-16 33t-21.5 28.5t-26.5 23.5t-31.5 17.5t-36 11t-40 4q-56 0 -101 -29.5t-66 -79.5v99h-77v-527h77v323q0 61 40 102.5t103 41.5q60 0 96 -39.5t36 -98.5v-329h77v344zM242 733q-32 0 -55 -27.5t-37 -78.5l51 -12q12 37 22 50t23 13
q4 0 9.5 -2t11 -5.5t12 -8t13.5 -9.5l14 -10t14 -9.5t14.5 -8t15 -5.5t14.5 -2q32 0 55 27t36 78l-51 12q-11 -37 -21 -50t-23 -13q-5 0 -10 2t-11 5.5t-12 8t-13 9.5t-14 10.5t-14.5 10t-14.5 8t-14.5 5.5t-14.5 2z" />
    <glyph glyph-name="ograve" unicode="&#xf2;" horiz-adv-x="574" 
d="M514 225v76q0 27 -4.5 51t-13 45.5t-20.5 40t-27 34t-33 27.5t-38.5 20t-43.5 12.5t-47 4.5q-25 0 -48 -4.5t-43.5 -12.5t-38.5 -20t-33 -27.5t-27 -34t-20 -40t-12.5 -45.5t-4.5 -51v-76q0 -26 4.5 -50.5t12.5 -46t20 -40t27.5 -34t33.5 -27.5t38.5 -20t43 -12.5
t47.5 -4.5q24 0 47 4.5t43.5 12.5t38.5 20t33 27.5t27 34t20.5 40t13 45.5t4.5 51zM438 296v-65q0 -78 -41.5 -125.5t-109.5 -47.5q-69 0 -110 47.5t-41 125.5v65q0 77 41 124.5t110 47.5q68 0 109.5 -47.5t41.5 -124.5zM232 742h-92l128 -130h78z" />
    <glyph glyph-name="oacute" unicode="&#xf3;" horiz-adv-x="574" 
d="M514 225v76q0 27 -4.5 51t-13 45.5t-20.5 40t-27 34t-33 27.5t-38.5 20t-43.5 12.5t-47 4.5q-25 0 -48 -4.5t-43.5 -12.5t-38.5 -20t-33 -27.5t-27 -34t-20 -40t-12.5 -45.5t-4.5 -51v-76q0 -26 4.5 -50.5t12.5 -46t20 -40t27.5 -34t33.5 -27.5t38.5 -20t43 -12.5
t47.5 -4.5q24 0 47 4.5t43.5 12.5t38.5 20t33 27.5t27 34t20.5 40t13 45.5t4.5 51zM438 296v-65q0 -78 -41.5 -125.5t-109.5 -47.5q-69 0 -110 47.5t-41 125.5v65q0 77 41 124.5t110 47.5q68 0 109.5 -47.5t41.5 -124.5zM340 742l-114 -130h77l129 130h-92z" />
    <glyph glyph-name="ocircumflex" unicode="&#xf4;" horiz-adv-x="574" 
d="M514 225v76q0 27 -4.5 51t-13 45.5t-20.5 40t-27 34t-33 27.5t-38.5 20t-43.5 12.5t-47 4.5q-25 0 -48 -4.5t-43.5 -12.5t-38.5 -20t-33 -27.5t-27 -34t-20 -40t-12.5 -45.5t-4.5 -51v-76q0 -26 4.5 -50.5t12.5 -46t20 -40t27.5 -34t33.5 -27.5t38.5 -20t43 -12.5
t47.5 -4.5q24 0 47 4.5t43.5 12.5t38.5 20t33 27.5t27 34t20.5 40t13 45.5t4.5 51zM438 296v-65q0 -78 -41.5 -125.5t-109.5 -47.5q-69 0 -110 47.5t-41 125.5v65q0 77 41 124.5t110 47.5q68 0 109.5 -47.5t41.5 -124.5zM211 612l77 84l77 -84h71l-109 130h-78l-109 -130h71
z" />
    <glyph glyph-name="otilde" unicode="&#xf5;" horiz-adv-x="574" 
d="M514 225v76q0 27 -4.5 51t-13 45.5t-20.5 40t-27 34t-33 27.5t-38.5 20t-43.5 12.5t-47 4.5q-25 0 -48 -4.5t-43.5 -12.5t-38.5 -20t-33 -27.5t-27 -34t-20 -40t-12.5 -45.5t-4.5 -51v-76q0 -26 4.5 -50.5t12.5 -46t20 -40t27.5 -34t33.5 -27.5t38.5 -20t43 -12.5
t47.5 -4.5q24 0 47 4.5t43.5 12.5t38.5 20t33 27.5t27 34t20.5 40t13 45.5t4.5 51zM438 296v-65q0 -78 -41.5 -125.5t-109.5 -47.5q-69 0 -110 47.5t-41 125.5v65q0 77 41 124.5t110 47.5q68 0 109.5 -47.5t41.5 -124.5zM226 733q-32 0 -55 -27.5t-37 -78.5l51 -12
q12 37 22 50t23 13q4 0 9.5 -2t11 -5.5t12 -8t13.5 -9.5l14 -10t14 -9.5t14.5 -8t15 -5.5t14.5 -2q32 0 55 27t36 78l-51 12q-11 -37 -21 -50t-23 -13q-5 0 -10 2t-11 5.5t-12 8t-13 9.5t-14 10.5t-14.5 10t-14.5 8t-14.5 5.5t-14.5 2z" />
    <glyph glyph-name="odieresis" unicode="&#xf6;" horiz-adv-x="574" 
d="M514 225v76q0 27 -4.5 51t-13 45.5t-20.5 40t-27 34t-33 27.5t-38.5 20t-43.5 12.5t-47 4.5q-25 0 -48 -4.5t-43.5 -12.5t-38.5 -20t-33 -27.5t-27 -34t-20 -40t-12.5 -45.5t-4.5 -51v-76q0 -26 4.5 -50.5t12.5 -46t20 -40t27.5 -34t33.5 -27.5t38.5 -20t43 -12.5
t47.5 -4.5q24 0 47 4.5t43.5 12.5t38.5 20t33 27.5t27 34t20.5 40t13 45.5t4.5 51zM438 296v-65q0 -78 -41.5 -125.5t-109.5 -47.5q-69 0 -110 47.5t-41 125.5v65q0 77 41 124.5t110 47.5q68 0 109.5 -47.5t41.5 -124.5zM200 625q20 0 35 15t15 36t-15 35.5t-35 14.5
t-35 -14.5t-15 -35.5t15 -36t35 -15zM374 625q20 0 35 15t15 36t-15 35.5t-35 14.5t-35 -14.5t-15 -35.5t15 -36t35 -15z" />
    <glyph glyph-name="divide" unicode="&#xf7;" horiz-adv-x="549" 
d="M274 593q-21 0 -36 -15t-15 -37q0 -21 15 -36t36 -15t36 15t15 36q0 22 -15 37t-36 15zM483 329v62h-417v-62h417zM274 224q-21 0 -36 -15t-15 -37q0 -21 15 -36t36 -15t36 15t15 36q0 22 -15 37t-36 15z" />
    <glyph glyph-name="oslash" unicode="&#xf8;" horiz-adv-x="579" 
d="M45 0h68l31 39q29 -24 66 -36.5t79 -12.5q24 0 47 4.5t43.5 12.5t38.5 20t33 27.5t27 34t20.5 40t13 45.5t4.5 51v76q0 43 -11.5 80t-32.5 66l65 80h-68l-33 -41q-29 24 -66.5 37t-80.5 13q-25 0 -48 -4.5t-43.5 -12.5t-38.5 -20t-33 -27.5t-27 -34t-20 -40t-12.5 -45.5
t-4.5 -51v-76q0 -43 11.5 -81t33.5 -67zM138 231v65q0 77 41 124.5t110 47.5q31 0 56.5 -10t44.5 -29l-233 -290q-9 19 -14 42.5t-5 49.5zM440 296v-65q0 -78 -41.5 -125.5t-109.5 -47.5q-30 0 -55.5 9.5t-44.5 27.5l233 289q9 -19 13.5 -41t4.5 -47z" />
    <glyph glyph-name="ugrave" unicode="&#xf9;" 
d="M88 182q0 -20 3.5 -39t10 -36.5t16 -33t21.5 -28t27 -23t32 -17.5t36 -11t40 -4q55 0 100 29t66 80v-99h77v527h-77v-323q0 -62 -40 -103t-103 -41q-59 0 -95.5 39.5t-36.5 97.5v330h-77v-345zM248 741h-92l128 -130h78z" />
    <glyph glyph-name="uacute" unicode="&#xfa;" 
d="M88 182q0 -20 3.5 -39t10 -36.5t16 -33t21.5 -28t27 -23t32 -17.5t36 -11t40 -4q55 0 100 29t66 80v-99h77v527h-77v-323q0 -62 -40 -103t-103 -41q-59 0 -95.5 39.5t-36.5 97.5v330h-77v-345zM356 741l-114 -130h77l129 130h-92z" />
    <glyph glyph-name="ucircumflex" unicode="&#xfb;" 
d="M88 182q0 -20 3.5 -39t10 -36.5t16 -33t21.5 -28t27 -23t32 -17.5t36 -11t40 -4q55 0 100 29t66 80v-99h77v527h-77v-323q0 -62 -40 -103t-103 -41q-59 0 -95.5 39.5t-36.5 97.5v330h-77v-345zM227 612l77 84l77 -84h71l-109 130h-78l-109 -130h71z" />
    <glyph glyph-name="udieresis" unicode="&#xfc;" 
d="M88 182q0 -20 3.5 -39t10 -36.5t16 -33t21.5 -28t27 -23t32 -17.5t36 -11t40 -4q55 0 100 29t66 80v-99h77v527h-77v-323q0 -62 -40 -103t-103 -41q-59 0 -95.5 39.5t-36.5 97.5v330h-77v-345zM216 624q20 0 35 15t15 36t-15 35.5t-35 14.5t-35 -14.5t-15 -35.5t15 -36
t35 -15zM390 624q20 0 35 15t15 36t-15 35.5t-35 14.5t-35 -14.5t-15 -35.5t15 -36t35 -15z" />
    <glyph glyph-name="yacute" unicode="&#xfd;" horiz-adv-x="506" 
d="M178 -92q-10 -27 -27.5 -41.5t-45.5 -14.5h-56v-67h68q50 0 80 26t49 75l255 641h-80l-164 -421l-171 421h-81l212 -520zM308 742l-114 -130h77l129 130h-92z" />
    <glyph glyph-name="thorn" unicode="&#xfe;" 
d="M88 733v-948h77v308q25 -48 69.5 -75.5t101.5 -27.5q22 0 43 4.5t40 12.5t35.5 20t31 27.5t25.5 34t18.5 40t11.5 45.5t4 50v79q0 104 -59.5 168.5t-149.5 64.5q-56 0 -101 -26.5t-70 -72.5v296h-77zM165 296q0 77 41.5 124.5t110.5 47.5t110.5 -47.5t41.5 -124.5v-65
q0 -78 -41.5 -125.5t-110.5 -47.5t-110.5 47.5t-41.5 125.5v65z" />
    <glyph glyph-name="ydieresis" unicode="&#xff;" horiz-adv-x="506" 
d="M178 -92q-10 -27 -27.5 -41.5t-45.5 -14.5h-56v-67h68q50 0 80 26t49 75l255 641h-80l-164 -421l-171 421h-81l212 -520zM168 625q20 0 35 15t15 36t-15 35.5t-35 14.5t-35 -14.5t-15 -35.5t15 -36t35 -15zM342 625q20 0 35 15t15 36t-15 35.5t-35 14.5t-35 -14.5
t-15 -35.5t15 -36t35 -15z" />
    <glyph glyph-name="Amacron" unicode="&#x100;" horiz-adv-x="656" 
d="M373 700h-90l-277 -700h84l75 195h323l75 -195h87zM192 266l135 349l134 -349h-269zM453 868h-248v-55h248v55z" />
    <glyph glyph-name="amacron" unicode="&#x101;" horiz-adv-x="544" 
d="M42 145q0 -67 50 -110.5t125 -43.5q51 0 92.5 23.5t64.5 63.5q3 -35 27 -56.5t64 -21.5h43v68h-26q-16 0 -25 8.5t-9 22.5v267q0 77 -48.5 123t-130.5 46q-57 0 -103 -18.5t-86 -53.5l40 -55q31 30 66 44t75 14q53 0 82 -29.5t29 -80.5v-49l-167 -9q-74 -4 -118.5 -43
t-44.5 -110zM117 148q0 40 26 63t71 25l158 8v-63q0 -51 -42 -89t-102 -38q-49 0 -80 26.5t-31 67.5zM385 694h-248v-55h248v55z" />
    <glyph glyph-name="Abreve" unicode="&#x102;" horiz-adv-x="656" 
d="M373 700h-90l-277 -700h84l75 195h323l75 -195h87zM192 266l135 349l134 -349h-269zM329 841q-26 0 -50.5 14.5t-37.5 60.5l-55 -17q13 -54 53.5 -83.5t89.5 -29.5t89.5 29.5t53.5 83.5l-55 17q-12 -46 -37.5 -60.5t-50.5 -14.5z" />
    <glyph glyph-name="abreve" unicode="&#x103;" horiz-adv-x="544" 
d="M42 145q0 -67 50 -110.5t125 -43.5q51 0 92.5 23.5t64.5 63.5q3 -35 27 -56.5t64 -21.5h43v68h-26q-16 0 -25 8.5t-9 22.5v267q0 77 -48.5 123t-130.5 46q-57 0 -103 -18.5t-86 -53.5l40 -55q31 30 66 44t75 14q53 0 82 -29.5t29 -80.5v-49l-167 -9q-74 -4 -118.5 -43
t-44.5 -110zM117 148q0 40 26 63t71 25l158 8v-63q0 -51 -42 -89t-102 -38q-49 0 -80 26.5t-31 67.5zM261 667q-26 0 -50.5 14.5t-37.5 60.5l-55 -17q13 -54 53.5 -83.5t89.5 -29.5t89.5 29.5t53.5 83.5l-55 17q-12 -46 -37.5 -60.5t-50.5 -14.5z" />
    <glyph glyph-name="Aogonek" unicode="&#x104;" horiz-adv-x="656" 
d="M650 0l-277 700h-90l-277 -700h84l75 195h323l75 -195h30q-46 -41 -61.5 -73t-15.5 -63q0 -37 24 -61t72 -24q14 0 27.5 2t24.5 6l-8 45q-8 -3 -17.5 -4t-18.5 -1q-24 0 -37 13t-13 36q0 24 15 53t65 71zM192 266l135 349l134 -349h-269z" />
    <glyph glyph-name="aogonek" unicode="&#x105;" horiz-adv-x="544" 
d="M42 145q0 -67 50 -110.5t125 -43.5q51 0 92.5 23.5t64.5 63.5q3 -32 23.5 -52.5t54.5 -24.5q-46 -41 -62 -73.5t-16 -63.5q0 -37 24 -61t72 -24q14 0 27.5 2t24.5 6l-8 45q-8 -3 -17.5 -4t-18.5 -1q-24 0 -37 13t-13 36q0 24 15 53t65 71v68h-26q-16 0 -25 8.5t-9 22.5
v267q0 77 -48.5 123t-130.5 46q-57 0 -103 -18.5t-86 -53.5l40 -55q31 30 66 44t75 14q53 0 82 -29.5t29 -80.5v-49l-167 -9q-74 -4 -118.5 -43t-44.5 -110zM117 148q0 40 26 63t71 25l158 8v-63q0 -51 -42 -89t-102 -38q-49 0 -80 26.5t-31 67.5z" />
    <glyph glyph-name="Cacute" unicode="&#x106;" horiz-adv-x="695" 
d="M647 463q-5 29 -14 55.5t-21.5 49t-28 42.5t-34.5 35.5t-40.5 28t-45 21t-49 12.5t-52.5 4q-28 0 -54.5 -4.5t-51 -13t-46.5 -21.5t-41.5 -29.5t-36 -37t-29 -44t-21.5 -50.5t-13.5 -57.5t-4.5 -63.5v-80q0 -33 4.5 -63.5t13.5 -57.5t21.5 -50.5t29 -44t36 -37
t41.5 -29.5t46.5 -21.5t51 -13t54.5 -4.5q27 0 52.5 4t49 12.5t45 21t40 28t34.5 35.5t28.5 42.5t21.5 49t14 55.5h-78q-17 -84 -74.5 -129.5t-132.5 -45.5q-23 0 -44.5 4t-41 12.5t-37 20.5t-32.5 28t-26.5 35.5t-19.5 42.5t-12.5 50t-4.5 57v76q0 30 4.5 57t12.5 50
t19.5 42.5t26.5 35.5t32 28t37 20.5t41.5 12.5t44.5 4q75 0 132.5 -45.5t74.5 -129.5h78zM419 915l-114 -130h77l129 130h-92z" />
    <glyph glyph-name="cacute" unicode="&#x107;" horiz-adv-x="541" 
d="M282 -10q81 0 139 48t75 129h-77q-14 -51 -50 -80t-87 -29q-66 0 -106 47.5t-40 125.5v65q0 77 40 124.5t106 47.5q51 0 87 -29t50 -80h77q-17 82 -75 129.5t-139 47.5q-24 0 -46.5 -4.5t-42.5 -12.5t-37.5 -20t-32.5 -27.5t-26.5 -34t-19.5 -40t-12.5 -45.5t-4.5 -51
v-76q0 -26 4.5 -50.5t12.5 -46t19.5 -40t26.5 -34t32.5 -27.5t37.5 -20t42.5 -12.5t46.5 -4.5zM335 742l-114 -130h77l129 130h-92z" />
    <glyph glyph-name="Ccircumflex" unicode="&#x108;" horiz-adv-x="695" 
d="M647 463q-5 29 -14 55.5t-21.5 49t-28 42.5t-34.5 35.5t-40.5 28t-45 21t-49 12.5t-52.5 4q-28 0 -54.5 -4.5t-51 -13t-46.5 -21.5t-41.5 -29.5t-36 -37t-29 -44t-21.5 -50.5t-13.5 -57.5t-4.5 -63.5v-80q0 -33 4.5 -63.5t13.5 -57.5t21.5 -50.5t29 -44t36 -37
t41.5 -29.5t46.5 -21.5t51 -13t54.5 -4.5q27 0 52.5 4t49 12.5t45 21t40 28t34.5 35.5t28.5 42.5t21.5 49t14 55.5h-78q-17 -84 -74.5 -129.5t-132.5 -45.5q-23 0 -44.5 4t-41 12.5t-37 20.5t-32.5 28t-26.5 35.5t-19.5 42.5t-12.5 50t-4.5 57v76q0 30 4.5 57t12.5 50
t19.5 42.5t26.5 35.5t32 28t37 20.5t41.5 12.5t44.5 4q75 0 132.5 -45.5t74.5 -129.5h78zM290 785l77 84l77 -84h71l-109 130h-78l-109 -130h71z" />
    <glyph glyph-name="ccircumflex" unicode="&#x109;" horiz-adv-x="541" 
d="M282 -10q81 0 139 48t75 129h-77q-14 -51 -50 -80t-87 -29q-66 0 -106 47.5t-40 125.5v65q0 77 40 124.5t106 47.5q51 0 87 -29t50 -80h77q-17 82 -75 129.5t-139 47.5q-24 0 -46.5 -4.5t-42.5 -12.5t-37.5 -20t-32.5 -27.5t-26.5 -34t-19.5 -40t-12.5 -45.5t-4.5 -51
v-76q0 -26 4.5 -50.5t12.5 -46t19.5 -40t26.5 -34t32.5 -27.5t37.5 -20t42.5 -12.5t46.5 -4.5zM206 612l77 84l77 -84h71l-109 130h-78l-109 -130h71z" />
    <glyph glyph-name="Cdotaccent" unicode="&#x10a;" horiz-adv-x="695" 
d="M647 463q-5 29 -14 55.5t-21.5 49t-28 42.5t-34.5 35.5t-40.5 28t-45 21t-49 12.5t-52.5 4q-28 0 -54.5 -4.5t-51 -13t-46.5 -21.5t-41.5 -29.5t-36 -37t-29 -44t-21.5 -50.5t-13.5 -57.5t-4.5 -63.5v-80q0 -33 4.5 -63.5t13.5 -57.5t21.5 -50.5t29 -44t36 -37
t41.5 -29.5t46.5 -21.5t51 -13t54.5 -4.5q27 0 52.5 4t49 12.5t45 21t40 28t34.5 35.5t28.5 42.5t21.5 49t14 55.5h-78q-17 -84 -74.5 -129.5t-132.5 -45.5q-23 0 -44.5 4t-41 12.5t-37 20.5t-32.5 28t-26.5 35.5t-19.5 42.5t-12.5 50t-4.5 57v76q0 30 4.5 57t12.5 50
t19.5 42.5t26.5 35.5t32 28t37 20.5t41.5 12.5t44.5 4q75 0 132.5 -45.5t74.5 -129.5h78zM366 798q20 0 34.5 15t14.5 36t-14.5 35.5t-34.5 14.5t-35 -14.5t-15 -35.5t15 -36t35 -15z" />
    <glyph glyph-name="cdotaccent" unicode="&#x10b;" horiz-adv-x="541" 
d="M282 -10q81 0 139 48t75 129h-77q-14 -51 -50 -80t-87 -29q-66 0 -106 47.5t-40 125.5v65q0 77 40 124.5t106 47.5q51 0 87 -29t50 -80h77q-17 82 -75 129.5t-139 47.5q-24 0 -46.5 -4.5t-42.5 -12.5t-37.5 -20t-32.5 -27.5t-26.5 -34t-19.5 -40t-12.5 -45.5t-4.5 -51
v-76q0 -26 4.5 -50.5t12.5 -46t19.5 -40t26.5 -34t32.5 -27.5t37.5 -20t42.5 -12.5t46.5 -4.5zM282 625q20 0 34.5 15t14.5 36t-14.5 35.5t-34.5 14.5t-35 -14.5t-15 -35.5t15 -36t35 -15z" />
    <glyph glyph-name="Ccaron" unicode="&#x10c;" horiz-adv-x="695" 
d="M647 463q-5 29 -14 55.5t-21.5 49t-28 42.5t-34.5 35.5t-40.5 28t-45 21t-49 12.5t-52.5 4q-28 0 -54.5 -4.5t-51 -13t-46.5 -21.5t-41.5 -29.5t-36 -37t-29 -44t-21.5 -50.5t-13.5 -57.5t-4.5 -63.5v-80q0 -33 4.5 -63.5t13.5 -57.5t21.5 -50.5t29 -44t36 -37
t41.5 -29.5t46.5 -21.5t51 -13t54.5 -4.5q27 0 52.5 4t49 12.5t45 21t40 28t34.5 35.5t28.5 42.5t21.5 49t14 55.5h-78q-17 -84 -74.5 -129.5t-132.5 -45.5q-23 0 -44.5 4t-41 12.5t-37 20.5t-32.5 28t-26.5 35.5t-19.5 42.5t-12.5 50t-4.5 57v76q0 30 4.5 57t12.5 50
t19.5 42.5t26.5 35.5t32 28t37 20.5t41.5 12.5t44.5 4q75 0 132.5 -45.5t74.5 -129.5h78zM445 915l-78 -85l-77 85h-71l109 -130h78l109 130h-70z" />
    <glyph glyph-name="ccaron" unicode="&#x10d;" horiz-adv-x="541" 
d="M282 -10q81 0 139 48t75 129h-77q-14 -51 -50 -80t-87 -29q-66 0 -106 47.5t-40 125.5v65q0 77 40 124.5t106 47.5q51 0 87 -29t50 -80h77q-17 82 -75 129.5t-139 47.5q-24 0 -46.5 -4.5t-42.5 -12.5t-37.5 -20t-32.5 -27.5t-26.5 -34t-19.5 -40t-12.5 -45.5t-4.5 -51
v-76q0 -26 4.5 -50.5t12.5 -46t19.5 -40t26.5 -34t32.5 -27.5t37.5 -20t42.5 -12.5t46.5 -4.5zM361 742l-78 -85l-77 85h-71l109 -130h78l109 130h-70z" />
    <glyph glyph-name="Dcaron" unicode="&#x10e;" horiz-adv-x="715" 
d="M648 310v79q0 142 -81.5 226.5t-224.5 84.5h-250v-700h250q41 0 77.5 7t67.5 21t56 34.5t45 46.5t33 57t20 67t7 77zM337 629q110 0 170.5 -64.5t60.5 -177.5v-75q0 -114 -60.5 -177.5t-170.5 -63.5h-165v558h165zM436 915l-78 -85l-77 85h-71l109 -130h78l109 130h-70z
" />
    <glyph glyph-name="dcaron" unicode="&#x10f;" horiz-adv-x="701" 
d="M614 529h60l38 205h-79zM518 0v733h-77v-298q-25 47 -70 74t-102 27q-90 0 -149.5 -64.5t-59.5 -168.5v-79q0 -26 4 -50t11.5 -45.5t18.5 -40t25.5 -34t31 -27.5t35.5 -20t39.5 -12.5t43.5 -4.5q57 0 102 27.5t70 76.5v-94h77zM441 296v-65q0 -78 -42 -125.5t-111 -47.5
t-110.5 47.5t-41.5 125.5v65q0 77 41.5 124.5t110.5 47.5t111 -47.5t42 -124.5z" />
    <glyph glyph-name="Dcroat" unicode="&#x110;" horiz-adv-x="719" 
d="M3 316h96v-316h250q41 0 77.5 7t67.5 21t56 34.5t45 46.5t33 57t20 67t7 77v79q0 142 -81.5 226.5t-224.5 84.5h-250v-315h-96v-69zM344 629q110 0 170.5 -64.5t60.5 -177.5v-75q0 -114 -60.5 -177.5t-170.5 -63.5h-165v245h151v69h-151v244h165z" />
    <glyph glyph-name="dcroat" unicode="&#x111;" horiz-adv-x="604" 
d="M518 0v598h70v59h-70v76h-77v-76h-149v-59h149v-163q-25 47 -70 74t-102 27q-90 0 -149.5 -64.5t-59.5 -168.5v-79q0 -26 4 -50t11.5 -45.5t18.5 -40t25.5 -34t31 -27.5t35.5 -20t39.5 -12.5t43.5 -4.5q57 0 102 27.5t70 76.5v-94h77zM441 296v-65q0 -78 -42 -125.5
t-111 -47.5t-110.5 47.5t-41.5 125.5v65q0 77 41.5 124.5t110.5 47.5t111 -47.5t42 -124.5z" />
    <glyph glyph-name="Emacron" unicode="&#x112;" horiz-adv-x="593" 
d="M92 0h443v71h-363v245h353v70h-353v243h363v71h-443v-700zM446 868h-248v-55h248v55z" />
    <glyph glyph-name="emacron" unicode="&#x113;" horiz-adv-x="547" 
d="M60 226q0 -26 4.5 -50t12.5 -45t20 -40t27 -34.5t33 -27.5t38.5 -20.5t43.5 -13t47 -4.5q62 0 110.5 23.5t85.5 70.5l-54 45q-28 -37 -63 -54.5t-77 -17.5q-66 0 -109 47t-43 122v13h356v65q0 25 -4 48.5t-11.5 44.5t-18.5 39.5t-25.5 33.5t-31 27.5t-35.5 20.5
t-39.5 12.5t-43.5 4.5q-24 0 -46.5 -4.5t-42.5 -13t-38 -20.5t-33 -27.5t-26.5 -34.5t-19.5 -40t-12.5 -45t-4.5 -50v-75zM281 469q58 0 97 -45t39 -117v-4h-281q0 73 41 119.5t104 46.5zM407 695h-248v-55h248v55z" />
    <glyph glyph-name="Ebreve" unicode="&#x114;" horiz-adv-x="593" 
d="M92 0h443v71h-363v245h353v70h-353v243h363v71h-443v-700zM322 841q-26 0 -50.5 14.5t-37.5 60.5l-55 -17q13 -54 53.5 -83.5t89.5 -29.5t89.5 29.5t53.5 83.5l-55 17q-12 -46 -37.5 -60.5t-50.5 -14.5z" />
    <glyph glyph-name="ebreve" unicode="&#x115;" horiz-adv-x="547" 
d="M60 226q0 -26 4.5 -50t12.5 -45t20 -40t27 -34.5t33 -27.5t38.5 -20.5t43.5 -13t47 -4.5q62 0 110.5 23.5t85.5 70.5l-54 45q-28 -37 -63 -54.5t-77 -17.5q-66 0 -109 47t-43 122v13h356v65q0 25 -4 48.5t-11.5 44.5t-18.5 39.5t-25.5 33.5t-31 27.5t-35.5 20.5
t-39.5 12.5t-43.5 4.5q-24 0 -46.5 -4.5t-42.5 -13t-38 -20.5t-33 -27.5t-26.5 -34.5t-19.5 -40t-12.5 -45t-4.5 -50v-75zM281 469q58 0 97 -45t39 -117v-4h-281q0 73 41 119.5t104 46.5zM283 668q-26 0 -50.5 14.5t-37.5 60.5l-55 -17q13 -54 53.5 -83.5t89.5 -29.5
t89.5 29.5t53.5 83.5l-55 17q-12 -46 -37.5 -60.5t-50.5 -14.5z" />
    <glyph glyph-name="Edotaccent" unicode="&#x116;" horiz-adv-x="593" 
d="M92 0h443v71h-363v245h353v70h-353v243h363v71h-443v-700zM322 798q20 0 34.5 15t14.5 36t-14.5 35.5t-34.5 14.5t-35 -14.5t-15 -35.5t15 -36t35 -15z" />
    <glyph glyph-name="edotaccent" unicode="&#x117;" horiz-adv-x="547" 
d="M60 226q0 -26 4.5 -50t12.5 -45t20 -40t27 -34.5t33 -27.5t38.5 -20.5t43.5 -13t47 -4.5q62 0 110.5 23.5t85.5 70.5l-54 45q-28 -37 -63 -54.5t-77 -17.5q-66 0 -109 47t-43 122v13h356v65q0 25 -4 48.5t-11.5 44.5t-18.5 39.5t-25.5 33.5t-31 27.5t-35.5 20.5
t-39.5 12.5t-43.5 4.5q-24 0 -46.5 -4.5t-42.5 -13t-38 -20.5t-33 -27.5t-26.5 -34.5t-19.5 -40t-12.5 -45t-4.5 -50v-75zM281 469q58 0 97 -45t39 -117v-4h-281q0 73 41 119.5t104 46.5zM283 625q20 0 34.5 15t14.5 36t-14.5 35.5t-34.5 14.5t-35 -14.5t-15 -35.5t15 -36
t35 -15z" />
    <glyph glyph-name="Eogonek" unicode="&#x118;" horiz-adv-x="593" 
d="M92 0h386q-46 -41 -61.5 -73t-15.5 -63q0 -37 24 -61t72 -24q14 0 27.5 2t24.5 6l-8 45q-8 -3 -17.5 -4t-18.5 -1q-24 0 -37 13t-13 36q0 24 15 53t65 71v71h-363v245h353v70h-353v243h363v71h-443v-700z" />
    <glyph glyph-name="eogonek" unicode="&#x119;" horiz-adv-x="547" 
d="M60 226q0 -26 4.5 -50t12.5 -45t20 -40t27 -34.5t33 -27.5t38.5 -20.5t43.5 -13t47 -4.5h4q-40 -37 -53.5 -67t-13.5 -60q0 -37 24 -61t72 -24q14 0 27.5 2t24.5 6l-8 45q-8 -3 -17.5 -4t-18.5 -1q-24 0 -37 13t-13 36q0 24 15 53t65 71q37 10 68 31t57 54l-54 45
q-28 -37 -63 -54.5t-77 -17.5q-66 0 -109 47t-43 122v13h356v65q0 25 -4 48.5t-11.5 44.5t-18.5 39.5t-25.5 33.5t-31 27.5t-35.5 20.5t-39.5 12.5t-43.5 4.5q-24 0 -46.5 -4.5t-42.5 -13t-38 -20.5t-33 -27.5t-26.5 -34.5t-19.5 -40t-12.5 -45t-4.5 -50v-75zM281 469
q58 0 97 -45t39 -117v-4h-281q0 73 41 119.5t104 46.5z" />
    <glyph glyph-name="Ecaron" unicode="&#x11a;" horiz-adv-x="593" 
d="M92 0h443v71h-363v245h353v70h-353v243h363v71h-443v-700zM401 915l-78 -85l-77 85h-71l109 -130h78l109 130h-70z" />
    <glyph glyph-name="ecaron" unicode="&#x11b;" horiz-adv-x="547" 
d="M60 226q0 -26 4.5 -50t12.5 -45t20 -40t27 -34.5t33 -27.5t38.5 -20.5t43.5 -13t47 -4.5q62 0 110.5 23.5t85.5 70.5l-54 45q-28 -37 -63 -54.5t-77 -17.5q-66 0 -109 47t-43 122v13h356v65q0 25 -4 48.5t-11.5 44.5t-18.5 39.5t-25.5 33.5t-31 27.5t-35.5 20.5
t-39.5 12.5t-43.5 4.5q-24 0 -46.5 -4.5t-42.5 -13t-38 -20.5t-33 -27.5t-26.5 -34.5t-19.5 -40t-12.5 -45t-4.5 -50v-75zM281 469q58 0 97 -45t39 -117v-4h-281q0 73 41 119.5t104 46.5zM362 742l-78 -85l-77 85h-71l109 -130h78l109 130h-70z" />
    <glyph glyph-name="Gcircumflex" unicode="&#x11c;" horiz-adv-x="734" 
d="M64 312q0 -36 5.5 -69t16 -62.5t25.5 -55t34.5 -47t42.5 -37.5t50 -27.5t56.5 -17.5t62.5 -6q68 0 127 34.5t91 94.5v-119h75v362h-283v-70h208v-33q0 -23 -4 -43.5t-12 -39t-19.5 -34t-25.5 -28.5t-31 -22.5t-35.5 -16.5t-39 -10.5t-42.5 -3.5q-99 0 -160.5 68
t-61.5 183v76q0 114 61 182t161 68q69 0 125.5 -38t82.5 -106l71 30q-34 87 -108 137t-173 50q-34 0 -64.5 -6t-58 -17.5t-51 -28t-43.5 -37.5t-35.5 -46.5t-26 -55t-16 -62t-5.5 -68.5v-78zM292 785l77 84l77 -84h71l-109 130h-78l-109 -130h71z" />
    <glyph glyph-name="gcircumflex" unicode="&#x11d;" horiz-adv-x="606" 
d="M196 -215h139q84 0 132 48t48 131v563h-77v-91q-25 46 -69.5 73t-100.5 27q-90 0 -149 -65t-59 -169v-76q0 -104 59 -168.5t149 -64.5q56 0 100.5 26.5t69.5 73.5v-121q0 -59 -30.5 -89.5t-89.5 -30.5h-122v-67zM438 296v-65q0 -78 -41 -124t-109 -46t-110 46t-42 124v65
q0 78 42 125t110 47t109 -47t41 -125zM216 612l77 84l77 -84h71l-109 130h-78l-109 -130h71z" />
    <glyph glyph-name="Gbreve" unicode="&#x11e;" horiz-adv-x="734" 
d="M64 312q0 -36 5.5 -69t16 -62.5t25.5 -55t34.5 -47t42.5 -37.5t50 -27.5t56.5 -17.5t62.5 -6q68 0 127 34.5t91 94.5v-119h75v362h-283v-70h208v-33q0 -23 -4 -43.5t-12 -39t-19.5 -34t-25.5 -28.5t-31 -22.5t-35.5 -16.5t-39 -10.5t-42.5 -3.5q-99 0 -160.5 68
t-61.5 183v76q0 114 61 182t161 68q69 0 125.5 -38t82.5 -106l71 30q-34 87 -108 137t-173 50q-34 0 -64.5 -6t-58 -17.5t-51 -28t-43.5 -37.5t-35.5 -46.5t-26 -55t-16 -62t-5.5 -68.5v-78zM368 841q-26 0 -50.5 14.5t-37.5 60.5l-55 -17q13 -54 53.5 -83.5t89.5 -29.5
t89.5 29.5t53.5 83.5l-55 17q-12 -46 -37.5 -60.5t-50.5 -14.5z" />
    <glyph glyph-name="gbreve" unicode="&#x11f;" horiz-adv-x="606" 
d="M196 -215h139q84 0 132 48t48 131v563h-77v-91q-25 46 -69.5 73t-100.5 27q-90 0 -149 -65t-59 -169v-76q0 -104 59 -168.5t149 -64.5q56 0 100.5 26.5t69.5 73.5v-121q0 -59 -30.5 -89.5t-89.5 -30.5h-122v-67zM438 296v-65q0 -78 -41 -124t-109 -46t-110 46t-42 124v65
q0 78 42 125t110 47t109 -47t41 -125zM292 668q-26 0 -50.5 14.5t-37.5 60.5l-55 -17q13 -54 53.5 -83.5t89.5 -29.5t89.5 29.5t53.5 83.5l-55 17q-12 -46 -37.5 -60.5t-50.5 -14.5z" />
    <glyph glyph-name="Gdotaccent" unicode="&#x120;" horiz-adv-x="734" 
d="M64 312q0 -36 5.5 -69t16 -62.5t25.5 -55t34.5 -47t42.5 -37.5t50 -27.5t56.5 -17.5t62.5 -6q68 0 127 34.5t91 94.5v-119h75v362h-283v-70h208v-33q0 -23 -4 -43.5t-12 -39t-19.5 -34t-25.5 -28.5t-31 -22.5t-35.5 -16.5t-39 -10.5t-42.5 -3.5q-99 0 -160.5 68
t-61.5 183v76q0 114 61 182t161 68q69 0 125.5 -38t82.5 -106l71 30q-34 87 -108 137t-173 50q-34 0 -64.5 -6t-58 -17.5t-51 -28t-43.5 -37.5t-35.5 -46.5t-26 -55t-16 -62t-5.5 -68.5v-78zM368 798q20 0 34.5 15t14.5 36t-14.5 35.5t-34.5 14.5t-35 -14.5t-15 -35.5
t15 -36t35 -15z" />
    <glyph glyph-name="gdotaccent" unicode="&#x121;" horiz-adv-x="606" 
d="M196 -215h139q84 0 132 48t48 131v563h-77v-91q-25 46 -69.5 73t-100.5 27q-90 0 -149 -65t-59 -169v-76q0 -104 59 -168.5t149 -64.5q56 0 100.5 26.5t69.5 73.5v-121q0 -59 -30.5 -89.5t-89.5 -30.5h-122v-67zM438 296v-65q0 -78 -41 -124t-109 -46t-110 46t-42 124v65
q0 78 42 125t110 47t109 -47t41 -125zM292 625q20 0 34.5 15t14.5 36t-14.5 35.5t-34.5 14.5t-35 -14.5t-15 -35.5t15 -36t35 -15z" />
    <glyph glyph-name="uni0122" unicode="&#x122;" horiz-adv-x="734" 
d="M64 312q0 -36 5.5 -69t16 -62.5t25.5 -55t34.5 -47t42.5 -37.5t50 -27.5t56.5 -17.5t62.5 -6q68 0 127 34.5t91 94.5v-119h75v362h-283v-70h208v-33q0 -23 -4 -43.5t-12 -39t-19.5 -34t-25.5 -28.5t-31 -22.5t-35.5 -16.5t-39 -10.5t-42.5 -3.5q-99 0 -160.5 68
t-61.5 183v76q0 114 61 182t161 68q69 0 125.5 -38t82.5 -106l71 30q-34 87 -108 137t-173 50q-34 0 -64.5 -6t-58 -17.5t-51 -28t-43.5 -37.5t-35.5 -46.5t-26 -55t-16 -62t-5.5 -68.5v-78zM319 -222v-34q46 5 72.5 38.5t26.5 75.5q0 32 -14.5 50.5t-36.5 18.5
q-16 0 -29 -12.5t-13 -29.5q0 -7 1.5 -12t4 -9t6 -7t7.5 -6t8 -5t7.5 -4.5t6 -4.5t4 -5t1.5 -6q0 -15 -15 -30t-37 -18z" />
    <glyph glyph-name="uni0123" unicode="&#x123;" horiz-adv-x="606" 
d="M341 775v34q-46 -5 -72.5 -38.5t-26.5 -75.5q0 -32 14.5 -50.5t36.5 -18.5q16 0 29 12.5t13 29.5q0 6 -1.5 11.5t-4 9.5t-6 7t-7.5 6t-8 5t-7.5 4.5t-6 4.5t-4 5t-1.5 6q0 15 15 30t37 18zM196 -215h139q84 0 132 48t48 131v563h-77v-91q-25 46 -69.5 73t-100.5 27
q-90 0 -149 -65t-59 -169v-76q0 -104 59 -168.5t149 -64.5q56 0 100.5 26.5t69.5 73.5v-121q0 -59 -30.5 -89.5t-89.5 -30.5h-122v-67zM438 296v-65q0 -78 -41 -124t-109 -46t-110 46t-42 124v65q0 78 42 125t110 47t109 -47t41 -125z" />
    <glyph glyph-name="Hcircumflex" unicode="&#x124;" horiz-adv-x="715" 
d="M172 0v315h371v-315h80v700h-80v-314h-371v314h-80v-700h80zM282 785l77 84l77 -84h71l-109 130h-78l-109 -130h71z" />
    <glyph glyph-name="hcircumflex" unicode="&#x125;" 
d="M517 344q0 20 -3.5 39t-10 36.5t-16 33t-21.5 28.5t-26.5 23.5t-31.5 17.5t-36 11t-40 4q-56 0 -101 -29.5t-66 -79.5v305h-77v-733h77v323q0 61 40 102.5t103 41.5q60 0 96 -39.5t36 -98.5v-329h77v344zM51 819l77 84l77 -84h71l-109 130h-78l-109 -130h71z" />
    <glyph glyph-name="Hbar" unicode="&#x126;" horiz-adv-x="728" 
d="M179 0v315h371v-315h80v507h88v66h-88v127h-80v-127h-371v127h-80v-127h-89v-66h89v-507h80zM179 386v121h371v-121h-371z" />
    <glyph glyph-name="hbar" unicode="&#x127;" horiz-adv-x="611" 
d="M523 344q0 20 -3.5 39t-10 36.5t-16 33t-21.5 28.5t-26.5 23.5t-31.5 17.5t-36 11t-40 4q-56 0 -101 -29.5t-66 -79.5v170h148v59h-148v76h-77v-76h-71v-59h71v-598h77v323q0 61 40 102.5t103 41.5q60 0 96 -39.5t36 -98.5v-329h77v344z" />
    <glyph glyph-name="Itilde" unicode="&#x128;" horiz-adv-x="265" 
d="M172 0v700h-80v-700h80zM71 906q-32 0 -55 -27.5t-37 -78.5l51 -12q12 37 22 50t23 13q4 0 9.5 -2t11 -5.5t12 -8t13.5 -9.5l14 -10t14 -9.5t14.5 -8t15 -5.5t14.5 -2q32 0 55 27t36 78l-51 12q-11 -37 -21 -50t-23 -13q-5 0 -10 2t-11 5.5t-12 8t-13 9.5t-14 10.5
t-14.5 10t-14.5 8t-14.5 5.5t-14.5 2z" />
    <glyph glyph-name="itilde" unicode="&#x129;" horiz-adv-x="253" 
d="M165 527h-77v-527h77v527zM65 733q-32 0 -55 -27.5t-37 -78.5l51 -12q12 37 22 50t23 13q4 0 9.5 -2t11 -5.5t12 -8t13.5 -9.5l14 -10t14 -9.5t14.5 -8t15 -5.5t14.5 -2q32 0 55 27t36 78l-51 12q-11 -37 -21 -50t-23 -13q-5 0 -10 2t-11 5.5t-12 8t-13 9.5t-14 10.5
t-14.5 10t-14.5 8t-14.5 5.5t-14.5 2z" />
    <glyph glyph-name="Imacron" unicode="&#x12a;" horiz-adv-x="265" 
d="M172 0v700h-80v-700h80zM256 868h-248v-55h248v55z" />
    <glyph glyph-name="imacron" unicode="&#x12b;" horiz-adv-x="253" 
d="M165 527h-77v-527h77v527zM250 695h-248v-55h248v55z" />
    <glyph glyph-name="Ibreve" unicode="&#x12c;" horiz-adv-x="265" 
d="M172 0v700h-80v-700h80zM132 841q-26 0 -50.5 14.5t-37.5 60.5l-55 -17q13 -54 53.5 -83.5t89.5 -29.5t89.5 29.5t53.5 83.5l-55 17q-12 -46 -37.5 -60.5t-50.5 -14.5z" />
    <glyph glyph-name="ibreve" unicode="&#x12d;" horiz-adv-x="253" 
d="M165 527h-77v-527h77v527zM126 667q-26 0 -50.5 14.5t-37.5 60.5l-55 -17q13 -54 53.5 -83.5t89.5 -29.5t89.5 29.5t53.5 83.5l-55 17q-12 -46 -37.5 -60.5t-50.5 -14.5z" />
    <glyph glyph-name="Iogonek" unicode="&#x12e;" horiz-adv-x="265" 
d="M172 0v700h-80v-700h23q-46 -41 -61.5 -73t-15.5 -63q0 -37 24 -61t72 -24q14 0 27.5 2t24.5 6l-8 45q-8 -3 -17.5 -4t-18.5 -1q-24 0 -37 13t-13 36q0 24 15 53t65 71z" />
    <glyph glyph-name="iogonek" unicode="&#x12f;" horiz-adv-x="253" 
d="M127 630q20 0 35 15.5t15 35.5q0 22 -15 37t-35 15q-21 0 -36.5 -15t-15.5 -37q0 -20 15.5 -35.5t36.5 -15.5zM165 0v527h-77v-527h20q-46 -41 -61.5 -73t-15.5 -63q0 -37 24 -61t72 -24q14 0 27.5 2t24.5 6l-8 45q-8 -3 -17.5 -4t-18.5 -1q-24 0 -37 13t-13 36
q0 24 15 53t65 71z" />
    <glyph glyph-name="Idotaccent" unicode="&#x130;" horiz-adv-x="265" 
d="M172 0v700h-80v-700h80zM132 798q20 0 34.5 15t14.5 36t-14.5 35.5t-34.5 14.5t-35 -14.5t-15 -35.5t15 -36t35 -15z" />
    <glyph glyph-name="dotlessi" unicode="&#x131;" horiz-adv-x="253" 
d="M165 527h-77v-527h77v527z" />
    <glyph glyph-name="IJ" unicode="&#x132;" horiz-adv-x="767" 
d="M172 0v700h-80v-700h80zM284 48q34 -29 78 -44t94 -15q24 0 46.5 4t43.5 12t39 19.5t33.5 26.5t27.5 33.5t20.5 40t13 46.5t4.5 53v476h-80v-471q0 -81 -43 -124t-107 -43q-35 0 -67 11.5t-56 32.5z" />
    <glyph glyph-name="ij" unicode="&#x133;" horiz-adv-x="505" 
d="M127 630q20 0 35 15.5t15 35.5q0 22 -15 37t-35 15q-21 0 -36.5 -15t-15.5 -37q0 -20 15.5 -35.5t36.5 -15.5zM165 527h-77v-527h77v527zM380 630q20 0 35 15.5t15 35.5q0 22 -15 37t-35 15q-21 0 -36.5 -15t-15.5 -37q0 -20 15.5 -35.5t36.5 -15.5zM314 -215
q49 0 76.5 27t27.5 69v646h-77v-635q0 -19 -11.5 -29.5t-32.5 -10.5h-34v-67h51z" />
    <glyph glyph-name="Jcircumflex" unicode="&#x134;" horiz-adv-x="502" 
d="M19 48q34 -29 78 -44t94 -15q24 0 46.5 4t43.5 12t39 19.5t33.5 26.5t27.5 33.5t20.5 40t13 46.5t4.5 53v476h-80v-471q0 -81 -43 -124t-107 -43q-35 0 -67 11.5t-56 32.5zM304 785l77 84l77 -84h71l-109 130h-78l-109 -130h71z" />
    <glyph glyph-name="jcircumflex" unicode="&#x135;" horiz-adv-x="253" 
d="M61 -215q49 0 76.5 27t27.5 69v646h-77v-635q0 -19 -11.5 -29.5t-32.5 -10.5h-34v-67h51zM50 612l77 84l77 -84h71l-109 130h-78l-109 -130h71z" />
    <glyph glyph-name="uni0136" unicode="&#x136;" horiz-adv-x="609" 
d="M172 0v323l339 -323h113l-380 356l374 344h-106l-340 -318v318h-80v-700h80zM272 -222v-34q46 5 72.5 38.5t26.5 75.5q0 32 -14.5 50.5t-36.5 18.5q-16 0 -29 -12.5t-13 -29.5q0 -7 1.5 -12t4 -9t6 -7t7.5 -6t8 -5t7.5 -4.5t6 -4.5t4 -5t1.5 -6q0 -15 -15 -30t-37 -18z
" />
    <glyph glyph-name="uni0137" unicode="&#x137;" horiz-adv-x="505" 
d="M506 527h-99l-242 -234v440h-77v-733h77v248l249 -248h105l-281 274zM233 -222v-34q46 5 72.5 38.5t26.5 75.5q0 32 -14.5 50.5t-36.5 18.5q-16 0 -29 -12.5t-13 -29.5q0 -7 1.5 -12t4 -9t6 -7t7.5 -6t8 -5t7.5 -4.5t6 -4.5t4 -5t1.5 -6q0 -15 -15 -30t-37 -18z" />
    <glyph glyph-name="kgreenlandic" unicode="&#x138;" horiz-adv-x="506" 
d="M165 527h-77v-527h77v248l249 -248h105l-281 274l268 253h-99l-242 -234v234z" />
    <glyph glyph-name="Lacute" unicode="&#x139;" horiz-adv-x="571" 
d="M535 71h-363v629h-80v-700h443v71zM185 915l-114 -130h77l129 130h-92z" />
    <glyph glyph-name="lacute" unicode="&#x13a;" horiz-adv-x="253" 
d="M165 0v733h-77v-733h77zM180 947l-114 -130h77l129 130h-92z" />
    <glyph glyph-name="uni013B" unicode="&#x13b;" horiz-adv-x="571" 
d="M535 71h-363v629h-80v-700h443v71zM270 -222v-34q46 5 72.5 38.5t26.5 75.5q0 32 -14.5 50.5t-36.5 18.5q-16 0 -29 -12.5t-13 -29.5q0 -7 1.5 -12t4 -9t6 -7t7.5 -6t8 -5t7.5 -4.5t6 -4.5t4 -5t1.5 -6q0 -15 -15 -30t-37 -18z" />
    <glyph glyph-name="uni013C" unicode="&#x13c;" horiz-adv-x="253" 
d="M165 0v733h-77v-733h77zM77 -222v-34q46 5 72.5 38.5t26.5 75.5q0 32 -14.5 50.5t-36.5 18.5q-16 0 -29 -12.5t-13 -29.5q0 -7 1.5 -12t4 -9t6 -7t7.5 -6t8 -5t7.5 -4.5t6 -4.5t4 -5t1.5 -6q0 -15 -15 -30t-37 -18z" />
    <glyph glyph-name="Lcaron" unicode="&#x13d;" horiz-adv-x="571" 
d="M535 71h-363v629h-80v-700h443v71zM364 495h60l38 205h-79z" />
    <glyph glyph-name="lcaron" unicode="&#x13e;" horiz-adv-x="347" 
d="M260 528h60l38 205h-79zM165 0v733h-77v-733h77z" />
    <glyph glyph-name="Ldot" unicode="&#x13f;" horiz-adv-x="571" 
d="M535 71h-363v629h-80v-700h443v71zM409 311q20 0 34.5 15t14.5 36t-14.5 35.5t-34.5 14.5t-35 -14.5t-15 -35.5t15 -36t35 -15z" />
    <glyph glyph-name="ldot" unicode="&#x140;" horiz-adv-x="334" 
d="M165 0v733h-77v-733h77zM289 285q20 0 34.5 15t14.5 36t-14.5 35.5t-34.5 14.5t-35 -14.5t-15 -35.5t15 -36t35 -15z" />
    <glyph glyph-name="Lslash" unicode="&#x141;" horiz-adv-x="585" 
d="M23 179l76 63v-242h443v71h-363v237l165 136v74l-165 -136v318h-80v-384l-76 -63v-74z" />
    <glyph glyph-name="lslash" unicode="&#x142;" horiz-adv-x="269" 
d="M172 0v365l83 73v72l-83 -73v296h-77v-363l-83 -73v-73l83 73v-297h77z" />
    <glyph glyph-name="Nacute" unicode="&#x143;" horiz-adv-x="742" 
d="M168 0l-1 587l395 -587h87v700h-76l1 -586l-393 586h-89v-700h76zM424 915l-114 -130h77l129 130h-92z" />
    <glyph glyph-name="nacute" unicode="&#x144;" 
d="M517 344q0 20 -3.5 39t-10 36.5t-16 33t-21.5 28.5t-26.5 23.5t-31.5 17.5t-36 11t-40 4q-56 0 -101 -29.5t-66 -79.5v99h-77v-527h77v323q0 61 40 102.5t103 41.5q60 0 96 -39.5t36 -98.5v-329h77v344zM356 741l-114 -130h77l129 130h-92z" />
    <glyph glyph-name="uni0145" unicode="&#x145;" horiz-adv-x="742" 
d="M168 0l-1 587l395 -587h87v700h-76l1 -586l-393 586h-89v-700h76zM322 -222v-34q46 5 72.5 38.5t26.5 75.5q0 32 -14.5 50.5t-36.5 18.5q-16 0 -29 -12.5t-13 -29.5q0 -7 1.5 -12t4 -9t6 -7t7.5 -6t8 -5t7.5 -4.5t6 -4.5t4 -5t1.5 -6q0 -15 -15 -30t-37 -18z" />
    <glyph glyph-name="uni0146" unicode="&#x146;" 
d="M517 344q0 20 -3.5 39t-10 36.5t-16 33t-21.5 28.5t-26.5 23.5t-31.5 17.5t-36 11t-40 4q-56 0 -101 -29.5t-66 -79.5v99h-77v-527h77v323q0 61 40 102.5t103 41.5q60 0 96 -39.5t36 -98.5v-329h77v344zM254 -222v-34q46 5 72.5 38.5t26.5 75.5q0 32 -14.5 50.5
t-36.5 18.5q-16 0 -29 -12.5t-13 -29.5q0 -7 1.5 -12t4 -9t6 -7t7.5 -6t8 -5t7.5 -4.5t6 -4.5t4 -5t1.5 -6q0 -15 -15 -30t-37 -18z" />
    <glyph glyph-name="Ncaron" unicode="&#x147;" horiz-adv-x="742" 
d="M168 0l-1 587l395 -587h87v700h-76l1 -586l-393 586h-89v-700h76zM450 915l-78 -85l-77 85h-71l109 -130h78l109 130h-70z" />
    <glyph glyph-name="ncaron" unicode="&#x148;" 
d="M517 344q0 20 -3.5 39t-10 36.5t-16 33t-21.5 28.5t-26.5 23.5t-31.5 17.5t-36 11t-40 4q-56 0 -101 -29.5t-66 -79.5v99h-77v-527h77v323q0 61 40 102.5t103 41.5q60 0 96 -39.5t36 -98.5v-329h77v344zM382 741l-78 -85l-77 85h-71l109 -130h78l109 130h-70z" />
    <glyph glyph-name="Eng" unicode="&#x14a;" horiz-adv-x="744" 
d="M575 -109q0 -19 -11 -29t-32 -10h-32v-67h50q47 0 74 26.5t27 67.5v821h-75l-1 -567l-397 567h-86v-700h76v583l407 -581v-111z" />
    <glyph glyph-name="eng" unicode="&#x14b;" 
d="M414 -215q49 0 76 27t27 69v463q0 20 -3.5 39t-10 36.5t-16 33t-21.5 28.5t-26.5 23.5t-31.5 17.5t-36 11t-40 4q-56 0 -101 -29.5t-66 -79.5v99h-77v-527h77v323q0 61 40 102.5t103 41.5q60 0 96 -39.5t36 -98.5v-437q0 -19 -11.5 -29.5t-31.5 -10.5h-34v-67h51z" />
    <glyph glyph-name="Omacron" unicode="&#x14c;" horiz-adv-x="740" 
d="M64 390v-80q0 -36 5.5 -69.5t16.5 -62.5t27 -54.5t36 -46.5t44.5 -37.5t52.5 -27.5t59 -17t65 -6t65.5 6t59.5 17t52 27.5t44 37.5t36 46.5t27 54.5t16.5 62.5t5.5 69.5v80q0 36 -5.5 69.5t-16.5 62.5t-27 54.5t-36 46.5t-44 37.5t-52 27.5t-59.5 17t-65.5 6t-65 -6
t-59 -17t-52.5 -27.5t-44.5 -37.5t-36 -46.5t-27 -54.5t-16.5 -62.5t-5.5 -69.5zM144 385q0 120 62.5 186.5t163.5 66.5t163.5 -66.5t62.5 -186.5v-70q0 -120 -62.5 -186.5t-163.5 -66.5q-100 0 -163 66.5t-63 186.5v70zM494 868h-248v-55h248v55z" />
    <glyph glyph-name="omacron" unicode="&#x14d;" horiz-adv-x="574" 
d="M514 225v76q0 27 -4.5 51t-13 45.5t-20.5 40t-27 34t-33 27.5t-38.5 20t-43.5 12.5t-47 4.5q-25 0 -48 -4.5t-43.5 -12.5t-38.5 -20t-33 -27.5t-27 -34t-20 -40t-12.5 -45.5t-4.5 -51v-76q0 -26 4.5 -50.5t12.5 -46t20 -40t27.5 -34t33.5 -27.5t38.5 -20t43 -12.5
t47.5 -4.5q24 0 47 4.5t43.5 12.5t38.5 20t33 27.5t27 34t20.5 40t13 45.5t4.5 51zM438 296v-65q0 -78 -41.5 -125.5t-109.5 -47.5q-69 0 -110 47.5t-41 125.5v65q0 77 41 124.5t110 47.5q68 0 109.5 -47.5t41.5 -124.5zM411 695h-248v-55h248v55z" />
    <glyph glyph-name="Obreve" unicode="&#x14e;" horiz-adv-x="740" 
d="M64 390v-80q0 -36 5.5 -69.5t16.5 -62.5t27 -54.5t36 -46.5t44.5 -37.5t52.5 -27.5t59 -17t65 -6t65.5 6t59.5 17t52 27.5t44 37.5t36 46.5t27 54.5t16.5 62.5t5.5 69.5v80q0 36 -5.5 69.5t-16.5 62.5t-27 54.5t-36 46.5t-44 37.5t-52 27.5t-59.5 17t-65.5 6t-65 -6
t-59 -17t-52.5 -27.5t-44.5 -37.5t-36 -46.5t-27 -54.5t-16.5 -62.5t-5.5 -69.5zM144 385q0 120 62.5 186.5t163.5 66.5t163.5 -66.5t62.5 -186.5v-70q0 -120 -62.5 -186.5t-163.5 -66.5q-100 0 -163 66.5t-63 186.5v70zM370 841q-26 0 -50.5 14.5t-37.5 60.5l-55 -17
q13 -54 53.5 -83.5t89.5 -29.5t89.5 29.5t53.5 83.5l-55 17q-12 -46 -37.5 -60.5t-50.5 -14.5z" />
    <glyph glyph-name="obreve" unicode="&#x14f;" horiz-adv-x="574" 
d="M514 225v76q0 27 -4.5 51t-13 45.5t-20.5 40t-27 34t-33 27.5t-38.5 20t-43.5 12.5t-47 4.5q-25 0 -48 -4.5t-43.5 -12.5t-38.5 -20t-33 -27.5t-27 -34t-20 -40t-12.5 -45.5t-4.5 -51v-76q0 -26 4.5 -50.5t12.5 -46t20 -40t27.5 -34t33.5 -27.5t38.5 -20t43 -12.5
t47.5 -4.5q24 0 47 4.5t43.5 12.5t38.5 20t33 27.5t27 34t20.5 40t13 45.5t4.5 51zM438 296v-65q0 -78 -41.5 -125.5t-109.5 -47.5q-69 0 -110 47.5t-41 125.5v65q0 77 41 124.5t110 47.5q68 0 109.5 -47.5t41.5 -124.5zM287 668q-26 0 -50.5 14.5t-37.5 60.5l-55 -17
q13 -54 53.5 -83.5t89.5 -29.5t89.5 29.5t53.5 83.5l-55 17q-12 -46 -37.5 -60.5t-50.5 -14.5z" />
    <glyph glyph-name="Ohungarumlaut" unicode="&#x150;" horiz-adv-x="740" 
d="M64 390v-80q0 -36 5.5 -69.5t16.5 -62.5t27 -54.5t36 -46.5t44.5 -37.5t52.5 -27.5t59 -17t65 -6t65.5 6t59.5 17t52 27.5t44 37.5t36 46.5t27 54.5t16.5 62.5t5.5 69.5v80q0 36 -5.5 69.5t-16.5 62.5t-27 54.5t-36 46.5t-44 37.5t-52 27.5t-59.5 17t-65.5 6t-65 -6
t-59 -17t-52.5 -27.5t-44.5 -37.5t-36 -46.5t-27 -54.5t-16.5 -62.5t-5.5 -69.5zM144 385q0 120 62.5 186.5t163.5 66.5t163.5 -66.5t62.5 -186.5v-70q0 -120 -62.5 -186.5t-163.5 -66.5q-100 0 -163 66.5t-63 186.5v70zM347 915l-113 -128h71l126 128h-84zM513 915
l-113 -128h72l125 128h-84z" />
    <glyph glyph-name="ohungarumlaut" unicode="&#x151;" horiz-adv-x="574" 
d="M514 225v76q0 27 -4.5 51t-13 45.5t-20.5 40t-27 34t-33 27.5t-38.5 20t-43.5 12.5t-47 4.5q-25 0 -48 -4.5t-43.5 -12.5t-38.5 -20t-33 -27.5t-27 -34t-20 -40t-12.5 -45.5t-4.5 -51v-76q0 -26 4.5 -50.5t12.5 -46t20 -40t27.5 -34t33.5 -27.5t38.5 -20t43 -12.5
t47.5 -4.5q24 0 47 4.5t43.5 12.5t38.5 20t33 27.5t27 34t20.5 40t13 45.5t4.5 51zM438 296v-65q0 -78 -41.5 -125.5t-109.5 -47.5q-69 0 -110 47.5t-41 125.5v65q0 77 41 124.5t110 47.5q68 0 109.5 -47.5t41.5 -124.5zM264 742l-113 -128h71l126 128h-84zM430 742
l-113 -128h72l125 128h-84z" />
    <glyph glyph-name="OE" unicode="&#x152;" horiz-adv-x="1019" 
d="M64 390v-79q0 -142 81.5 -226.5t224.5 -84.5h591v71h-360v245h350v70h-350v243h360v71h-591q-41 0 -77.5 -7t-67.5 -21t-56 -34.5t-45 -46.5t-33 -57t-20 -67t-7 -77zM375 71q-110 0 -170.5 64.5t-60.5 177.5v75q0 114 60.5 177.5t170.5 63.5h146v-558h-146z" />
    <glyph glyph-name="oe" unicode="&#x153;" horiz-adv-x="930" 
d="M668 -9q62 0 111 23.5t86 70.5l-54 45q-29 -37 -64 -54.5t-77 -17.5q-66 0 -109 47t-43 122v13h356v65q0 25 -4 48.5t-11.5 44.5t-18.5 39.5t-25 33.5t-30.5 27.5t-35.5 20.5t-40 12.5t-44 4.5q-62 0 -110.5 -30t-76.5 -81q-28 52 -77.5 81.5t-112.5 29.5
q-25 0 -47.5 -4.5t-43 -12.5t-38.5 -20t-33 -27.5t-27 -34t-20 -40t-12.5 -45.5t-4.5 -51v-76q0 -26 4.5 -50.5t12.5 -46t20 -40t27 -34t33 -27.5t38.5 -20t43.5 -12.5t47 -4.5q63 0 113 30t78 82q28 -51 77.5 -81t111.5 -30zM663 469q59 0 98 -45t39 -117v-4h-282
q0 73 41 119.5t104 46.5zM441 296v-65q0 -78 -41.5 -125.5t-110.5 -47.5q-68 0 -109 47.5t-41 125.5v65q0 77 41 124.5t109 47.5q69 0 110.5 -47.5t41.5 -124.5z" />
    <glyph glyph-name="Racute" unicode="&#x154;" horiz-adv-x="620" 
d="M172 0v300h156l180 -300h91l-187 307q66 17 108.5 69.5t42.5 121.5q0 21 -4 41t-11.5 38t-18.5 34t-25 30t-30.5 25t-35.5 18.5t-40 11.5t-43 4h-263v-700h80zM348 629q59 0 97 -38.5t38 -92.5t-38 -92t-97 -38h-176v261h176zM362 915l-114 -130h77l129 130h-92z" />
    <glyph glyph-name="racute" unicode="&#x155;" horiz-adv-x="375" 
d="M345 456v75h-44q-49 0 -85 -30.5t-52 -79.5v106h-76v-527h77v313q0 61 38 102t92 41h50zM272 741l-114 -130h77l129 130h-92z" />
    <glyph glyph-name="uni0156" unicode="&#x156;" horiz-adv-x="620" 
d="M172 0v300h156l180 -300h91l-187 307q66 17 108.5 69.5t42.5 121.5q0 21 -4 41t-11.5 38t-18.5 34t-25 30t-30.5 25t-35.5 18.5t-40 11.5t-43 4h-263v-700h80zM348 629q59 0 97 -38.5t38 -92.5t-38 -92t-97 -38h-176v261h176zM276 -222v-34q46 5 72.5 38.5t26.5 75.5
q0 32 -14.5 50.5t-36.5 18.5q-16 0 -29 -12.5t-13 -29.5q0 -7 1.5 -12t4 -9t6 -7t7.5 -6t8 -5t7.5 -4.5t6 -4.5t4 -5t1.5 -6q0 -15 -15 -30t-37 -18z" />
    <glyph glyph-name="uni0157" unicode="&#x157;" horiz-adv-x="375" 
d="M345 456v75h-44q-49 0 -85 -30.5t-52 -79.5v106h-76v-527h77v313q0 61 38 102t92 41h50zM77 -222v-34q46 5 72.5 38.5t26.5 75.5q0 32 -14.5 50.5t-36.5 18.5q-16 0 -29 -12.5t-13 -29.5q0 -7 1.5 -12t4 -9t6 -7t7.5 -6t8 -5t7.5 -4.5t6 -4.5t4 -5t1.5 -6q0 -15 -15 -30
t-37 -18z" />
    <glyph glyph-name="Rcaron" unicode="&#x158;" horiz-adv-x="620" 
d="M172 0v300h156l180 -300h91l-187 307q66 17 108.5 69.5t42.5 121.5q0 21 -4 41t-11.5 38t-18.5 34t-25 30t-30.5 25t-35.5 18.5t-40 11.5t-43 4h-263v-700h80zM348 629q59 0 97 -38.5t38 -92.5t-38 -92t-97 -38h-176v261h176zM388 915l-78 -85l-77 85h-71l109 -130h78
l109 130h-70z" />
    <glyph glyph-name="rcaron" unicode="&#x159;" horiz-adv-x="375" 
d="M345 456v75h-44q-49 0 -85 -30.5t-52 -79.5v106h-76v-527h77v313q0 61 38 102t92 41h50zM298 741l-78 -85l-77 85h-71l109 -130h78l109 130h-70z" />
    <glyph glyph-name="Sacute" unicode="&#x15a;" horiz-adv-x="604" 
d="M48 210q10 -99 83.5 -159t183.5 -60q105 0 169 55t64 142q0 69 -43 115t-132 70l-125 34q-56 15 -85 44t-29 72q0 53 41 86t103 33q73 0 118.5 -40t56.5 -110h79q-12 98 -81 158t-171 60q-24 0 -47 -3.5t-43 -10.5t-38 -17t-33 -22.5t-27 -28t-20 -33.5t-12.5 -37.5
t-4.5 -41.5q0 -67 43 -114t124 -69l121 -32q64 -17 94.5 -47t30.5 -75q0 -54 -41 -86.5t-113 -32.5q-77 0 -126.5 40t-60.5 110h-79zM339 915l-114 -130h77l129 130h-92z" />
    <glyph glyph-name="sacute" unicode="&#x15b;" horiz-adv-x="488" 
d="M257 -10q81 0 132.5 42t51.5 110q0 53 -38 91t-107 56l-87 23q-39 10 -62 30t-23 52q0 34 27 56.5t74 22.5q50 0 87.5 -30.5t44.5 -74.5h76q-10 75 -69 121.5t-139 46.5q-79 0 -128 -42t-49 -109q0 -53 36 -89t102 -53l89 -23q42 -12 66 -32t24 -53q0 -34 -29.5 -57.5
t-78.5 -23.5q-59 0 -97 30.5t-46 75.5h-75q12 -73 71 -121.5t147 -48.5zM284 741l-114 -130h77l129 130h-92z" />
    <glyph glyph-name="Scircumflex" unicode="&#x15c;" horiz-adv-x="604" 
d="M48 210q10 -99 83.5 -159t183.5 -60q105 0 169 55t64 142q0 69 -43 115t-132 70l-125 34q-56 15 -85 44t-29 72q0 53 41 86t103 33q73 0 118.5 -40t56.5 -110h79q-12 98 -81 158t-171 60q-24 0 -47 -3.5t-43 -10.5t-38 -17t-33 -22.5t-27 -28t-20 -33.5t-12.5 -37.5
t-4.5 -41.5q0 -67 43 -114t124 -69l121 -32q64 -17 94.5 -47t30.5 -75q0 -54 -41 -86.5t-113 -32.5q-77 0 -126.5 40t-60.5 110h-79zM210 785l77 84l77 -84h71l-109 130h-78l-109 -130h71z" />
    <glyph glyph-name="scircumflex" unicode="&#x15d;" horiz-adv-x="488" 
d="M257 -10q81 0 132.5 42t51.5 110q0 53 -38 91t-107 56l-87 23q-39 10 -62 30t-23 52q0 34 27 56.5t74 22.5q50 0 87.5 -30.5t44.5 -74.5h76q-10 75 -69 121.5t-139 46.5q-79 0 -128 -42t-49 -109q0 -53 36 -89t102 -53l89 -23q42 -12 66 -32t24 -53q0 -34 -29.5 -57.5
t-78.5 -23.5q-59 0 -97 30.5t-46 75.5h-75q12 -73 71 -121.5t147 -48.5zM155 612l77 84l77 -84h71l-109 130h-78l-109 -130h71z" />
    <glyph glyph-name="uni015E" unicode="&#x15e;" horiz-adv-x="604" 
d="M48 210q9 -92 73.5 -150.5t162.5 -67.5l-25 -84h33q27 0 43.5 -12.5t16.5 -32.5t-14.5 -33t-38.5 -13q-19 0 -36 8.5t-30 24.5l-37 -31q16 -22 44 -34.5t61 -12.5q44 0 74 26t30 64q0 35 -24 57.5t-64 25.5l14 46q99 4 158 58.5t59 138.5q0 69 -43 115t-132 70l-125 34
q-56 15 -85 44t-29 72q0 53 41 86t103 33q73 0 118.5 -40t56.5 -110h79q-12 98 -81 158t-171 60q-24 0 -47 -3.5t-43 -10.5t-38 -17t-33 -22.5t-27 -28t-20 -33.5t-12.5 -37.5t-4.5 -41.5q0 -67 43 -114t124 -69l121 -32q64 -17 94.5 -47t30.5 -75q0 -54 -41 -86.5
t-113 -32.5q-77 0 -126.5 40t-60.5 110h-79z" />
    <glyph glyph-name="uni015F" unicode="&#x15f;" horiz-adv-x="488" 
d="M348 -138q0 35 -24 57.5t-64 25.5l13 45q75 4 121.5 46t46.5 106q0 53 -38 91t-107 56l-87 23q-39 10 -62 30t-23 52q0 34 27 56.5t74 22.5q50 0 87.5 -30.5t44.5 -74.5h76q-10 75 -69 121.5t-139 46.5q-79 0 -128 -42t-49 -109q0 -53 36 -89t102 -53l89 -23
q42 -12 66 -32t24 -53q0 -34 -29.5 -57.5t-78.5 -23.5q-59 0 -97 30.5t-46 75.5h-75q11 -66 61.5 -113t126.5 -55l-25 -84h33q27 0 43.5 -12.5t16.5 -32.5t-14.5 -33t-38.5 -13q-19 0 -36 8.5t-30 24.5l-37 -31q16 -22 44 -34.5t61 -12.5q44 0 74 26t30 64z" />
    <glyph glyph-name="Scaron" unicode="&#x160;" horiz-adv-x="604" 
d="M48 210q10 -99 83.5 -159t183.5 -60q105 0 169 55t64 142q0 69 -43 115t-132 70l-125 34q-56 15 -85 44t-29 72q0 53 41 86t103 33q73 0 118.5 -40t56.5 -110h79q-12 98 -81 158t-171 60q-24 0 -47 -3.5t-43 -10.5t-38 -17t-33 -22.5t-27 -28t-20 -33.5t-12.5 -37.5
t-4.5 -41.5q0 -67 43 -114t124 -69l121 -32q64 -17 94.5 -47t30.5 -75q0 -54 -41 -86.5t-113 -32.5q-77 0 -126.5 40t-60.5 110h-79zM365 915l-78 -85l-77 85h-71l109 -130h78l109 130h-70z" />
    <glyph glyph-name="scaron" unicode="&#x161;" horiz-adv-x="488" 
d="M257 -10q81 0 132.5 42t51.5 110q0 53 -38 91t-107 56l-87 23q-39 10 -62 30t-23 52q0 34 27 56.5t74 22.5q50 0 87.5 -30.5t44.5 -74.5h76q-10 75 -69 121.5t-139 46.5q-79 0 -128 -42t-49 -109q0 -53 36 -89t102 -53l89 -23q42 -12 66 -32t24 -53q0 -34 -29.5 -57.5
t-78.5 -23.5q-59 0 -97 30.5t-46 75.5h-75q12 -73 71 -121.5t147 -48.5zM310 741l-78 -85l-77 85h-71l109 -130h78l109 130h-70z" />
    <glyph glyph-name="uni0162" unicode="&#x162;" horiz-adv-x="621" 
d="M26 629h244v-629h19l-27 -92h33q27 0 43.5 -12.5t16.5 -32.5t-14.5 -33t-38.5 -13q-19 0 -36 8.5t-30 24.5l-37 -31q16 -22 44 -34.5t61 -12.5q44 0 74 26t30 64q0 35 -24 57.5t-64 25.5l16 55h14v629h245v71h-569v-71z" />
    <glyph glyph-name="uni0163" unicode="&#x163;" horiz-adv-x="389" 
d="M31 459h108v-354q0 -40 22 -67.5t62 -34.5l-28 -95h33q27 0 43.5 -12.5t16.5 -32.5t-14.5 -33t-38.5 -13q-19 0 -36 8.5t-30 24.5l-37 -31q16 -22 44 -34.5t61 -12.5q44 0 74 26t30 64q0 35 -24 57.5t-64 25.5l16 55h87v68h-88q-25 0 -39 12.5t-14 35.5v343h141v68h-141
v158h-76v-158h-108v-68z" />
    <glyph glyph-name="Tcaron" unicode="&#x164;" horiz-adv-x="621" 
d="M26 629h244v-629h80v629h245v71h-569v-71zM389 915l-78 -85l-77 85h-71l109 -130h78l109 130h-70z" />
    <glyph glyph-name="tcaron" unicode="&#x165;" horiz-adv-x="389" 
d="M285 603h58l39 184h-77zM253 0h103v68h-88q-25 0 -39 12.5t-14 35.5v343h141v68h-141v158h-76v-158h-108v-68h108v-354q0 -46 30 -75.5t84 -29.5z" />
    <glyph glyph-name="Tbar" unicode="&#x166;" horiz-adv-x="621" 
d="M119 313h151v-313h80v313h153v69h-153v247h245v71h-569v-71h244v-247h-151v-69z" />
    <glyph glyph-name="tbar" unicode="&#x167;" horiz-adv-x="396" 
d="M253 0h103v68h-88q-25 0 -39 12.5t-14 35.5v137h141v65h-141v141h141v68h-141v158h-76v-158h-108v-68h108v-141h-108v-65h108v-148q0 -46 30 -75.5t84 -29.5z" />
    <glyph glyph-name="Utilde" unicode="&#x168;" horiz-adv-x="709" 
d="M162 264v436h-80v-442q0 -30 5 -58t14.5 -52.5t23.5 -45.5t31 -38.5t37.5 -31.5t43 -23t47.5 -14t52 -5q69 0 121 34t80 83v-107h80v700h-80v-436q0 -23 -3.5 -44t-11 -39.5t-17.5 -34.5t-22.5 -29t-27.5 -23.5t-32 -17.5t-35.5 -10.5t-38.5 -3.5q-79 0 -133 55t-54 147z
M289 906q-32 0 -55 -27.5t-37 -78.5l51 -12q12 37 22 50t23 13q4 0 9.5 -2t11 -5.5t12 -8t13.5 -9.5l14 -10t14 -9.5t14.5 -8t15 -5.5t14.5 -2q32 0 55 27t36 78l-51 12q-11 -37 -21 -50t-23 -13q-5 0 -10 2t-11 5.5t-12 8t-13 9.5t-14 10.5t-14.5 10t-14.5 8t-14.5 5.5
t-14.5 2z" />
    <glyph glyph-name="utilde" unicode="&#x169;" 
d="M88 182q0 -20 3.5 -39t10 -36.5t16 -33t21.5 -28t27 -23t32 -17.5t36 -11t40 -4q55 0 100 29t66 80v-99h77v527h-77v-323q0 -62 -40 -103t-103 -41q-59 0 -95.5 39.5t-36.5 97.5v330h-77v-345zM242 733q-32 0 -55 -27.5t-37 -78.5l51 -12q12 37 22 50t23 13q4 0 9.5 -2
t11 -5.5t12 -8t13.5 -9.5l14 -10t14 -9.5t14.5 -8t15 -5.5t14.5 -2q32 0 55 27t36 78l-51 12q-11 -37 -21 -50t-23 -13q-5 0 -10 2t-11 5.5t-12 8t-13 9.5t-14 10.5t-14.5 10t-14.5 8t-14.5 5.5t-14.5 2z" />
    <glyph glyph-name="Umacron" unicode="&#x16a;" horiz-adv-x="709" 
d="M162 264v436h-80v-442q0 -30 5 -58t14.5 -52.5t23.5 -45.5t31 -38.5t37.5 -31.5t43 -23t47.5 -14t52 -5q69 0 121 34t80 83v-107h80v700h-80v-436q0 -23 -3.5 -44t-11 -39.5t-17.5 -34.5t-22.5 -29t-27.5 -23.5t-32 -17.5t-35.5 -10.5t-38.5 -3.5q-79 0 -133 55t-54 147z
M474 868h-248v-55h248v55z" />
    <glyph glyph-name="umacron" unicode="&#x16b;" 
d="M88 182q0 -20 3.5 -39t10 -36.5t16 -33t21.5 -28t27 -23t32 -17.5t36 -11t40 -4q55 0 100 29t66 80v-99h77v527h-77v-323q0 -62 -40 -103t-103 -41q-59 0 -95.5 39.5t-36.5 97.5v330h-77v-345zM427 695h-248v-55h248v55z" />
    <glyph glyph-name="Ubreve" unicode="&#x16c;" horiz-adv-x="709" 
d="M162 264v436h-80v-442q0 -30 5 -58t14.5 -52.5t23.5 -45.5t31 -38.5t37.5 -31.5t43 -23t47.5 -14t52 -5q69 0 121 34t80 83v-107h80v700h-80v-436q0 -23 -3.5 -44t-11 -39.5t-17.5 -34.5t-22.5 -29t-27.5 -23.5t-32 -17.5t-35.5 -10.5t-38.5 -3.5q-79 0 -133 55t-54 147z
M350 841q-26 0 -50.5 14.5t-37.5 60.5l-55 -17q13 -54 53.5 -83.5t89.5 -29.5t89.5 29.5t53.5 83.5l-55 17q-12 -46 -37.5 -60.5t-50.5 -14.5z" />
    <glyph glyph-name="ubreve" unicode="&#x16d;" 
d="M88 182q0 -20 3.5 -39t10 -36.5t16 -33t21.5 -28t27 -23t32 -17.5t36 -11t40 -4q55 0 100 29t66 80v-99h77v527h-77v-323q0 -62 -40 -103t-103 -41q-59 0 -95.5 39.5t-36.5 97.5v330h-77v-345zM303 667q-26 0 -50.5 14.5t-37.5 60.5l-55 -17q13 -54 53.5 -83.5
t89.5 -29.5t89.5 29.5t53.5 83.5l-55 17q-12 -46 -37.5 -60.5t-50.5 -14.5z" />
    <glyph glyph-name="Uring" unicode="&#x16e;" horiz-adv-x="709" 
d="M162 264v436h-80v-442q0 -30 5 -58t14.5 -52.5t23.5 -45.5t31 -38.5t37.5 -31.5t43 -23t47.5 -14t52 -5q69 0 121 34t80 83v-107h80v700h-80v-436q0 -23 -3.5 -44t-11 -39.5t-17.5 -34.5t-22.5 -29t-27.5 -23.5t-32 -17.5t-35.5 -10.5t-38.5 -3.5q-79 0 -133 55t-54 147z
M350 768q43 0 74 30t31 72t-31 72t-74 30t-74 -30t-31 -72t31 -72t74 -30zM350 809q-26 0 -44 18t-18 43t18 43t44 18t44 -18t18 -43t-18 -43t-44 -18z" />
    <glyph glyph-name="uring" unicode="&#x16f;" 
d="M88 182q0 -20 3.5 -39t10 -36.5t16 -33t21.5 -28t27 -23t32 -17.5t36 -11t40 -4q55 0 100 29t66 80v-99h77v527h-77v-323q0 -62 -40 -103t-103 -41q-59 0 -95.5 39.5t-36.5 97.5v330h-77v-345zM303 594q43 0 74 30t31 72t-31 72t-74 30t-74 -30t-31 -72t31 -72t74 -30z
M303 635q-26 0 -44 18t-18 43t18 43t44 18t44 -18t18 -43t-18 -43t-44 -18z" />
    <glyph glyph-name="Uhungarumlaut" unicode="&#x170;" horiz-adv-x="709" 
d="M162 264v436h-80v-442q0 -30 5 -58t14.5 -52.5t23.5 -45.5t31 -38.5t37.5 -31.5t43 -23t47.5 -14t52 -5q69 0 121 34t80 83v-107h80v700h-80v-436q0 -23 -3.5 -44t-11 -39.5t-17.5 -34.5t-22.5 -29t-27.5 -23.5t-32 -17.5t-35.5 -10.5t-38.5 -3.5q-79 0 -133 55t-54 147z
M327 915l-113 -128h71l126 128h-84zM493 915l-113 -128h72l125 128h-84z" />
    <glyph glyph-name="uhungarumlaut" unicode="&#x171;" 
d="M88 182q0 -20 3.5 -39t10 -36.5t16 -33t21.5 -28t27 -23t32 -17.5t36 -11t40 -4q55 0 100 29t66 80v-99h77v527h-77v-323q0 -62 -40 -103t-103 -41q-59 0 -95.5 39.5t-36.5 97.5v330h-77v-345zM279 741l-113 -128h71l126 128h-84zM445 741l-113 -128h72l125 128h-84z" />
    <glyph glyph-name="Uogonek" unicode="&#x172;" horiz-adv-x="709" 
d="M162 264v436h-80v-442q0 -30 5 -58t14.5 -52.5t23.5 -45.5t31 -38.5t37.5 -31.5t43 -23t47.5 -14t52 -5q69 0 121 34t80 83v-107h23q-46 -41 -61.5 -73t-15.5 -63q0 -37 24 -61t72 -24q14 0 27.5 2t24.5 6l-8 45q-8 -3 -17.5 -4t-18.5 -1q-24 0 -37 13t-13 36q0 24 15 53
t65 71v700h-80v-436q0 -23 -3.5 -44t-11 -39.5t-17.5 -34.5t-22.5 -29t-27.5 -23.5t-32 -17.5t-35.5 -10.5t-38.5 -3.5q-79 0 -133 55t-54 147z" />
    <glyph glyph-name="uogonek" unicode="&#x173;" 
d="M88 182q0 -20 3.5 -39t10 -36.5t16 -33t21.5 -28t27 -23t32 -17.5t36 -11t40 -4q55 0 100 29t66 80v-99h20q-46 -41 -61.5 -73t-15.5 -63q0 -37 24 -61t72 -24q14 0 27.5 2t24.5 6l-8 45q-8 -3 -17.5 -4t-18.5 -1q-24 0 -37 13t-13 36q0 24 15 53t65 71v527h-77v-323
q0 -62 -40 -103t-103 -41q-59 0 -95.5 39.5t-36.5 97.5v330h-77v-345z" />
    <glyph glyph-name="Wcircumflex" unicode="&#x174;" horiz-adv-x="945" 
d="M509 700h-70l-184 -579l-143 579h-83l183 -700h76l185 579l184 -579h76l183 700h-79l-143 -579zM397 785l77 84l77 -84h71l-109 130h-78l-109 -130h71z" />
    <glyph glyph-name="wcircumflex" unicode="&#x175;" horiz-adv-x="742" 
d="M339 527l-130 -409l-110 409h-79l148 -527h69l134 413l133 -413h69l148 527h-77l-110 -407l-130 407h-65zM294 612l77 84l77 -84h71l-109 130h-78l-109 -130h71z" />
    <glyph glyph-name="Ycircumflex" unicode="&#x176;" horiz-adv-x="618" 
d="M349 0v289l268 411h-92l-214 -333l-216 333h-94l268 -408v-292h80zM233 785l77 84l77 -84h71l-109 130h-78l-109 -130h71z" />
    <glyph glyph-name="ycircumflex" unicode="&#x177;" horiz-adv-x="506" 
d="M178 -92q-10 -27 -27.5 -41.5t-45.5 -14.5h-56v-67h68q50 0 80 26t49 75l255 641h-80l-164 -421l-171 421h-81l212 -520zM179 612l77 84l77 -84h71l-109 130h-78l-109 -130h71z" />
    <glyph glyph-name="Ydieresis" unicode="&#x178;" horiz-adv-x="618" 
d="M349 0v289l268 411h-92l-214 -333l-216 333h-94l268 -408v-292h80zM222 798q20 0 35 15t15 36t-15 35.5t-35 14.5t-35 -14.5t-15 -35.5t15 -36t35 -15zM396 798q20 0 35 15t15 36t-15 35.5t-35 14.5t-35 -14.5t-15 -35.5t15 -36t35 -15z" />
    <glyph glyph-name="Zacute" unicode="&#x179;" horiz-adv-x="558" 
d="M44 629h371l-380 -575v-54h483v71h-382l380 574v55h-472v-71zM329 915l-114 -130h77l129 130h-92z" />
    <glyph glyph-name="zacute" unicode="&#x17a;" horiz-adv-x="473" 
d="M43 459h289l-293 -403v-56h392v68h-298l291 402v57h-381v-68zM289 741l-114 -130h77l129 130h-92z" />
    <glyph glyph-name="Zdotaccent" unicode="&#x17b;" horiz-adv-x="558" 
d="M44 629h371l-380 -575v-54h483v71h-382l380 574v55h-472v-71zM276 798q20 0 34.5 15t14.5 36t-14.5 35.5t-34.5 14.5t-35 -14.5t-15 -35.5t15 -36t35 -15z" />
    <glyph glyph-name="zdotaccent" unicode="&#x17c;" horiz-adv-x="473" 
d="M43 459h289l-293 -403v-56h392v68h-298l291 402v57h-381v-68zM236 625q20 0 34.5 15t14.5 36t-14.5 35.5t-34.5 14.5t-35 -14.5t-15 -35.5t15 -36t35 -15z" />
    <glyph glyph-name="Zcaron" unicode="&#x17d;" horiz-adv-x="558" 
d="M44 629h371l-380 -575v-54h483v71h-382l380 574v55h-472v-71zM355 915l-78 -85l-77 85h-71l109 -130h78l109 130h-70z" />
    <glyph glyph-name="zcaron" unicode="&#x17e;" horiz-adv-x="473" 
d="M43 459h289l-293 -403v-56h392v68h-298l291 402v57h-381v-68zM315 741l-78 -85l-77 85h-71l109 -130h78l109 130h-70z" />
    <glyph glyph-name="florin" unicode="&#x192;" horiz-adv-x="386" 
d="M58 -95q-4 -23 -13.5 -37.5t-29.5 -14.5h-94v-68h107q51 0 75.5 30.5t31.5 77.5l84 565h135v69h-125l15 99q4 22 13.5 37t30.5 15h94v68h-108q-51 0 -75.5 -30.5t-31.5 -77.5l-16 -111h-119v-69h108z" />
    <glyph glyph-name="uni0218" unicode="&#x218;" horiz-adv-x="604" 
d="M48 210q10 -99 83.5 -159t183.5 -60q105 0 169 55t64 142q0 69 -43 115t-132 70l-125 34q-56 15 -85 44t-29 72q0 53 41 86t103 33q73 0 118.5 -40t56.5 -110h79q-12 98 -81 158t-171 60q-24 0 -47 -3.5t-43 -10.5t-38 -17t-33 -22.5t-27 -28t-20 -33.5t-12.5 -37.5
t-4.5 -41.5q0 -67 43 -114t124 -69l121 -32q64 -17 94.5 -47t30.5 -75q0 -54 -41 -86.5t-113 -32.5q-77 0 -126.5 40t-60.5 110h-79zM259 -222v-34q46 5 72.5 38.5t26.5 75.5q0 32 -14.5 50.5t-36.5 18.5q-16 0 -29 -12.5t-13 -29.5q0 -7 1.5 -12t4 -9t6 -7t7.5 -6t8 -5
t7.5 -4.5t6 -4.5t4 -5t1.5 -6q0 -15 -15 -30t-37 -18z" />
    <glyph glyph-name="uni0219" unicode="&#x219;" horiz-adv-x="488" 
d="M257 -10q81 0 132.5 42t51.5 110q0 53 -38 91t-107 56l-87 23q-39 10 -62 30t-23 52q0 34 27 56.5t74 22.5q50 0 87.5 -30.5t44.5 -74.5h76q-10 75 -69 121.5t-139 46.5q-79 0 -128 -42t-49 -109q0 -53 36 -89t102 -53l89 -23q42 -12 66 -32t24 -53q0 -34 -29.5 -57.5
t-78.5 -23.5q-59 0 -97 30.5t-46 75.5h-75q12 -73 71 -121.5t147 -48.5zM202 -222v-34q46 5 72.5 38.5t26.5 75.5q0 32 -14.5 50.5t-36.5 18.5q-16 0 -29 -12.5t-13 -29.5q0 -7 1.5 -12t4 -9t6 -7t7.5 -6t8 -5t7.5 -4.5t6 -4.5t4 -5t1.5 -6q0 -15 -15 -30t-37 -18z" />
    <glyph glyph-name="uni021A" unicode="&#x21a;" horiz-adv-x="621" 
d="M26 629h244v-629h80v629h245v71h-569v-71zM262 -222v-34q46 5 72.5 38.5t26.5 75.5q0 32 -14.5 50.5t-36.5 18.5q-16 0 -29 -12.5t-13 -29.5q0 -7 1.5 -12t4 -9t6 -7t7.5 -6t8 -5t7.5 -4.5t6 -4.5t4 -5t1.5 -6q0 -15 -15 -30t-37 -18z" />
    <glyph glyph-name="uni021B" unicode="&#x21b;" horiz-adv-x="389" 
d="M253 0h103v68h-88q-25 0 -39 12.5t-14 35.5v343h141v68h-141v158h-76v-158h-108v-68h108v-354q0 -46 30 -75.5t84 -29.5zM195 -222v-34q46 5 72.5 38.5t26.5 75.5q0 32 -14.5 50.5t-36.5 18.5q-16 0 -29 -12.5t-13 -29.5q0 -7 1.5 -12t4 -9t6 -7t7.5 -6t8 -5t7.5 -4.5
t6 -4.5t4 -5t1.5 -6q0 -15 -15 -30t-37 -18z" />
    <glyph glyph-name="uni0237" unicode="&#x237;" horiz-adv-x="253" 
d="M61 -215q49 0 76.5 27t27.5 69v646h-77v-635q0 -19 -11.5 -29.5t-32.5 -10.5h-34v-67h51z" />
    <glyph glyph-name="circumflex" unicode="&#x2c6;" horiz-adv-x="500" 
d="M174 588l77 84l77 -84h71l-109 130h-78l-109 -130h71z" />
    <glyph glyph-name="caron" unicode="&#x2c7;" horiz-adv-x="500" 
d="M329 718l-78 -85l-77 85h-71l109 -130h78l109 130h-70z" />
    <glyph glyph-name="breve" unicode="&#x2d8;" horiz-adv-x="500" 
d="M250 644q-26 0 -50.5 14.5t-37.5 60.5l-55 -17q13 -54 53.5 -83.5t89.5 -29.5t89.5 29.5t53.5 83.5l-55 17q-12 -46 -37.5 -60.5t-50.5 -14.5z" />
    <glyph glyph-name="dotaccent" unicode="&#x2d9;" horiz-adv-x="248" 
d="M124 601q20 0 34.5 15t14.5 36t-14.5 35.5t-34.5 14.5t-35 -14.5t-15 -35.5t15 -36t35 -15z" />
    <glyph glyph-name="ring" unicode="&#x2da;" horiz-adv-x="500" 
d="M250 571q43 0 74 30t31 72t-31 72t-74 30t-74 -30t-31 -72t31 -72t74 -30zM250 612q-26 0 -44 18t-18 43t18 43t44 18t44 -18t18 -43t-18 -43t-44 -18z" />
    <glyph glyph-name="ogonek" unicode="&#x2db;" horiz-adv-x="500" 
d="M308 0l-35 19q-59 -49 -79 -84.5t-20 -70.5q0 -37 24 -61t72 -24q14 0 27.5 2t24.5 6l-8 45q-8 -3 -17.5 -4t-18.5 -1q-24 0 -37 13t-13 36q0 24 15 53t65 71z" />
    <glyph glyph-name="tilde" unicode="&#x2dc;" horiz-adv-x="500" 
d="M183 709q-32 0 -55 -27.5t-37 -78.5l51 -12q12 37 22 50t23 13q4 0 9.5 -2t11 -5.5t12 -8t13.5 -9.5l14 -10t14 -9.5t14.5 -8t15 -5.5t14.5 -2q32 0 55 27t36 78l-51 12q-11 -37 -21 -50t-23 -13q-5 0 -10 2t-11 5.5t-12 8t-13 9.5t-14 10.5t-14.5 10t-14.5 8t-14.5 5.5
t-14.5 2z" />
    <glyph glyph-name="hungarumlaut" unicode="&#x2dd;" horiz-adv-x="509" 
d="M225 718l-113 -128h71l126 128h-84zM391 718l-113 -128h72l125 128h-84z" />
    <glyph glyph-name="uni09F3" unicode="&#x9f3;" horiz-adv-x="607" 
d="M181 162v242h69v66h-69v143q0 38 -24.5 62.5t-67.5 24.5h-60v-70h42q16 0 25.5 -8t9.5 -24v-128h-77v-66h77v-254q0 -18 4 -35.5t11.5 -34t19 -30t27 -25t34 -19.5t40.5 -12.5t47 -4.5q27 0 53 4.5t50.5 13t46 21t40.5 28t35 33.5t28.5 39t21.5 43.5t13.5 47t4.5 50.5
q0 23 -3.5 45t-10.5 42t-17 38t-22.5 33.5t-27.5 27.5t-31.5 20.5t-35 13t-37.5 4.5q-25 0 -46 -7t-43 -19l29 -62q13 7 28 12.5t31 5.5q46 0 78.5 -45t32.5 -109q0 -20 -3.5 -38.5t-10 -36t-16 -33.5t-21.5 -30t-26 -25.5t-30 -20.5t-33.5 -15.5t-36.5 -10t-39 -3.5
q-51 0 -80.5 26.5t-29.5 79.5z" />
    <glyph glyph-name="Wgrave" unicode="&#x1e80;" horiz-adv-x="945" 
d="M509 700h-70l-184 -579l-143 579h-83l183 -700h76l185 579l184 -579h76l183 700h-79l-143 -579zM418 915h-92l128 -130h78z" />
    <glyph glyph-name="wgrave" unicode="&#x1e81;" horiz-adv-x="742" 
d="M339 527l-130 -409l-110 409h-79l148 -527h69l134 413l133 -413h69l148 527h-77l-110 -407l-130 407h-65zM315 742h-92l128 -130h78z" />
    <glyph glyph-name="Wacute" unicode="&#x1e82;" horiz-adv-x="945" 
d="M509 700h-70l-184 -579l-143 579h-83l183 -700h76l185 579l184 -579h76l183 700h-79l-143 -579zM526 915l-114 -130h77l129 130h-92z" />
    <glyph glyph-name="wacute" unicode="&#x1e83;" horiz-adv-x="742" 
d="M339 527l-130 -409l-110 409h-79l148 -527h69l134 413l133 -413h69l148 527h-77l-110 -407l-130 407h-65zM423 742l-114 -130h77l129 130h-92z" />
    <glyph glyph-name="Wdieresis" unicode="&#x1e84;" horiz-adv-x="945" 
d="M509 700h-70l-184 -579l-143 579h-83l183 -700h76l185 579l184 -579h76l183 700h-79l-143 -579zM386 798q20 0 35 15t15 36t-15 35.5t-35 14.5t-35 -14.5t-15 -35.5t15 -36t35 -15zM560 798q20 0 35 15t15 36t-15 35.5t-35 14.5t-35 -14.5t-15 -35.5t15 -36t35 -15z" />
    <glyph glyph-name="wdieresis" unicode="&#x1e85;" horiz-adv-x="742" 
d="M339 527l-130 -409l-110 409h-79l148 -527h69l134 413l133 -413h69l148 527h-77l-110 -407l-130 407h-65zM283 625q20 0 35 15t15 36t-15 35.5t-35 14.5t-35 -14.5t-15 -35.5t15 -36t35 -15zM457 625q20 0 35 15t15 36t-15 35.5t-35 14.5t-35 -14.5t-15 -35.5t15 -36
t35 -15z" />
    <glyph glyph-name="Ygrave" unicode="&#x1ef2;" horiz-adv-x="618" 
d="M349 0v289l268 411h-92l-214 -333l-216 333h-94l268 -408v-292h80zM254 915h-92l128 -130h78z" />
    <glyph glyph-name="ygrave" unicode="&#x1ef3;" horiz-adv-x="506" 
d="M178 -92q-10 -27 -27.5 -41.5t-45.5 -14.5h-56v-67h68q50 0 80 26t49 75l255 641h-80l-164 -421l-171 421h-81l212 -520zM200 742h-92l128 -130h78z" />
    <glyph glyph-name="uni2002" unicode="&#x2002;" horiz-adv-x="500" 
 />
    <glyph glyph-name="uni2003" unicode="&#x2003;" horiz-adv-x="1000" 
 />
    <glyph glyph-name="uni2009" unicode="&#x2009;" horiz-adv-x="175" 
 />
    <glyph glyph-name="uni200A" unicode="&#x200a;" horiz-adv-x="100" 
 />
    <glyph glyph-name="uni200B" unicode="&#x200b;" horiz-adv-x="0" 
 />
    <glyph glyph-name="endash" unicode="&#x2013;" horiz-adv-x="606" 
d="M66 264h474v69h-474v-69z" />
    <glyph glyph-name="emdash" unicode="&#x2014;" horiz-adv-x="806" 
d="M66 264h674v69h-674v-69z" />
    <glyph glyph-name="uni2015" unicode="&#x2015;" horiz-adv-x="1006" 
d="M66 264h874v69h-874v-69z" />
    <glyph glyph-name="quoteleft" unicode="&#x2018;" horiz-adv-x="219" 
d="M161 689v42q-57 -10 -89 -55.5t-32 -106.5q0 -39 16.5 -60t43.5 -21q19 0 33.5 14t14.5 34q0 8 -2 14t-5 11t-7 8.5t-8.5 7t-9.5 6.5t-9 6t-7 6t-5 7t-2 9q0 23 20 48t48 30z" />
    <glyph glyph-name="quoteright" unicode="&#x2019;" horiz-adv-x="219" 
d="M58 531v-42q57 10 89 55.5t32 106.5q0 39 -16.5 60t-43.5 21q-19 0 -33.5 -14t-14.5 -34q0 -8 2 -14t5 -11t7 -8.5t8.5 -7t9.5 -6.5t9 -6t7 -6t5 -7t2 -9q0 -23 -20 -48t-48 -30z" />
    <glyph glyph-name="quotesinglbase" unicode="&#x201a;" horiz-adv-x="219" 
d="M44 -109v-42q57 10 89 55.5t32 106.5q0 39 -16.5 60t-43.5 21q-19 0 -33.5 -14t-14.5 -34q0 -8 2 -14t5 -11t7 -8.5t8.5 -7t9.5 -6.5t9 -6t7 -6t5 -7t2 -9q0 -23 -20 -48t-48 -30z" />
    <glyph glyph-name="quotedblleft" unicode="&#x201c;" horiz-adv-x="389" 
d="M161 689v42q-57 -10 -89 -55.5t-32 -106.5q0 -39 16.5 -60t43.5 -21q19 0 33.5 14t14.5 34q0 8 -2 14t-5 11t-7 8.5t-8.5 7t-9.5 6.5t-9 6t-7 6t-5 7t-2 9q0 23 20 48t48 30zM331 689v42q-57 -10 -89 -55.5t-32 -106.5q0 -39 16.5 -60t43.5 -21q19 0 33.5 14t14.5 34
q0 8 -2 14t-5 11t-7 8.5t-9 7t-9.5 6.5t-8.5 6t-7 6t-5 7t-2 9q0 23 20 48t48 30z" />
    <glyph glyph-name="quotedblright" unicode="&#x201d;" horiz-adv-x="389" 
d="M228 531v-42q57 10 89 55.5t32 106.5q0 39 -16.5 60t-43.5 21q-19 0 -33.5 -14t-14.5 -34q0 -8 2 -14t5 -11t7 -8.5t8.5 -7t9.5 -6.5t9 -6t7 -6t5 -7t2 -9q0 -23 -20 -48t-48 -30zM58 531v-42q57 10 89 55.5t32 106.5q0 39 -16.5 60t-43.5 21q-19 0 -33.5 -14t-14.5 -34
q0 -8 2 -14t5 -11t7 -8.5t8.5 -7t9.5 -6.5t9 -6t7 -6t5 -7t2 -9q0 -23 -20 -48t-48 -30z" />
    <glyph glyph-name="quotedblbase" unicode="&#x201e;" horiz-adv-x="389" 
d="M214 -109v-42q57 10 89 55.5t32 106.5q0 39 -16.5 60t-43.5 21q-19 0 -33.5 -14t-14.5 -34q0 -8 2 -14t5 -11t7 -8.5t8.5 -7t9.5 -6.5t9 -6t7 -6t5 -7t2 -9q0 -23 -20 -48t-48 -30zM44 -109v-42q57 10 89 55.5t32 106.5q0 39 -16.5 60t-43.5 21q-19 0 -33.5 -14
t-14.5 -34q0 -8 2 -14t5 -11t7 -8.5t8.5 -7t9.5 -6.5t9 -6t7 -6t5 -7t2 -9q0 -23 -20 -48t-48 -30z" />
    <glyph glyph-name="dagger" unicode="&#x2020;" horiz-adv-x="397" 
d="M165 0h67v441h127v62h-127v197h-67v-197h-126v-62h126v-441z" />
    <glyph glyph-name="daggerdbl" unicode="&#x2021;" horiz-adv-x="397" 
d="M165 0h67v197h127v62h-127v182h127v62h-127v197h-67v-197h-126v-62h126v-182h-126v-62h126v-197z" />
    <glyph glyph-name="bullet" unicode="&#x2022;" horiz-adv-x="270" 
d="M136 413q-39 0 -67 -28t-28 -66q0 -40 28 -68t67 -28q38 0 65.5 28t27.5 68q0 38 -27.5 66t-65.5 28z" />
    <glyph glyph-name="ellipsis" unicode="&#x2026;" horiz-adv-x="637" 
d="M106 94q-21 0 -36 -15t-15 -37q0 -21 15 -36t36 -15t36 15t15 36q0 22 -15 37t-36 15zM318 94q-21 0 -36 -15t-15 -37q0 -21 15 -36t36 -15t36 15t15 36q0 22 -15 37t-36 15zM531 94q-21 0 -36 -15t-15 -37q0 -21 15 -36t36 -15t36 15t15 36q0 22 -15 37t-36 15z" />
    <glyph glyph-name="guilsinglleft" unicode="&#x2039;" horiz-adv-x="386" 
d="M355 527h-88l-246 -263l246 -264h92l-244 265z" />
    <glyph glyph-name="guilsinglright" unicode="&#x203a;" horiz-adv-x="386" 
d="M25 0h88l246 263l-246 264h-92l244 -265z" />
    <glyph glyph-name="fraction" unicode="&#x2044;" horiz-adv-x="561" 
d="M112 0l384 700h-66l-383 -700h65z" />
    <glyph glyph-name="uni2070" unicode="&#x2070;" horiz-adv-x="359" 
d="M38 458q0 -68 39 -109t102 -41t102.5 41t39.5 109v100q0 68 -39.5 108.5t-102.5 40.5t-102 -40.5t-39 -108.5v-100zM262 460q0 -47 -22.5 -73t-60.5 -26t-60 26t-22 73v96q0 46 22 72.5t60 26.5t60.5 -26.5t22.5 -72.5v-96z" />
    <glyph glyph-name="uni2074" unicode="&#x2074;" horiz-adv-x="345" 
d="M211 315h60v97h48v51h-48v237h-77l-171 -243v-45h188v-97zM87 463l124 180v-180h-124z" />
    <glyph glyph-name="uni2075" unicode="&#x2075;" horiz-adv-x="327" 
d="M171 560q-22 0 -40 -6.5t-34 -21.5l4 116h166v52h-217l-9 -209l49 -8q14 13 30 20t37 7q35 0 56 -21.5t21 -52.5q0 -32 -22 -54.5t-56 -22.5q-28 0 -48.5 14t-32.5 39l-49 -27q17 -35 51.5 -56t82.5 -21q58 0 95.5 38.5t37.5 92.5q0 51 -34 86t-88 35z" />
    <glyph glyph-name="uni2076" unicode="&#x2076;" horiz-adv-x="346" 
d="M184 655q23 0 43.5 -11.5t33.5 -33.5l41 33q-19 30 -49 46.5t-70 16.5q-67 0 -106.5 -49t-39.5 -138v-30q0 -81 39.5 -130.5t105.5 -49.5q55 0 92 38t37 97q0 50 -34.5 86.5t-85.5 36.5q-30 0 -57 -16.5t-39 -50.5v21q0 68 25.5 101t63.5 33zM179 360q-33 0 -54.5 22.5
t-21.5 56.5t22 56t54 22q33 0 54.5 -22t21.5 -56t-21.5 -56.5t-54.5 -22.5z" />
    <glyph glyph-name="uni2077" unicode="&#x2077;" horiz-adv-x="315" 
d="M292 655v45h-268v-52h202l-176 -333h69z" />
    <glyph glyph-name="uni2078" unicode="&#x2078;" horiz-adv-x="341" 
d="M171 308q57 0 95 32t38 81q0 34 -20.5 59t-54.5 34q28 10 45.5 33t17.5 53q0 45 -34.5 75.5t-86.5 30.5t-87 -30.5t-35 -75.5q0 -30 17.5 -53t45.5 -33q-34 -9 -55 -34t-21 -59q0 -49 38.5 -81t96.5 -32zM171 536q-28 0 -46 17t-18 43t18 42.5t46 16.5t45.5 -16.5
t17.5 -42.5t-18 -43t-45 -17zM171 488q31 0 52.5 -18.5t21.5 -46.5t-21 -46.5t-53 -18.5t-53.5 18.5t-21.5 46.5t21.5 46.5t53.5 18.5z" />
    <glyph glyph-name="uni2079" unicode="&#x2079;" horiz-adv-x="346" 
d="M164 360q-23 0 -42.5 12.5t-32.5 35.5l-48 -27q19 -34 50 -53t74 -19q65 0 104 49t39 138v30q0 81 -39.5 130.5t-104.5 49.5q-55 0 -92.5 -38t-37.5 -97q0 -50 35 -86.5t86 -36.5q29 0 56 16.5t39 50.5v-21q0 -67 -24.5 -100.5t-61.5 -33.5zM167 655q32 0 53.5 -22.5
t21.5 -56.5t-22 -56t-53 -22q-33 0 -55 22t-22 56t22 56.5t55 22.5z" />
    <glyph glyph-name="uni2080" unicode="&#x2080;" horiz-adv-x="359" 
d="M38 143q0 -68 39 -109t102 -41t102.5 41t39.5 109v100q0 68 -39.5 108.5t-102.5 40.5t-102 -40.5t-39 -108.5v-100zM262 145q0 -47 -22.5 -73t-60.5 -26t-60 26t-22 73v96q0 46 22 72.5t60 26.5t60.5 -26.5t22.5 -72.5v-96z" />
    <glyph glyph-name="uni2081" unicode="&#x2081;" horiz-adv-x="274" 
d="M248 52h-80v333h-131v-52h71v-281h-80v-52h220v52z" />
    <glyph glyph-name="uni2082" unicode="&#x2082;" horiz-adv-x="309" 
d="M274 278q0 48 -34.5 80.5t-90.5 32.5q-44 0 -77 -20.5t-52 -57.5l47 -26q13 25 33.5 39t46.5 14q29 0 48.5 -18.5t19.5 -47.5q0 -23 -11 -42t-33 -43l-139 -150v-39h247v52l-164 -1l101 108q31 34 45 61t13 58z" />
    <glyph glyph-name="uni2083" unicode="&#x2083;" horiz-adv-x="325" 
d="M156 391q-46 0 -80 -21t-50 -55l49 -25q11 23 31 36.5t45 13.5q29 0 48.5 -17t19.5 -44q0 -25 -17 -41.5t-42 -16.5h-47v-49h52q29 0 47 -18t18 -44q0 -28 -20 -47t-53 -19q-29 0 -51.5 14t-34.5 38l-50 -26q18 -35 53 -56t84 -21q58 0 95.5 33t37.5 81q0 33 -20 59
t-51 36q26 10 42 32.5t16 50.5q0 45 -35 75t-87 31z" />
    <glyph glyph-name="uni2084" unicode="&#x2084;" horiz-adv-x="345" 
d="M211 0h60v97h48v51h-48v237h-77l-171 -243v-45h188v-97zM87 148l124 180v-180h-124z" />
    <glyph glyph-name="uni2085" unicode="&#x2085;" horiz-adv-x="327" 
d="M171 245q-22 0 -40 -6.5t-34 -21.5l4 116h166v52h-217l-9 -209l49 -8q14 13 30 20t37 7q35 0 56 -21.5t21 -52.5q0 -32 -22 -54.5t-56 -22.5q-28 0 -48.5 14t-32.5 39l-49 -27q17 -35 51.5 -56t82.5 -21q58 0 95.5 38.5t37.5 92.5q0 51 -34 86t-88 35z" />
    <glyph glyph-name="uni2086" unicode="&#x2086;" horiz-adv-x="346" 
d="M184 340q23 0 43.5 -11.5t33.5 -33.5l41 33q-19 30 -49 46.5t-70 16.5q-67 0 -106.5 -49t-39.5 -138v-30q0 -81 39.5 -130.5t105.5 -49.5q55 0 92 38t37 97q0 50 -34.5 86.5t-85.5 36.5q-30 0 -57 -16.5t-39 -50.5v21q0 68 25.5 101t63.5 33zM179 45q-33 0 -54.5 22.5
t-21.5 56.5t22 56t54 22q33 0 54.5 -22t21.5 -56t-21.5 -56.5t-54.5 -22.5z" />
    <glyph glyph-name="uni2087" unicode="&#x2087;" horiz-adv-x="315" 
d="M292 340v45h-268v-52h202l-176 -333h69z" />
    <glyph glyph-name="uni2088" unicode="&#x2088;" horiz-adv-x="341" 
d="M171 -7q57 0 95 32t38 81q0 34 -20.5 59t-54.5 34q28 10 45.5 33t17.5 53q0 45 -34.5 75.5t-86.5 30.5t-87 -30.5t-35 -75.5q0 -30 17.5 -53t45.5 -33q-34 -9 -55 -34t-21 -59q0 -49 38.5 -81t96.5 -32zM171 221q-28 0 -46 17t-18 43t18 42.5t46 16.5t45.5 -16.5
t17.5 -42.5t-18 -43t-45 -17zM171 173q31 0 52.5 -18.5t21.5 -46.5t-21 -46.5t-53 -18.5t-53.5 18.5t-21.5 46.5t21.5 46.5t53.5 18.5z" />
    <glyph glyph-name="uni2089" unicode="&#x2089;" horiz-adv-x="346" 
d="M164 45q-23 0 -42.5 12.5t-32.5 35.5l-48 -27q19 -34 50 -53t74 -19q65 0 104 49t39 138v30q0 81 -39.5 130.5t-104.5 49.5q-55 0 -92.5 -38t-37.5 -97q0 -50 35 -86.5t86 -36.5q29 0 56 16.5t39 50.5v-21q0 -67 -24.5 -100.5t-61.5 -33.5zM167 340q32 0 53.5 -22.5
t21.5 -56.5t-22 -56t-53 -22q-33 0 -55 22t-22 56t22 56.5t55 22.5z" />
    <glyph glyph-name="uni20A9" unicode="&#x20a9;" horiz-adv-x="964" 
d="M24 311v-57h128l67 -254h74l81 254h215l82 -254h74l67 254h128v57h-113l21 80h92v57h-77l67 252h-81l-61 -252h-190l-81 252h-67l-81 -252h-190l-61 252h-85l67 -252h-76v-57h91l21 -80h-112zM436 448l46 142l45 -142h-91zM212 311l-19 80h157l-25 -80h-113zM392 311
l26 80h127l26 -80h-179zM642 311l-25 80h157l-20 -80h-112zM226 254h80l-46 -143zM661 254h80l-35 -141z" />
    <glyph glyph-name="Euro" unicode="&#x20ac;" horiz-adv-x="705" 
d="M382 311h-203v80h231l21 57h-247q14 92 69.5 141t130.5 49q72 0 124 -44t71 -126h78q-20 114 -94.5 178.5t-176.5 64.5q-28 0 -53.5 -4.5t-49.5 -13.5t-45.5 -22t-40.5 -30t-34.5 -37.5t-27.5 -45t-20.5 -52t-12.5 -58.5h-91v-57h87v-80h-87v-57h90q4 -31 12.5 -59
t20.5 -52.5t28 -45.5t34.5 -38t40.5 -30t46 -22t49.5 -13.5t53.5 -4.5q29 0 56 5.5t52 16t47 26t40.5 35.5t33.5 45t25.5 53.5t16.5 61.5h-78q-19 -82 -71 -126t-124 -44q-75 0 -131 49.5t-70 142.5h179z" />
    <glyph glyph-name="uni20B9" unicode="&#x20b9;" horiz-adv-x="569" 
d="M484 0l-330 293h75q81 0 138.5 47.5t69.5 119.5h93v64h-92q-5 33 -20.5 61.5t-39.5 50.5h152v64h-488v-64h182q54 0 91 -32t47 -80h-320v-64h319q-10 -46 -47.5 -76t-89.5 -30h-182v-49l345 -305h97z" />
    <glyph glyph-name="trademark" unicode="&#x2122;" horiz-adv-x="663" 
d="M318 700v-279h47l-1 205l82 -205h35l83 205l-2 -205h48v279h-62l-83 -211l-85 211h-62zM27 700v-42h96v-237h50v237h97v42h-243z" />
    <glyph glyph-name="uni2190" unicode="&#x2190;" horiz-adv-x="1001" 
d="M103 350l273 -375h86l-247 338h707v74h-707l247 338h-86z" />
    <glyph glyph-name="uni2191" unicode="&#x2191;" horiz-adv-x="1000" 
d="M500 736l-375 -273v-87l338 248v-707h74v707l338 -248v87z" />
    <glyph glyph-name="uni2192" unicode="&#x2192;" horiz-adv-x="1001" 
d="M539 725l248 -339h-708v-72h708l-248 -339h84l274 375l-274 375h-84z" />
    <glyph glyph-name="uni2193" unicode="&#x2193;" horiz-adv-x="1000" 
d="M875 240l-339 -248v708h-72v-708l-339 248v-84l375 -274l375 274v84z" />
    <glyph glyph-name="minus" unicode="&#x2212;" horiz-adv-x="549" 
d="M483 392h-417v-62h417v62z" />
    <glyph glyph-name="approxequal" unicode="&#x2248;" horiz-adv-x="547" 
d="M164 435q12 0 24 -2t24 -5t24 -7t24 -8.5l24 -9t24 -8.5t23.5 -7t23.5 -5t24 -2q26 0 50 7t53 25v61q-28 -17 -50 -26t-47 -9q-12 0 -24 2t-24.5 5t-24.5 7t-24 8.5t-24 9.5t-24 9t-24 7t-24 5t-24 2q-25 0 -49.5 -7.5t-53.5 -25.5v-60q28 17 51 25.5t48 8.5zM164 275
q12 0 24 -2t24 -5t24 -7t24 -8.5t24 -9.5t24 -9t23.5 -7t23.5 -5t24 -2q26 0 50 7t53 26v61q-28 -17 -50 -26.5t-47 -9.5q-12 0 -24 2t-24.5 5t-24.5 7.5l-24 9l-24 9l-24 9t-24 7.5t-24 5t-24 2q-25 0 -49.5 -8t-53.5 -25v-61q28 17 51 26t48 9z" />
    <glyph glyph-name="notequal" unicode="&#x2260;" horiz-adv-x="553" 
d="M67 132h73l89 115h256v59h-211l78 100h133v59h-88l90 116h-73l-90 -116h-256v-59h211l-78 -100h-133v-59h88z" />
    <glyph glyph-name="lessequal" unicode="&#x2264;" horiz-adv-x="538" 
d="M456 512v71l-402 -184v-64l402 -184v73l-324 143zM54 247v-70l402 -184v70z" />
    <glyph glyph-name="greaterequal" unicode="&#x2265;" horiz-adv-x="538" 
d="M71 511l324 -145l-324 -143v-72l402 184v64l-402 184v-72zM473 247l-402 -184v-70l402 184v70z" />
    <glyph glyph-name="uni25A0" unicode="&#x25a0;" horiz-adv-x="850" 
d="M775 700h-700v-700h700v700z" />
    <glyph glyph-name="uni25CF" unicode="&#x25cf;" horiz-adv-x="819" 
d="M769 351q0 30 -4.5 58t-13.5 55t-22 51.5t-29.5 47t-36 42t-42 36t-47 29.5t-51.5 22t-55 13.5t-58 4.5t-58.5 -4.5t-55 -13.5t-51.5 -22t-47.5 -29.5t-42 -36t-36 -42t-29.5 -47t-22 -51.5t-13.5 -55t-4.5 -58t4.5 -58.5t13.5 -55t22 -51.5t29.5 -47.5t36 -42t42 -36
t47.5 -29.5t51.5 -22t55 -13.5t58.5 -4.5t58 4.5t55 13.5t51.5 22t47 29.5t42 36t36 42t29.5 47.5t22 51.5t13.5 55t4.5 58.5z" />
    <glyph glyph-name="check" unicode="&#x2713;" horiz-adv-x="1002" 
d="M918 636l-542 -541l-292 291v-103l292 -291l542 541v103z" />
    <glyph glyph-name="close" unicode="&#x2715;" horiz-adv-x="1002" 
d="M862 659l-52 52l-308 -309l-307 309l-52 -52l308 -307l-308 -307l52 -53l307 309l308 -309l52 53l-309 307z" />
    <glyph glyph-name="fi" unicode="&#xfb01;" horiz-adv-x="621" 
d="M33 459h108v-459h76v459h241v-459h77v527h-318v99q0 25 12 38.5t34 13.5h212v68h-223q-52 0 -81.5 -30t-29.5 -79v-110h-108v-68z" />
    <glyph glyph-name="fl" unicode="&#xfb02;" horiz-adv-x="622" 
d="M33 459h108v-459h76v459h137v68h-137v99q0 25 12 38.5t34 13.5h195v-678h77v746h-283q-52 0 -81.5 -30t-29.5 -79v-110h-108v-68z" />
    <glyph glyph-name="Uber" horiz-adv-x="2119" 
d="M154 268v432h-105v-438q0 -31 5 -59t15 -53.5t24 -47t32 -39.5t39 -32t45 -23.5t50.5 -14.5t54.5 -5q54 0 102 20t83 57v-65h104v700h-105v-432q0 -83 -50 -134.5t-122 -51.5q-73 0 -122.5 51t-49.5 135zM681 0h100v64q34 -35 81.5 -55.5t100.5 -20.5q25 0 48.5 4.5
t45.5 12.5t42 19.5t37.5 26t32 32t26 37t20 41.5t12.5 45.5t4 47.5q0 25 -4 48.5t-12.5 45t-20 41.5t-26 37.5t-32 32t-37.5 26t-42 19.5t-45.5 12.5t-48.5 4.5q-53 0 -100 -20.5t-81 -55.5v255h-101v-700zM780 254q0 19 3.5 36t10.5 33t16.5 30.5t21.5 26.5t26 21.5
t29.5 16t33 10t35.5 3.5t35 -3.5t33 -10t30 -16t25.5 -21.5t21 -26.5t16.5 -30.5t10.5 -33t3.5 -36q0 -18 -3.5 -35.5t-10.5 -33.5t-16.5 -30t-21 -26t-25.5 -21.5t-30 -16.5t-33 -10.5t-35 -3.5t-35.5 3.5t-33.5 10.5t-30 16.5t-26 21.5t-21.5 26t-16 30t-10 33.5
t-3.5 35.5zM1271 255q0 -25 4 -49t12.5 -46t20 -41.5t26 -37t32.5 -32t38 -25.5t42 -19t46 -12t50 -4q69 0 125.5 29t94.5 80l-73 54q-28 -38 -65.5 -56.5t-81.5 -18.5q-64 0 -111.5 41.5t-57.5 103.5h415v33q0 25 -4 49t-11.5 46t-18 41.5t-24.5 36.5t-30.5 31.5t-35 25.5
t-40 19t-44 12t-47.5 4t-48.5 -4.5t-45 -12.5t-41 -19.5t-36.5 -26.5t-31 -32.5t-25 -37t-19 -41t-12 -44.5t-4 -47zM1531 432q56 0 99 -36t56 -94h-311q13 58 56.5 94t99.5 36zM2101 420v94h-35q-42 0 -72.5 -18t-49.5 -49v63h-100v-510h101v290q0 59 32.5 94.5t81.5 35.5
h42z" />
    <glyph glyph-name="idotaccent" horiz-adv-x="253" 
d="M127 630q20 0 35 15.5t15 35.5q0 22 -15 37t-35 15q-21 0 -36.5 -15t-15.5 -37q0 -20 15.5 -35.5t36.5 -15.5zM165 527h-77v-527h77v527z" />
    <glyph glyph-name="cordinal" horiz-adv-x="392" 
d="M206 325q58 0 100.5 35t53.5 94h-66q-8 -33 -31 -52t-57 -19q-44 0 -70 31t-26 82v42q0 51 26 82.5t70 31.5q33 0 56 -19.5t32 -53.5h66q-11 60 -52.5 95t-101.5 35q-70 0 -115.5 -46t-45.5 -122v-48q0 -76 45.5 -122t115.5 -46z" />
    <glyph glyph-name="a.school" horiz-adv-x="606" 
d="M520 0v527h-77v-92q-25 47 -70 74t-102 27q-90 0 -149.5 -64.5t-59.5 -168.5v-79q0 -26 4 -50t11.5 -45.5t18.5 -40t25.5 -34t31 -27.5t35.5 -20t39.5 -12.5t43.5 -4.5q57 0 102 27.5t70 76.5v-94h77zM443 296v-65q0 -78 -42 -125.5t-111 -47.5t-110.5 47.5t-41.5 125.5
v65q0 77 41.5 124.5t110.5 47.5t111 -47.5t42 -124.5z" />
    <glyph glyph-name="aacute.school" horiz-adv-x="606" 
d="M520 0v527h-77v-92q-25 47 -70 74t-102 27q-90 0 -149.5 -64.5t-59.5 -168.5v-79q0 -26 4 -50t11.5 -45.5t18.5 -40t25.5 -34t31 -27.5t35.5 -20t39.5 -12.5t43.5 -4.5q57 0 102 27.5t70 76.5v-94h77zM443 296v-65q0 -78 -42 -125.5t-111 -47.5t-110.5 47.5t-41.5 125.5
v65q0 77 41.5 124.5t110.5 47.5t111 -47.5t42 -124.5zM346 741l-114 -130h77l129 130h-92z" />
    <glyph glyph-name="abreve.school" horiz-adv-x="606" 
d="M520 0v527h-77v-92q-25 47 -70 74t-102 27q-90 0 -149.5 -64.5t-59.5 -168.5v-79q0 -26 4 -50t11.5 -45.5t18.5 -40t25.5 -34t31 -27.5t35.5 -20t39.5 -12.5t43.5 -4.5q57 0 102 27.5t70 76.5v-94h77zM443 296v-65q0 -78 -42 -125.5t-111 -47.5t-110.5 47.5t-41.5 125.5
v65q0 77 41.5 124.5t110.5 47.5t111 -47.5t42 -124.5zM292 667q-26 0 -50.5 14.5t-37.5 60.5l-55 -17q13 -54 53.5 -83.5t89.5 -29.5t89.5 29.5t53.5 83.5l-55 17q-12 -46 -37.5 -60.5t-50.5 -14.5z" />
    <glyph glyph-name="acircumflex.school" horiz-adv-x="606" 
d="M520 0v527h-77v-92q-25 47 -70 74t-102 27q-90 0 -149.5 -64.5t-59.5 -168.5v-79q0 -26 4 -50t11.5 -45.5t18.5 -40t25.5 -34t31 -27.5t35.5 -20t39.5 -12.5t43.5 -4.5q57 0 102 27.5t70 76.5v-94h77zM443 296v-65q0 -78 -42 -125.5t-111 -47.5t-110.5 47.5t-41.5 125.5
v65q0 77 41.5 124.5t110.5 47.5t111 -47.5t42 -124.5zM216 612l77 84l77 -84h71l-109 130h-78l-109 -130h71z" />
    <glyph glyph-name="adieresis.school" horiz-adv-x="606" 
d="M520 0v527h-77v-92q-25 47 -70 74t-102 27q-90 0 -149.5 -64.5t-59.5 -168.5v-79q0 -26 4 -50t11.5 -45.5t18.5 -40t25.5 -34t31 -27.5t35.5 -20t39.5 -12.5t43.5 -4.5q57 0 102 27.5t70 76.5v-94h77zM443 296v-65q0 -78 -42 -125.5t-111 -47.5t-110.5 47.5t-41.5 125.5
v65q0 77 41.5 124.5t110.5 47.5t111 -47.5t42 -124.5zM206 624q20 0 35 15t15 36t-15 35.5t-35 14.5t-35 -14.5t-15 -35.5t15 -36t35 -15zM380 624q20 0 35 15t15 36t-15 35.5t-35 14.5t-35 -14.5t-15 -35.5t15 -36t35 -15z" />
    <glyph glyph-name="agrave.school" horiz-adv-x="606" 
d="M520 0v527h-77v-92q-25 47 -70 74t-102 27q-90 0 -149.5 -64.5t-59.5 -168.5v-79q0 -26 4 -50t11.5 -45.5t18.5 -40t25.5 -34t31 -27.5t35.5 -20t39.5 -12.5t43.5 -4.5q57 0 102 27.5t70 76.5v-94h77zM443 296v-65q0 -78 -42 -125.5t-111 -47.5t-110.5 47.5t-41.5 125.5
v65q0 77 41.5 124.5t110.5 47.5t111 -47.5t42 -124.5zM237 741h-92l128 -130h78z" />
    <glyph glyph-name="amacron.school" horiz-adv-x="606" 
d="M520 0v527h-77v-92q-25 47 -70 74t-102 27q-90 0 -149.5 -64.5t-59.5 -168.5v-79q0 -26 4 -50t11.5 -45.5t18.5 -40t25.5 -34t31 -27.5t35.5 -20t39.5 -12.5t43.5 -4.5q57 0 102 27.5t70 76.5v-94h77zM443 296v-65q0 -78 -42 -125.5t-111 -47.5t-110.5 47.5t-41.5 125.5
v65q0 77 41.5 124.5t110.5 47.5t111 -47.5t42 -124.5zM416 695h-248v-55h248v55z" />
    <glyph glyph-name="aogonek.school" horiz-adv-x="606" 
d="M520 0v527h-77v-92q-25 47 -70 74t-102 27q-90 0 -149.5 -64.5t-59.5 -168.5v-79q0 -26 4 -50t11.5 -45.5t18.5 -40t25.5 -34t31 -27.5t35.5 -20t39.5 -12.5t43.5 -4.5q57 0 102 27.5t70 76.5v-94h20q-46 -41 -61.5 -73t-15.5 -63q0 -37 24 -61t72 -24q14 0 27.5 2
t24.5 6l-8 45q-8 -3 -17.5 -4t-18.5 -1q-24 0 -37 13t-13 36q0 24 15 53t65 71zM443 296v-65q0 -78 -42 -125.5t-111 -47.5t-110.5 47.5t-41.5 125.5v65q0 77 41.5 124.5t110.5 47.5t111 -47.5t42 -124.5z" />
    <glyph glyph-name="aring.school" horiz-adv-x="606" 
d="M520 0v527h-77v-92q-25 47 -70 74t-102 27q-90 0 -149.5 -64.5t-59.5 -168.5v-79q0 -26 4 -50t11.5 -45.5t18.5 -40t25.5 -34t31 -27.5t35.5 -20t39.5 -12.5t43.5 -4.5q57 0 102 27.5t70 76.5v-94h77zM443 296v-65q0 -78 -42 -125.5t-111 -47.5t-110.5 47.5t-41.5 125.5
v65q0 77 41.5 124.5t110.5 47.5t111 -47.5t42 -124.5zM292 594q43 0 74 30t31 72t-31 72t-74 30t-74 -30t-31 -72t31 -72t74 -30zM292 635q-26 0 -44 18t-18 43t18 43t44 18t44 -18t18 -43t-18 -43t-44 -18z" />
    <glyph glyph-name="atilde.school" horiz-adv-x="606" 
d="M520 0v527h-77v-92q-25 47 -70 74t-102 27q-90 0 -149.5 -64.5t-59.5 -168.5v-79q0 -26 4 -50t11.5 -45.5t18.5 -40t25.5 -34t31 -27.5t35.5 -20t39.5 -12.5t43.5 -4.5q57 0 102 27.5t70 76.5v-94h77zM443 296v-65q0 -78 -42 -125.5t-111 -47.5t-110.5 47.5t-41.5 125.5
v65q0 77 41.5 124.5t110.5 47.5t111 -47.5t42 -124.5zM231 733q-32 0 -55 -27.5t-37 -78.5l51 -12q12 37 22 50t23 13q4 0 9.5 -2t11 -5.5t12 -8t13.5 -9.5l14 -10t14 -9.5t14.5 -8t15 -5.5t14.5 -2q32 0 55 27t36 78l-51 12q-11 -37 -21 -50t-23 -13q-5 0 -10 2t-11 5.5
t-12 8t-13 9.5t-14 10.5t-14.5 10t-14.5 8t-14.5 5.5t-14.5 2z" />
    <glyph glyph-name="caronSlovak" horiz-adv-x="167" 
d="M29 495h60l38 205h-79z" />
    <glyph glyph-name="uni00200326" horiz-adv-x="210" 
d="M51 -222v-34q46 5 72.5 38.5t26.5 75.5q0 32 -14.5 50.5t-36.5 18.5q-16 0 -29 -12.5t-13 -29.5q0 -7 1.5 -12t4 -9t6 -7t7.5 -6t8 -5t7.5 -4.5t6 -4.5t4 -5t1.5 -6q0 -15 -15 -30t-37 -18z" />
    <glyph glyph-name="colon.alt" horiz-adv-x="212" 
d="M106 219q-21 0 -36 -15t-15 -37q0 -21 15 -36t36 -15t36 15t15 36q0 22 -15 37t-36 15zM106 551q-21 0 -36 -15t-15 -37q0 -21 15 -36t36 -15t36 15t15 36q0 22 -15 37t-36 15z" />
    <glyph glyph-name="reversequoteleft" horiz-adv-x="219" 
d="M161 544q-26 4 -47.5 29t-21.5 50q0 5 2 8.5t5 7t7.5 6t9 5.5t9 6.5l9 7t7.5 8.5t5 11t2 14q0 19 -14.5 33.5t-33.5 14.5q-28 0 -44 -22t-16 -59q0 -64 33.5 -109.5t87.5 -52.5v42z" />
    <glyph glyph-name="reversequotedblleft" horiz-adv-x="385" 
d="M161 544q-26 4 -47.5 29t-21.5 50q0 5 2 8.5t5 7t7.5 6t9 5.5t9 6.5l9 7t7.5 8.5t5 11t2 14q0 19 -14.5 33.5t-33.5 14.5q-28 0 -44 -22t-16 -59q0 -64 33.5 -109.5t87.5 -52.5v42zM327 544q-26 4 -47.5 29t-21.5 50q0 5 2 8.5t5 7t7.5 6t9 5.5t9 6.5l9 7t7.5 8.5t5 11
t2 14q0 19 -14.5 33.5t-33.5 14.5q-28 0 -44 -22t-16 -59q0 -64 33.5 -109.5t87.5 -52.5v42z" />
    <glyph glyph-name="at.cap" horiz-adv-x="837" 
d="M404 170q40 0 74.5 17.5t56.5 47.5q13 -27 39.5 -41t61.5 -14q14 0 27.5 3t26.5 9.5t24.5 16t21.5 21.5t18 27t14 32.5t9 37.5t3 42q0 33 -5.5 63.5t-16 59t-26 54t-35 47.5t-42.5 40.5t-50 33t-56.5 24.5t-62 15t-67.5 5q-30 0 -59 -4.5t-56 -13.5t-52 -22t-47.5 -29.5
t-42 -36t-36 -42t-29.5 -47.5t-22 -52t-13.5 -56t-4.5 -59t4.5 -58.5t13.5 -55.5t22 -52t29 -47t36 -42t42 -36t47 -29t52 -22t55.5 -13.5t58.5 -4.5q70 0 132.5 22t111.5 62l-36 38q-41 -34 -95.5 -53t-114.5 -19q-25 0 -49.5 4t-47 11.5t-43.5 18.5t-40 25t-35.5 31
t-30 36t-24.5 40.5t-18.5 45t-11.5 48t-4 50.5t4 51t11.5 48.5t18.5 45t24.5 40.5t30 36t35.5 31t40.5 25.5t44 19t47 11.5t50.5 4q30 0 58 -4.5t53.5 -13t48 -20.5t42.5 -28t36.5 -35t29.5 -40.5t22 -46t13.5 -51t4.5 -55.5q0 -58 -23.5 -96.5t-60.5 -38.5
q-28 0 -42.5 16.5t-14.5 39.5v222h-63v-42q-22 22 -52.5 35.5t-64.5 13.5q-72 0 -123 -50.5t-51 -122.5q0 -18 3.5 -35t10 -32.5t16 -29.5t21 -26t25.5 -21.5t30 -16t33 -10t35 -3.5zM408 227q-47 0 -80.5 34t-33.5 83q0 48 33.5 82t80.5 34t80.5 -34t33.5 -82t-33.5 -82.5
t-80.5 -34.5z" />
    <glyph glyph-name="dollar.alt" horiz-adv-x="549" 
d="M305 -64v80q90 4 143 54t53 127q0 66 -40.5 108t-119.5 66l-112 34q-53 16 -79.5 42t-26.5 65q0 49 37 79.5t94 30.5q68 0 111 -36.5t53 -102.5h75q-9 79 -59.5 132t-128.5 67v80h-62v-76q-84 -3 -139.5 -52t-55.5 -127q0 -63 39.5 -106.5t117.5 -66.5l108 -32
q57 -18 84.5 -45t27.5 -68q0 -49 -35.5 -79.5t-100.5 -30.5q-71 0 -116.5 37.5t-55.5 102.5h-76q9 -81 64 -134t138 -65v-84h62z" />
    <glyph glyph-name="NTD" horiz-adv-x="1767" 
d="M1538 -59v73q85 4 135 50t50 118q0 59 -38 97.5t-112 60.5l-35 10v214q43 -10 70.5 -41.5t34.5 -79.5h70q-9 73 -56 121.5t-119 61.5v74h-58v-71q-78 -3 -130 -48t-52 -117q0 -57 37.5 -97t109.5 -62l35 -10v-217q-47 10 -77.5 42t-38.5 81h-69q8 -75 58.5 -123.5
t126.5 -60.5v-76h58zM162 0l-1 539l363 -539h79v642h-69v-538l-360 538h-82v-642h70zM714 577h224v-577h73v577h225v65h-522v-65zM1467 369q-50 15 -75 39t-25 62q0 41 32 68.5t81 30.5v-204zM1547 278q54 -15 80 -40.5t26 -63.5q0 -43 -30.5 -70t-84.5 -30v207z" />
    <glyph glyph-name=".ttfautohint" horiz-adv-x="850" 
d="M0 0z" />
    </font>
</defs>
</svg>
