<?xml version="1.0" standalone="no"?>
<!DOCTYPE svg PUBLIC "-//W3C//DTD SVG 1.1//EN" "http://www.w3.org/Graphics/SVG/1.1/DTD/svg11.dtd" >
<svg xmlns="http://www.w3.org/2000/svg" xmlns:xlink="http://www.w3.org/1999/xlink" version="1.1">
<metadata>
Created by FontForge 20201107 at Tue Mar 22 23:55:25 2022
 By 
(c) 2018 Uber Technologies, Inc. All rights reserved.
</metadata>
<defs>
<font id="UberMoveText-Medium" horiz-adv-x="614" >
  <font-face 
    font-family="Uber Move Text Medium"
    font-weight="500"
    font-stretch="normal"
    units-per-em="1000"
    panose-1="2 1 6 3 3 2 1 6 3 3"
    ascent="800"
    descent="-200"
    x-height="529"
    cap-height="700"
    bbox="-85 -276 2101 976"
    underline-thickness="50"
    underline-position="-125"
    unicode-range="U+000D-FB02"
  />
<missing-glyph horiz-adv-x="514" 
d="M60 -100h394v850h-394v-850z" />
    <glyph glyph-name=".notdef" horiz-adv-x="514" 
d="M60 -100h394v850h-394v-850z" />
    <glyph glyph-name="uni0000" horiz-adv-x="220" 
 />
    <glyph glyph-name="uni0000" horiz-adv-x="220" 
 />
    <glyph glyph-name="uni000D" unicode="&#xd;" horiz-adv-x="220" 
 />
    <glyph glyph-name="space" unicode=" " horiz-adv-x="220" 
 />
    <glyph glyph-name="exclam" unicode="!" horiz-adv-x="225" 
d="M159 194l7 536h-106l7 -536h92zM113 115q-25 0 -43.5 -18.5t-18.5 -43.5q0 -26 18.5 -44t43.5 -18t43.5 18t18.5 44q0 25 -18.5 43.5t-43.5 18.5z" />
    <glyph glyph-name="quotedbl" unicode="&#x22;" horiz-adv-x="358" 
d="M60 491h84l7 241h-99zM215 491h84l7 241h-99z" />
    <glyph glyph-name="numbersign" unicode="#" horiz-adv-x="668" 
d="M65 0h95l59 207h148l-59 -207h96l59 207h134v78h-112l38 130h124v78h-102l59 207h-96l-59 -207h-148l59 207h-95l-59 -207h-135v-78h113l-38 -130h-125v-78h103zM241 285l38 130h148l-38 -130h-148z" />
    <glyph glyph-name="dollar" unicode="$" horiz-adv-x="579" 
d="M328 -64v78q96 5 151.5 58t55.5 129q0 70 -42 114.5t-129 67.5l-36 10v198q37 -12 61.5 -40.5t31.5 -70.5h103q-10 79 -62.5 133.5t-133.5 69.5v80h-78v-76q-87 -5 -145 -56t-58 -130q0 -69 42.5 -114t126.5 -68l34 -9v-202q-43 12 -69.5 41.5t-32.5 73.5h-103
q7 -81 63 -136t142 -69v-82h78zM245 412q-46 13 -70.5 36t-24.5 58q0 39 28 63.5t72 28.5v-187zM334 291q48 -13 73 -38t25 -60q0 -37 -26.5 -62t-77.5 -29v191z" />
    <glyph glyph-name="percent" unicode="%" horiz-adv-x="877" 
d="M211 362q72 0 122.5 51.5t50.5 124.5q0 17 -3.5 33.5t-10 32t-15.5 29.5t-21 25.5t-25.5 21t-29.5 16.5t-33 10.5t-35 3.5q-19 0 -36 -3.5t-33 -10.5t-29.5 -16.5t-25.5 -21t-21 -25.5t-15.5 -29.5t-10 -32t-3.5 -33.5q0 -73 50.5 -124.5t123.5 -51.5zM290 0l380 700h-84
l-380 -700h84zM211 434q-42 0 -71.5 31t-29.5 74q0 40 30 70t71 30q40 0 70 -30t30 -70q0 -43 -29.5 -74t-70.5 -31zM665 338q-18 0 -34.5 -3.5t-32 -10t-29.5 -16t-25.5 -21.5t-21 -26t-16 -30t-10 -33.5t-3.5 -35.5q0 -17 3.5 -33.5t10 -32t15.5 -29.5t20.5 -25.5
t25.5 -21t29.5 -16.5t32.5 -10.5t35 -3.5q19 0 36.5 3.5t33 10.5t29.5 16.5t26 21t21 25.5t15.5 29.5t10 32t3.5 33.5q0 73 -51 124.5t-124 51.5zM665 266q43 0 72 -31t29 -74q0 -40 -29.5 -70t-71.5 -30q-40 0 -69.5 30t-29.5 70q0 43 29.5 74t69.5 31z" />
    <glyph glyph-name="ampersand" unicode="&#x26;" horiz-adv-x="675" 
d="M481 53q27 -29 52.5 -41t61.5 -12h57v95h-38q-17 0 -29 5.5t-24 18.5l-39 42l121 183l-81 48l-104 -161l-121 131l19 10q65 35 95 76.5t30 95.5q0 72 -52 118.5t-133 46.5q-82 0 -135 -49t-53 -125q0 -39 17.5 -76t55.5 -79l-5 -3q-75 -39 -109.5 -85.5t-34.5 -110.5
q0 -21 4.5 -40t12.5 -36.5t20 -33t27 -28.5t33 -23t38.5 -17.5t43 -11t47.5 -3.5q60 0 109 21t92 68zM267 438q-28 30 -40.5 54t-12.5 46q0 36 22.5 58.5t59.5 22.5q34 0 57.5 -23t23.5 -58q0 -30 -17.5 -53t-56.5 -42l-27 -14zM141 185q0 35 19.5 62.5t62.5 50.5l22 12
l152 -165q-29 -33 -62 -48t-71 -15q-52 0 -87.5 29.5t-35.5 73.5z" />
    <glyph glyph-name="quotesingle" unicode="'" horiz-adv-x="203" 
d="M60 491h84l7 241h-99z" />
    <glyph glyph-name="parenleft" unicode="(" horiz-adv-x="388" 
d="M150 333q0 134 56.5 238.5t155.5 159.5l-52 74q-122 -68 -191 -191.5t-69 -280.5t69 -280.5t191 -192.5l52 74q-99 56 -155.5 160t-56.5 239z" />
    <glyph glyph-name="parenright" unicode=")" horiz-adv-x="388" 
d="M238 332q0 -134 -56.5 -238.5t-155.5 -159.5l52 -74q122 68 191 191.5t69 280.5t-69 280.5t-191 192.5l-52 -74q99 -56 155.5 -160t56.5 -239z" />
    <glyph glyph-name="asterisk" unicode="*" horiz-adv-x="432" 
d="M361 385l36 59l-117 71l115 69l-36 58l-109 -68l1 126h-69l1 -126l-110 68l-35 -58l114 -69l-116 -71l35 -59l112 70l-1 -126h69l-1 125z" />
    <glyph glyph-name="plus" unicode="+" horiz-adv-x="552" 
d="M318 137v180h177v84h-177v175h-84v-175h-177v-84h177v-180h84z" />
    <glyph glyph-name="comma" unicode="," horiz-adv-x="240" 
d="M48 -114v-54q66 12 104.5 63.5t38.5 123.5q0 46 -20 73t-54 27q-25 0 -43 -18t-18 -43q0 -9 2 -15.5t5 -12.5t7 -10.5t9 -8.5t10 -7.5t10 -6.5t9 -6.5t7 -7.5t5 -8.5t2 -9.5q0 -24 -22.5 -48.5t-51.5 -30.5z" />
    <glyph glyph-name="hyphen" unicode="-" horiz-adv-x="451" 
d="M57 252h337v94h-337v-94z" />
    <glyph glyph-name="period" unicode="." horiz-adv-x="237" 
d="M118 121q-26 0 -45 -19t-19 -46t19 -46t45 -19q27 0 46 19t19 46t-19 46t-46 19z" />
    <glyph glyph-name="slash" unicode="/" horiz-adv-x="425" 
d="M115 0l304 700h-107l-304 -700h107z" />
    <glyph glyph-name="zero" unicode="0" horiz-adv-x="634" 
d="M61 260q0 -124 71 -198t185 -74t185 74t71 198v182q0 123 -71 196.5t-185 73.5q-115 0 -185.5 -73.5t-70.5 -196.5v-182zM468 264q0 -87 -41 -135t-110 -48t-110 48t-41 135v173q0 86 41 134.5t110 48.5t110 -48t41 -135v-173z" />
    <glyph glyph-name="one" unicode="1" horiz-adv-x="478" 
d="M438 93h-146v607h-234v-93h129v-514h-145v-93h396v93z" />
    <glyph glyph-name="two" unicode="2" horiz-adv-x="541" 
d="M488 506q0 22 -4 42.5t-12.5 39t-20 35t-26.5 30t-33.5 24.5t-39 18.5t-44 11.5t-48.5 4q-80 0 -139.5 -37.5t-92.5 -103.5l84 -47q24 46 61 71.5t83 25.5q54 0 90.5 -34t36.5 -87q0 -43 -20 -78t-61 -80l-254 -272v-69h448v93l-301 -2l186 199q57 60 82 109.5t25 106.5z
" />
    <glyph glyph-name="three" unicode="3" horiz-adv-x="570" 
d="M273 712q-84 0 -144.5 -37.5t-90.5 -99.5l86 -45q21 41 57 66t83 25q54 0 89.5 -31t35.5 -80q0 -46 -31 -77t-78 -31h-84v-87h93q53 0 87 -33t34 -82q0 -51 -38 -86t-98 -35q-53 0 -94 26t-64 70l-86 -47q31 -63 95 -101.5t153 -38.5q26 0 50.5 4t46 12t40.5 19t34.5 25
t28 30.5t21 35t13 39t4.5 42.5q0 60 -36.5 106.5t-93.5 65.5q48 19 77.5 60t29.5 93q0 20 -4.5 39t-12.5 36t-19.5 32.5t-26.5 28.5t-32.5 23t-37 17.5t-41.5 11.5t-46 4z" />
    <glyph glyph-name="four" unicode="4" horiz-adv-x="607" 
d="M376 0h105v178h87v90h-87v432h-137l-310 -443v-79h342v-178zM147 268l229 332v-332h-229z" />
    <glyph glyph-name="five" unicode="5" horiz-adv-x="575" 
d="M300 445q-38 0 -72 -12.5t-63 -39.5l8 214h301v93h-392l-16 -379l86 -12q26 24 55.5 36.5t67.5 12.5q65 0 103.5 -39.5t38.5 -96.5q0 -60 -40 -101.5t-103 -41.5q-51 0 -89.5 25.5t-60.5 70.5l-85 -47q31 -63 93 -101.5t148 -38.5q27 0 51.5 4.5t46.5 13.5t41 22t35 29
t28.5 35t21.5 40.5t13.5 45t4.5 48.5q0 23 -4 44.5t-12 41.5t-19.5 37.5t-26 32t-32 26.5t-38 20t-43 12.5t-47.5 4.5z" />
    <glyph glyph-name="six" unicode="6" horiz-adv-x="608" 
d="M320 621q43 0 78.5 -23t59.5 -66l84 48q-34 60 -90.5 95.5t-132.5 35.5q-119 0 -190 -90t-71 -250v-55q0 -37 5 -71t14 -63.5t22.5 -55.5t30.5 -47.5t37.5 -38t44.5 -27.5t51 -17t57 -6q25 0 48.5 4.5t45 13.5t40 21.5t34.5 28.5t28 35.5t21 41.5t13.5 46.5t4.5 51.5
q0 21 -3.5 40.5t-10 37.5t-15.5 34.5t-21 31.5t-26 27t-30.5 22t-34.5 17t-37.5 10.5t-40.5 3.5q-54 0 -104 -31t-71 -94v41q0 125 45.5 186.5t113.5 61.5zM316 80q-60 0 -100 41.5t-40 103.5q0 63 40 103.5t100 40.5t100 -40.5t40 -103.5t-40 -104t-100 -41z" />
    <glyph glyph-name="seven" unicode="7" horiz-adv-x="552" 
d="M519 621v79h-486v-93h370l-321 -607h121z" />
    <glyph glyph-name="eight" unicode="8" horiz-adv-x="600" 
d="M300 -12q26 0 50.5 4t46.5 11.5t41 18t35.5 24t29 29.5t21.5 34.5t13.5 39.5t4.5 43q0 62 -38.5 108t-99.5 63q51 19 83 60.5t32 96.5q0 20 -4 39.5t-12 36.5t-19.5 32.5t-26 28.5t-32 23t-37.5 17t-42 11t-46 4t-46 -4t-42 -11t-37.5 -17t-32 -23t-26 -28.5t-20 -32.5
t-12.5 -36.5t-4 -39.5q0 -55 32 -96.5t84 -60.5q-62 -17 -100.5 -62.5t-38.5 -108.5q0 -22 4.5 -43t13.5 -39.5t22 -34.5t29 -29.5t35.5 -24t41.5 -18t46.5 -11.5t50.5 -4zM299 402q-50 0 -83.5 31.5t-33.5 78.5q0 49 33 79.5t84 30.5t84.5 -30.5t33.5 -79.5
q0 -47 -33.5 -78.5t-84.5 -31.5zM299 317q59 0 98.5 -34t39.5 -87q0 -51 -39 -84.5t-99 -33.5q-59 0 -98 33.5t-39 84.5q0 53 39 87t98 34z" />
    <glyph glyph-name="nine" unicode="9" horiz-adv-x="608" 
d="M288 79q-43 0 -78.5 23t-59.5 66l-84 -48q34 -60 90.5 -95.5t132.5 -35.5q119 0 190 90t71 250v55q0 37 -5 71t-14 63.5t-22.5 55.5t-30.5 47.5t-37.5 38t-44.5 27.5t-51 17t-57 6q-25 0 -48.5 -4.5t-45 -13.5t-40 -21.5t-34.5 -28.5t-28 -35.5t-21 -41.5t-13.5 -46.5
t-4.5 -51.5q0 -21 3.5 -40.5t10 -37.5t15.5 -34.5t21 -31.5t26 -27t30.5 -22t34.5 -17t37.5 -10.5t40.5 -3.5q54 0 104 31t71 94v-41q0 -125 -45.5 -186.5t-113.5 -61.5zM292 620q60 0 100 -41.5t40 -103.5q0 -63 -40 -103.5t-100 -40.5t-100 40.5t-40 103.5t40 104t100 41z
" />
    <glyph glyph-name="colon" unicode=":" horiz-adv-x="239" 
d="M118 121q-26 0 -45 -19t-19 -46t19 -46t45 -19q27 0 46 19t19 46t-19 46t-46 19zM118 526q-26 0 -45 -19t-19 -46t19 -46t45 -19q27 0 46 19t19 46t-19 46t-46 19z" />
    <glyph glyph-name="semicolon" unicode=";" horiz-adv-x="240" 
d="M48 -114v-54q66 12 104.5 63.5t38.5 123.5q0 46 -20 73t-54 27q-25 0 -43 -18t-18 -43q0 -9 2 -15.5t5 -12.5t7 -10.5t9 -8.5t10 -7.5t10 -6.5t9 -6.5t7 -7.5t5 -8.5t2 -9.5q0 -24 -22.5 -48.5t-51.5 -30.5zM121 526q-26 0 -45 -19t-19 -46t19 -46t45 -19q27 0 46 19
t19 46t-19 46t-46 19z" />
    <glyph glyph-name="less" unicode="&#x3c;" horiz-adv-x="401" 
d="M378 529h-115l-247 -264l247 -265h118l-242 267z" />
    <glyph glyph-name="equal" unicode="=" horiz-adv-x="550" 
d="M493 476h-436v-76h436v76zM493 310h-436v-76h436v76z" />
    <glyph glyph-name="greater" unicode="&#x3e;" horiz-adv-x="401" 
d="M23 0h115l247 264l-247 265h-118l242 -267z" />
    <glyph glyph-name="question" unicode="?" horiz-adv-x="508" 
d="M467 506q0 22 -4.5 42.5t-13 39.5t-20.5 35.5t-27.5 30.5t-33.5 25t-39 19t-44.5 12t-48.5 4q-72 0 -127 -30t-94 -81l78 -56q24 34 60.5 54t80.5 20q55 0 91.5 -34.5t36.5 -85.5q0 -49 -34.5 -83t-88.5 -34h-48l4 -188h84l5 105q20 2 38.5 7.5t35 14t31 20t27 25.5
t22 29.5t16 33t10 36.5t3.5 39zM236 115q-25 0 -43.5 -18.5t-18.5 -43.5t18.5 -43.5t43.5 -18.5q26 0 44 18.5t18 43.5t-18.5 43.5t-43.5 18.5z" />
    <glyph glyph-name="at" unicode="@" horiz-adv-x="840" 
d="M404 69q38 0 71.5 16t56.5 44q16 -26 43 -39.5t64 -13.5q14 0 28 3t27.5 9.5t25.5 16t22 21.5t18.5 27.5t14.5 33t9 38.5t3 44q0 29 -4.5 57t-13 53.5t-21 49.5t-29 45t-36 39.5t-42 34t-48 27.5t-53.5 20t-58 12.5t-62 4.5q-31 0 -60 -4.5t-56.5 -13.5t-53 -22
t-48 -29.5t-42.5 -36t-36.5 -42t-29.5 -47.5t-22.5 -52t-14 -56t-4.5 -59t4.5 -59t13.5 -56t22 -52t30 -47.5t36.5 -42t42 -36t48 -29.5t52.5 -22t56.5 -13.5t59.5 -4.5q70 0 132.5 23t110.5 64l-42 44q-40 -34 -93 -54t-112 -20q-28 0 -54 5t-50.5 14t-46.5 22t-41.5 30
t-35.5 36.5t-29 42.5t-22 48t-13.5 52t-4.5 55q0 26 4 50t11 47t18 44t24.5 40t29.5 35.5t34.5 30t39 24.5t43 18.5t46.5 11.5t49 4q30 0 58.5 -4.5t54 -13t48 -20.5t42.5 -27.5t36 -34.5t29 -40t21.5 -45t13 -49.5t4.5 -53.5q0 -57 -21.5 -93t-55.5 -36q-26 0 -40 15
t-14 37v221h-79v-33q-22 19 -50 30t-59 11q-73 0 -124.5 -51.5t-51.5 -124.5q0 -18 3.5 -35t10 -32.5t16 -29.5t21.5 -26t26 -21.5t30 -16t33 -10t36 -3.5zM410 140q-43 0 -73 30t-30 73q0 44 30 74t73 30t73 -30t30 -74q0 -43 -30 -73t-73 -30z" />
    <glyph glyph-name="A" unicode="A" horiz-adv-x="670" 
d="M402 700h-133l-268 -700h113l67 182h303l67 -182h118zM216 278l116 316l116 -316h-232z" />
    <glyph glyph-name="B" unicode="B" horiz-adv-x="650" 
d="M85 0h302q22 0 43 4t40 11.5t36 18t31 23.5t25.5 29t19.5 33.5t12 37t4 39.5q0 60 -40.5 107.5t-103.5 65.5q45 22 72.5 61t27.5 86q0 19 -4 37t-11.5 34.5t-18.5 31.5t-25 27.5t-30 22.5t-34.5 17t-38.5 10.5t-42 3.5h-265v-700zM341 607q46 0 74.5 -29t28.5 -72
q0 -42 -28.5 -71.5t-74.5 -29.5h-146v202h146zM372 93h-177v222h177q51 0 83.5 -32.5t32.5 -78.5q0 -47 -32.5 -79t-83.5 -32z" />
    <glyph glyph-name="C" unicode="C" horiz-adv-x="698" 
d="M657 451q-4 30 -12.5 57.5t-21 51.5t-28.5 44.5t-35 37.5t-41.5 30t-47 22t-51.5 13.5t-56 4.5q-30 0 -57.5 -4.5t-52.5 -13.5t-48 -22t-42.5 -30t-36 -37.5t-29.5 -44.5t-22 -51t-13.5 -57t-4.5 -63v-77q0 -33 4.5 -63t13.5 -57.5t22 -51.5t29.5 -44.5t36 -37.5
t42.5 -30t48 -22t53 -13.5t57 -4.5q28 0 54.5 4.5t51.5 13.5t47 22t41.5 30t35.5 37.5t29 44.5t21.5 51.5t12.5 57.5h-107q-15 -77 -65.5 -119t-120.5 -42q-84 0 -139.5 59.5t-55.5 167.5v71q0 107 55.5 166.5t139.5 59.5q70 0 120.5 -42t65.5 -119h107z" />
    <glyph glyph-name="D" unicode="D" horiz-adv-x="716" 
d="M658 312v76q0 35 -5.5 67t-16.5 61t-27 53.5t-36 45t-45 36.5t-53.5 27t-60.5 16.5t-67 5.5h-262v-700h262q35 0 67.5 5.5t61 16.5t53 27t45 36.5t36 45t26.5 53.5t16.5 61t5.5 67zM340 604q95 0 151 -58.5t56 -160.5v-70q0 -103 -56.5 -161t-151.5 -58h-144v508h145z
" />
    <glyph glyph-name="E" unicode="E" horiz-adv-x="601" 
d="M85 0h461v96h-351v207h341v95h-341v206h351v96h-461v-700z" />
    <glyph glyph-name="F" unicode="F" horiz-adv-x="601" 
d="M195 0v303h341v95h-341v206h351v96h-461v-700h110z" />
    <glyph glyph-name="G" unicode="G" horiz-adv-x="740" 
d="M58 315q0 -37 5.5 -70t15.5 -63t25 -56t34.5 -47.5t42.5 -38t49.5 -28t56.5 -17.5t63 -6q60 0 117 30t91 88v-107h104v374h-300v-92h196v-22q0 -76 -53 -125t-136 -49q-89 0 -144.5 61t-55.5 168v70q0 105 54.5 165.5t144.5 60.5q63 0 114.5 -34.5t77.5 -94.5l96 45
q-37 87 -112.5 136t-179.5 49q-34 0 -65.5 -6t-59.5 -17.5t-52 -28t-44 -38t-36 -47t-27 -55t-16.5 -63t-5.5 -69.5v-73z" />
    <glyph glyph-name="H" unicode="H" horiz-adv-x="730" 
d="M195 0v303h340v-303h110v700h-110v-301h-340v301h-110v-700h110z" />
    <glyph glyph-name="I" unicode="I" horiz-adv-x="279" 
d="M195 0v700h-110v-700h110z" />
    <glyph glyph-name="J" unicode="J" horiz-adv-x="516" 
d="M11 51q35 -32 83 -48t103 -16q26 0 50.5 4.5t46.5 12.5t41.5 20t36 28t29.5 35t22 41.5t14 47.5t5 53v471h-110v-461q0 -72 -40 -112.5t-98 -40.5q-34 0 -65 12.5t-53 33.5z" />
    <glyph glyph-name="K" unicode="K" horiz-adv-x="640" 
d="M195 0v312l309 -312h155l-368 358l360 342h-144l-312 -304v304h-110v-700h110z" />
    <glyph glyph-name="L" unicode="L" horiz-adv-x="583" 
d="M546 96h-351v604h-110v-700h461v96z" />
    <glyph glyph-name="M" unicode="M" horiz-adv-x="906" 
d="M188 0l-1 590l215 -590h101l215 592l-1 -592h106v700h-167l-202 -560l-203 560h-168v-700h105z" />
    <glyph glyph-name="N" unicode="N" horiz-adv-x="753" 
d="M187 0v545l363 -545h119v700h-103v-543l-363 543h-118v-700h102z" />
    <glyph glyph-name="O" unicode="O" horiz-adv-x="746" 
d="M58 389v-77q0 -37 6 -70t17 -63t27.5 -55.5t37 -46.5t45.5 -37.5t54 -28t61 -17.5t67 -6t67 6t60.5 17.5t53.5 28t46 37.5t37.5 46.5t27.5 55.5t17 63t6 70v77q0 36 -6 69.5t-17 63t-27.5 55t-37.5 46.5t-46 37.5t-53.5 28t-60.5 17.5t-67 6t-67 -6t-61 -17.5t-54 -28
t-45.5 -37.5t-37 -46.5t-27.5 -55t-17 -63t-6 -69.5zM169 384q0 108 56.5 168t147.5 60t147.5 -60t56.5 -168v-67q0 -109 -57 -169t-147 -60t-147 60t-57 169v67z" />
    <glyph glyph-name="P" unicode="P" horiz-adv-x="627" 
d="M85 0h110v273h180q23 0 44.5 4t41 12t37 19.5t32 26t26 31.5t19.5 36t12.5 40.5t4.5 43.5t-4.5 43.5t-12.5 40.5t-19.5 36.5t-26 31.5t-32 25.5t-37 20t-41 12.5t-44.5 4h-290v-700zM366 604q51 0 83.5 -34.5t32.5 -85.5q0 -50 -32.5 -84.5t-83.5 -34.5h-171v239h171z
" />
    <glyph glyph-name="Q" unicode="Q" horiz-adv-x="746" 
d="M58 389v-77q0 -37 6 -70t17 -63t27.5 -55.5t37 -46.5t45.5 -37.5t54 -28t61 -17.5t67 -6q40 0 76 7.5t67 22.5l60 -73l80 64l-56 68q42 42 65 102t23 133v77q0 36 -6 69.5t-17 63t-27.5 55t-37.5 46.5t-46 37.5t-53.5 28t-60.5 17.5t-67 6t-67 -6t-61 -17.5t-54 -28
t-45.5 -37.5t-37 -46.5t-27.5 -55t-17 -63t-6 -69.5zM169 384q0 108 56.5 168t147.5 60t147.5 -60t56.5 -168v-67q0 -49 -12 -88.5t-34 -67.5l-88 106l-79 -64l84 -103q-17 -6 -36 -9t-39 -3q-90 0 -147 60t-57 169v67z" />
    <glyph glyph-name="R" unicode="R" horiz-adv-x="640" 
d="M195 0v288h136l167 -288h125l-180 300q61 21 100 73t39 118q0 22 -4 42.5t-12 39.5t-19.5 35.5t-25.5 31t-31 25.5t-36 19t-40 12t-43 4h-286v-700h110zM355 604q51 0 83.5 -33t32.5 -80q0 -46 -32.5 -79t-83.5 -33h-160v225h160z" />
    <glyph glyph-name="S" unicode="S" horiz-adv-x="612" 
d="M41 214q2 -25 9 -48t18 -43.5t26 -38.5t33 -32.5t39.5 -26t45.5 -19.5t50 -12t55 -4q112 0 179.5 58.5t67.5 145.5q0 74 -44 121t-138 71l-127 32q-47 12 -72.5 37t-25.5 62q0 46 36 73.5t90 27.5q65 0 105 -34t51 -94h108q-13 99 -84.5 160t-178.5 61q-25 0 -48.5 -3.5
t-45 -10.5t-40.5 -17.5t-34.5 -24t-28 -29.5t-21.5 -34.5t-13.5 -39.5t-4.5 -44q0 -72 44.5 -121t132.5 -70l126 -31q51 -13 77.5 -39t26.5 -63q0 -45 -36 -73.5t-102 -28.5q-71 0 -115 35.5t-53 96.5h-108z" />
    <glyph glyph-name="T" unicode="T" horiz-adv-x="633" 
d="M22 604h240v-604h110v604h239v96h-589v-96z" />
    <glyph glyph-name="U" unicode="U" horiz-adv-x="718" 
d="M185 269v431h-110v-439q0 -31 5 -59t14.5 -53t23 -46.5t31 -39t38 -31.5t44 -23.5t49 -14.5t52.5 -5q61 0 111 28t81 74v-91h109v700h-110v-431q0 -81 -49 -132t-121 -51q-71 0 -119.5 49.5t-48.5 133.5z" />
    <glyph glyph-name="V" unicode="V" horiz-adv-x="670" 
d="M268 0h133l268 700h-113l-219 -589l-218 589h-118z" />
    <glyph glyph-name="W" unicode="W" horiz-adv-x="961" 
d="M532 700h-97l-170 -541l-134 541h-114l187 -700h108l169 537l168 -537h108l187 700h-109l-134 -541z" />
    <glyph glyph-name="X" unicode="X" horiz-adv-x="633" 
d="M-5 0h129l190 274l190 -274h133l-259 362l244 338h-129l-176 -252l-175 252h-133l244 -340z" />
    <glyph glyph-name="Y" unicode="Y" horiz-adv-x="648" 
d="M379 0v285l272 415h-129l-197 -305l-195 305h-133l272 -415v-285h110z" />
    <glyph glyph-name="Z" unicode="Z" horiz-adv-x="582" 
d="M44 604h355l-366 -532v-72h508v96h-367l364 530v74h-494v-96z" />
    <glyph glyph-name="bracketleft" unicode="[" horiz-adv-x="355" 
d="M51 -125h271v83h-177v749h177v83h-271v-915z" />
    <glyph glyph-name="backslash" unicode="\" horiz-adv-x="425" 
d="M418 0l-304 700h-107l304 -700h107z" />
    <glyph glyph-name="bracketright" unicode="]" horiz-adv-x="355" 
d="M304 790h-271v-83h177v-749h-177v-83h271v915z" />
    <glyph glyph-name="asciicircum" unicode="^" horiz-adv-x="525" 
d="M31 350h92l139 266l139 -266h93l-185 350h-93z" />
    <glyph glyph-name="underscore" unicode="_" horiz-adv-x="488" 
d="M490 -80h-492v-77h492v77z" />
    <glyph glyph-name="grave" unicode="`" horiz-adv-x="500" 
d="M249 730h-121l134 -138h104z" />
    <glyph glyph-name="a" unicode="a" horiz-adv-x="557" 
d="M35 149q0 -69 51 -114t128 -45q50 0 90.5 23.5t63.5 63.5q7 -35 34 -56t69 -21h53v93h-26q-16 0 -24 8t-8 23v237q0 81 -52 130t-138 49q-59 0 -109.5 -18.5t-92.5 -52.5l48 -78q34 27 68 39.5t71 12.5q48 0 74.5 -25t26.5 -70v-34l-156 -10q-79 -5 -125 -44.5
t-46 -110.5zM138 151q0 33 21.5 51t60.5 21l142 11v-48q0 -46 -37.5 -78.5t-89.5 -32.5q-43 0 -70 21t-27 55z" />
    <glyph glyph-name="b" unicode="b" horiz-adv-x="615" 
d="M79 0h106v81q26 -43 68 -67.5t95 -24.5q23 0 44.5 4.5t41 12.5t36.5 20t31 28t25.5 35t19.5 40.5t12 46.5t4 52v73q0 108 -60.5 174t-153.5 66q-52 0 -94 -23.5t-69 -65.5v285h-106v-737zM185 293q0 70 36.5 112.5t99.5 42.5t99.5 -42.5t36.5 -112.5v-57
q0 -70 -36.5 -112t-99.5 -42t-99.5 42t-36.5 112v57z" />
    <glyph glyph-name="c" unicode="c" horiz-adv-x="547" 
d="M288 -11q86 0 147.5 52t76.5 139h-103q-12 -46 -43.5 -72t-77.5 -26q-60 0 -94.5 42t-34.5 112v57q0 70 34.5 112.5t94.5 42.5q46 0 77 -26.5t43 -72.5h104q-15 88 -75.5 140t-148.5 52q-26 0 -49.5 -4.5t-45 -13t-40 -20.5t-34 -28t-27.5 -35.5t-20.5 -41.5t-13 -47
t-4.5 -53v-66q0 -28 4.5 -53t13 -47.5t20.5 -41.5t28 -35t34.5 -28t39.5 -20.5t44.5 -13t49.5 -4.5z" />
    <glyph glyph-name="d" unicode="d" horiz-adv-x="615" 
d="M537 0v737h-106v-284q-27 42 -69 65t-94 23q-23 0 -44.5 -4.5t-41 -13t-36.5 -20.5t-31 -27.5t-25.5 -34.5t-19.5 -41t-12 -47t-4 -52v-73q0 -27 4 -52t12 -46.5t19.5 -40.5t25.5 -35t31 -28t36.5 -20t41 -12.5t44.5 -4.5q53 0 95.5 24t67.5 67v-80h106zM431 293v-57
q0 -70 -36.5 -112t-99.5 -42t-99.5 42t-36.5 112v57q0 70 36.5 112.5t99.5 42.5t99.5 -42.5t36.5 -112.5z" />
    <glyph glyph-name="e" unicode="e" horiz-adv-x="554" 
d="M54 233q0 -27 4.5 -52t13 -47.5t21 -42t28 -35.5t34.5 -28.5t40.5 -21t46 -13t50.5 -4.5q65 0 115 24t87 68l-67 62q-28 -31 -60.5 -46.5t-71.5 -15.5q-62 0 -99 40.5t-38 109.5h346v68q0 27 -4 51.5t-12 46.5t-19 41t-25.5 35t-32 28.5t-37 21.5t-41.5 13.5t-46 4.5
q-102 0 -167.5 -68t-65.5 -177v-63zM283 448q52 0 85 -36t35 -98h-244q4 63 37.5 98.5t86.5 35.5z" />
    <glyph glyph-name="f" unicode="f" horiz-adv-x="404" 
d="M26 437h108v-437h106v437h137v92h-137v87q0 22 11 33.5t30 11.5h96v92h-115q-62 0 -95 -34.5t-33 -86.5v-103h-108v-92z" />
    <glyph glyph-name="g" unicode="g" horiz-adv-x="609" 
d="M191 -218h154q84 0 134.5 50t50.5 132v565h-106v-71q-27 39 -68 61t-92 22q-93 0 -152 -67t-59 -174v-66q0 -107 59 -173.5t152 -66.5q51 0 92 21.5t68 60.5v-100q0 -49 -27 -76t-77 -27h-129v-91zM424 293v-54q0 -72 -36.5 -112t-97.5 -40t-97 40t-36 112v54
q0 71 36 113t97 42t97.5 -42t36.5 -113z" />
    <glyph glyph-name="h" unicode="h" 
d="M535 345q0 21 -3.5 40t-10 36.5t-16 33.5t-22 29t-27 23.5t-32 17.5t-36.5 11t-40 4q-54 0 -97.5 -28t-65.5 -77v302h-106v-737h106v318q0 54 35.5 90.5t89.5 36.5t86.5 -36t32.5 -87v-322h106v345z" />
    <glyph glyph-name="i" unicode="i" horiz-adv-x="264" 
d="M132 616q26 0 45 19t19 45q0 27 -19 45.5t-45 18.5q-25 0 -44.5 -18.5t-19.5 -45.5q0 -26 19.5 -45t44.5 -19zM185 529h-106v-529h106v529z" />
    <glyph glyph-name="j" unicode="j" horiz-adv-x="264" 
d="M132 616q26 0 45 19t19 45q0 27 -19 45.5t-45 18.5q-25 0 -44.5 -18.5t-19.5 -45.5q0 -26 19.5 -45t44.5 -19zM65 -218q57 0 88.5 32t31.5 80v635h-106v-615q0 -20 -11.5 -30.5t-30.5 -10.5h-33v-91h61z" />
    <glyph glyph-name="k" unicode="k" horiz-adv-x="533" 
d="M529 529h-127l-217 -231v439h-106v-737h106v246l224 -246h138l-262 277z" />
    <glyph glyph-name="l" unicode="l" horiz-adv-x="264" 
d="M185 0v737h-106v-737h106z" />
    <glyph glyph-name="m" unicode="m" horiz-adv-x="940" 
d="M185 317q0 54 33.5 91t85.5 37q50 0 81.5 -36t31.5 -89v-320h106v317q0 54 33.5 91t84.5 37t82.5 -36t31.5 -89v-320h106v344q0 21 -3.5 40t-10 37t-15.5 33.5t-21 29t-26.5 23.5t-31.5 17.5t-35.5 11.5t-39.5 4q-59 0 -103.5 -34t-63.5 -90q-18 55 -63 89.5t-107 34.5
q-51 0 -92.5 -28t-63.5 -77v94h-106v-529h106v317z" />
    <glyph glyph-name="n" unicode="n" 
d="M535 345q0 21 -3.5 40t-10 36.5t-16 33.5t-22 29t-27 23.5t-32 17.5t-36.5 11t-40 4q-54 0 -97.5 -28t-65.5 -77v94h-106v-529h106v318q0 54 35.5 90.5t89.5 36.5t86.5 -36t32.5 -87v-322h106v345z" />
    <glyph glyph-name="o" unicode="o" horiz-adv-x="583" 
d="M529 232v66q0 28 -4.5 53t-13 47.5t-21 41.5t-28.5 35t-35 28t-40.5 20.5t-45.5 13t-50 4.5t-50 -4.5t-45.5 -13t-40 -20.5t-34.5 -28t-28.5 -35.5t-21 -41.5t-13 -47t-4.5 -53v-66q0 -28 4.5 -53t13 -47.5t21 -41.5t28.5 -35t35 -28t40.5 -20.5t45 -13t49.5 -4.5t50 4.5
t45.5 13t40.5 20.5t35 28t28.5 35t21 41.5t13 47.5t4.5 53zM424 293v-57q0 -70 -35.5 -112t-97.5 -42q-61 0 -96.5 42t-35.5 112v57q0 70 35.5 112.5t96.5 42.5q62 0 97.5 -42.5t35.5 -112.5z" />
    <glyph glyph-name="p" unicode="p" horiz-adv-x="616" 
d="M79 529v-747h106v294q27 -41 69 -64t93 -23q23 0 44.5 4.5t41 12.5t37 20t31.5 28t25.5 35t19.5 40.5t12 46.5t4 52v73q0 27 -4 52t-12 47t-19.5 41t-25.5 34.5t-31.5 27.5t-37 20.5t-41 13t-44.5 4.5q-53 0 -94.5 -24t-67.5 -67v79h-106zM185 236v57q0 70 36.5 112.5
t99.5 42.5t99.5 -42.5t36.5 -112.5v-57q0 -69 -36.5 -111.5t-99.5 -42.5t-99.5 42.5t-36.5 111.5z" />
    <glyph glyph-name="q" unicode="q" horiz-adv-x="615" 
d="M537 529h-106v-76q-27 42 -69 65t-94 23q-23 0 -44.5 -4.5t-41 -13t-36.5 -20.5t-31 -27.5t-25.5 -34.5t-19.5 -41t-12 -47t-4 -52v-73q0 -27 4 -52t12 -46.5t19.5 -40.5t25.5 -35t31 -28t36.5 -20t41 -12.5t44.5 -4.5q53 0 95.5 24t67.5 67v-298h106v747zM431 293v-57
q0 -70 -36.5 -112t-99.5 -42t-99.5 42t-36.5 112v57q0 70 36.5 112.5t99.5 42.5t99.5 -42.5t36.5 -112.5z" />
    <glyph glyph-name="r" unicode="r" horiz-adv-x="393" 
d="M366 430v104h-43q-51 0 -86.5 -30t-51.5 -78v103h-106v-529h106v293q0 62 37.5 99.5t88.5 37.5h55z" />
    <glyph glyph-name="s" unicode="s" horiz-adv-x="505" 
d="M267 -11q87 0 141 44.5t54 115.5q0 57 -37 95t-108 56l-94 23q-35 9 -54 26t-19 42q0 28 22 46.5t60 18.5q44 0 77 -25.5t42 -65.5h102q-12 79 -73 127.5t-148 48.5q-83 0 -134.5 -44t-51.5 -116q0 -57 36 -94.5t106 -54.5l100 -25q32 -8 51 -25t19 -42q0 -29 -25 -48
t-65 -19q-53 0 -87 25.5t-43 65.5h-101q14 -78 76 -126.5t154 -48.5z" />
    <glyph glyph-name="t" unicode="t" horiz-adv-x="407" 
d="M263 0h116v92h-89q-24 0 -38 11t-14 32v302h141v92h-141v156h-106v-156h-107v-92h107v-317q0 -52 34 -86t97 -34z" />
    <glyph glyph-name="u" unicode="u" 
d="M79 185q0 -21 3.5 -40t10 -37t16.5 -33.5t22 -29t27 -23.5t32.5 -17.5t36.5 -11.5t40 -4q52 0 95.5 27.5t66.5 76.5v-93h106v529h-106v-318q0 -54 -35.5 -90.5t-89.5 -36.5q-53 0 -86 36t-33 88v321h-106v-344z" />
    <glyph glyph-name="v" unicode="v" horiz-adv-x="527" 
d="M212 0h103l209 529h-110l-149 -395l-150 395h-112z" />
    <glyph glyph-name="w" unicode="w" horiz-adv-x="765" 
d="M341 529l-121 -372l-98 372h-108l149 -529h97l123 381l123 -381h97l149 529h-105l-98 -372l-120 372h-88z" />
    <glyph glyph-name="x" unicode="x" horiz-adv-x="501" 
d="M-3 0h117l134 191l135 -191h121l-197 271l189 258h-118l-127 -180l-127 180h-120l189 -260z" />
    <glyph glyph-name="y" unicode="y" horiz-adv-x="533" 
d="M193 -66q-12 -31 -29.5 -46t-46.5 -15h-55v-91h72q57 0 91 25.5t58 85.5l248 636h-111l-149 -391l-154 391h-114l215 -529z" />
    <glyph glyph-name="z" unicode="z" horiz-adv-x="492" 
d="M45 437h272l-276 -360v-77h408v93h-278l272 357v79h-398v-92z" />
    <glyph glyph-name="braceleft" unicode="{" horiz-adv-x="426" 
d="M273 155q30 64 5 113.5t-88 64.5q62 13 88 63t-5 115l-40 88q-24 51 -2.5 85t68.5 34q23 0 43.5 -4t42.5 -12l17 77q-28 11 -54 16t-58 5q-26 0 -49 -4.5t-41.5 -13t-33 -20.5t-24.5 -27.5t-15 -33.5t-5 -38.5t5.5 -43t16.5 -46.5l43 -93q19 -43 -2.5 -74.5t-68.5 -31.5
h-89v-82h93q45 0 65.5 -32t1.5 -74l-43 -93q-11 -24 -16.5 -46.5t-5.5 -43t5 -38.5t15 -33.5t24.5 -27.5t33 -20.5t41.5 -13t49 -4.5q32 0 58 5t54 16l-17 77q-22 -8 -42.5 -12t-43.5 -4q-47 0 -68.5 34t2.5 85z" />
    <glyph glyph-name="bar" unicode="|" horiz-adv-x="259" 
d="M183 -218v918h-106v-918h106z" />
    <glyph glyph-name="braceright" unicode="}" horiz-adv-x="426" 
d="M156 511q-30 -64 -5 -113.5t88 -64.5q-62 -13 -88 -63t5 -115l40 -88q24 -51 2.5 -85t-68.5 -34q-23 0 -43.5 4t-42.5 12l-17 -77q28 -11 54 -16t58 -5q26 0 49 4.5t41.5 13t33 20.5t24.5 27.5t15 33.5t5 38.5t-5.5 43t-16.5 46.5l-43 93q-19 43 2.5 74.5t68.5 31.5h89
v82h-93q-45 0 -65.5 32t-1.5 74l43 93q11 24 16.5 46.5t5.5 43t-5 38.5t-15 33.5t-24.5 27.5t-33 20.5t-41.5 13t-49 4.5q-32 0 -58 -5t-54 -16l17 -77q22 8 42.5 12t43.5 4q47 0 68.5 -34t-2.5 -85z" />
    <glyph glyph-name="asciitilde" unicode="~" horiz-adv-x="553" 
d="M140 305q11 38 23.5 54t29.5 16q7 0 15 -2t17 -5t18.5 -7.5t19.5 -9.5t21 -10t21.5 -10t21.5 -9.5t21.5 -7.5t20.5 -5t19 -2q46 0 77 34t48 100l-82 21q-11 -38 -23 -54t-30 -16q-7 0 -14.5 2t-16.5 5t-18.5 7.5t-20 9t-21 10t-21 10t-21.5 9t-21.5 7.5t-20.5 5t-19 2
q-46 0 -77.5 -33.5t-47.5 -99.5z" />
    <glyph glyph-name="uni00A0" unicode="&#xa0;" horiz-adv-x="220" 
 />
    <glyph glyph-name="exclamdown" unicode="&#xa1;" horiz-adv-x="225" 
d="M67 506l-7 -536h106l-7 536h-92zM113 585q25 0 43.5 18.5t18.5 43.5q0 26 -18.5 44t-43.5 18t-43.5 -18t-18.5 -44q0 -25 18.5 -43.5t43.5 -18.5z" />
    <glyph glyph-name="cent" unicode="&#xa2;" horiz-adv-x="555" 
d="M329 629h-78v-90q-87 -12 -142 -77t-55 -164v-66q0 -100 55 -164.5t142 -76.5v-102h78v103q71 12 120.5 62t62.5 126h-103q-9 -34 -29.5 -58t-50.5 -34v354q29 -10 49.5 -34.5t29.5 -58.5h104q-13 78 -62 128t-121 61v91zM159 236v57q0 59 24.5 98.5t67.5 51.5v-356
q-43 12 -67.5 51t-24.5 98z" />
    <glyph glyph-name="sterling" unicode="&#xa3;" horiz-adv-x="585" 
d="M403 376h-181l-18 61q-25 81 5.5 132.5t98.5 51.5q54 0 90 -31.5t46 -85.5h104q-13 93 -78 149.5t-161 56.5q-27 0 -51.5 -4.5t-46 -13t-39.5 -21t-32.5 -28t-25 -34.5t-16.5 -40t-8 -45t1 -49.5t11 -52.5l14 -46h-72v-81h95l18 -60q18 -60 -7.5 -101t-76.5 -41h-34v-93
h514v93h-325q28 27 37.5 67.5t-4.5 88.5l-14 46h156v81z" />
    <glyph glyph-name="yen" unicode="&#xa5;" horiz-adv-x="661" 
d="M113 201v-72h164v-129h110v129h163v72h-163v69h163v72h-126l235 358h-129l-197 -305l-195 305h-133l235 -358h-127v-72h164v-69h-164z" />
    <glyph glyph-name="section" unicode="&#xa7;" horiz-adv-x="543" 
d="M476 41q0 32 -11.5 57t-35.5 44q44 17 70.5 54.5t26.5 89.5q0 60 -36.5 98t-104.5 63l-142 51q-37 13 -54.5 29.5t-17.5 40.5q0 27 22 43.5t59 16.5t70 -21t43 -64h101q-10 71 -67 120t-147 49q-81 0 -132.5 -42.5t-51.5 -113.5q0 -32 11.5 -56.5t34.5 -43.5
q-44 -17 -70.5 -55t-26.5 -91q0 -60 36 -98.5t105 -62.5l150 -51q31 -10 47.5 -27t16.5 -41q0 -28 -22.5 -44t-60.5 -16q-44 0 -78 21.5t-43 62.5h-101q13 -72 71.5 -120t151.5 -48q85 0 135.5 44.5t50.5 110.5zM350 357q40 -13 58 -35.5t18 -53.5q0 -38 -32.5 -62.5
t-81.5 -8.5l-119 42q-40 14 -58 36t-18 53q0 38 32 63.5t76 9.5z" />
    <glyph glyph-name="dieresis" unicode="&#xa8;" horiz-adv-x="540" 
d="M173 595q26 0 44 18.5t18 43.5q0 27 -18 45.5t-44 18.5t-45 -18.5t-19 -45.5q0 -25 19 -43.5t45 -18.5zM368 595q26 0 44 18.5t18 43.5q0 27 -18 45.5t-44 18.5t-45 -18.5t-19 -45.5q0 -25 19 -43.5t45 -18.5z" />
    <glyph glyph-name="copyright" unicode="&#xa9;" horiz-adv-x="837" 
d="M418 -12q31 0 60 4.5t56.5 13.5t52.5 22t47.5 29.5t42.5 36t36.5 42t29.5 47.5t22 52t13.5 56t4.5 59t-4.5 59t-13.5 56t-22 52t-29.5 47.5t-36.5 42t-42.5 36t-47.5 29.5t-52.5 22t-56.5 13.5t-60 4.5t-60 -4.5t-56.5 -13.5t-52.5 -22t-47.5 -29.5t-42.5 -36t-36.5 -42
t-29.5 -47.5t-22 -52t-13.5 -56t-4.5 -59t4.5 -59t13.5 -56t22 -52t29.5 -47.5t36.5 -42t42.5 -36t47.5 -29.5t52.5 -22t56.5 -13.5t60 -4.5zM418 45q-25 0 -49 4t-46.5 11.5t-43 18t-39.5 24.5t-35 30.5t-30 35.5t-24.5 40t-18 44t-11.5 47t-4 50t4 50t11.5 47t18 44
t24.5 40t30 35.5t35 30t39.5 24.5t43 18.5t46.5 11.5t49 4t49 -4t46.5 -11.5t43.5 -18t40 -24.5t35 -30.5t30 -35.5t24.5 -40t18 -44t11.5 -47t4 -50t-4 -50t-11.5 -47t-18 -44t-24.5 -40t-30 -35.5t-35 -30t-40 -24.5t-43.5 -18.5t-46.5 -11.5t-49 -4zM313 350
q0 50 33.5 84.5t81.5 34.5q30 0 55 -13.5t41 -36.5l57 41q-27 35 -64.5 56.5t-88.5 21.5q-20 0 -39.5 -3.5t-37 -11t-32.5 -17.5t-28 -22.5t-23.5 -27.5t-17.5 -32t-11 -35.5t-4 -38.5q0 -19 4 -37.5t11 -35t17.5 -31.5t23.5 -27.5t28 -22.5t32.5 -17.5t37 -11t39.5 -3.5
q51 0 88.5 21.5t64.5 55.5l-57 41q-16 -22 -41 -35.5t-55 -13.5q-48 0 -81.5 34t-33.5 83z" />
    <glyph glyph-name="ordfeminine" unicode="&#xaa;" horiz-adv-x="417" 
d="M30 432q0 -49 36 -81t90 -32q35 0 63.5 16.5t44.5 44.5q7 -24 27 -38t50 -14h43v77h-19q-10 0 -16 5.5t-6 15.5v150q0 59 -38 94.5t-100 35.5q-43 0 -80.5 -13t-66.5 -36l38 -65q23 17 47 25t49 8q31 0 48 -15.5t17 -43.5v-19l-104 -7q-58 -4 -90.5 -31.5t-32.5 -76.5z
M116 434q0 19 12 31t37 13l92 8v-27q0 -29 -24 -50t-57 -21q-27 0 -43.5 12.5t-16.5 33.5z" />
    <glyph glyph-name="guillemotleft" unicode="&#xab;" horiz-adv-x="640" 
d="M378 529h-115l-247 -264l247 -265h118l-242 267zM617 529h-115l-247 -264l247 -265h118l-242 267z" />
    <glyph glyph-name="registered" unicode="&#xae;" horiz-adv-x="471" 
d="M235 304q21 0 41 4t38 11.5t34 18.5t30 25t25 30t18.5 34.5t11.5 38.5t4 41t-4 41t-11.5 38.5t-18.5 34.5t-25 30t-30 25t-34 18.5t-38 11.5t-41 4t-41 -4t-38 -11.5t-34 -18.5t-30 -25t-25 -30t-18.5 -34.5t-11.5 -38.5t-4 -41t4 -41t11.5 -38.5t18.5 -34.5t25 -30
t30 -25t34 -18.5t38 -11.5t41 -4zM235 347q-66 0 -111.5 46.5t-45.5 113.5q0 66 45.5 113t111.5 47t112 -47t46 -113q0 -67 -46 -113.5t-112 -46.5zM165 415h44v74h20l41 -74h48l-47 81q15 7 24 20t9 30q0 25 -16.5 41t-42.5 16h-80v-188zM236 569q12 0 19 -6.5t7 -16.5
t-7 -17t-20 -7h-26v47h27z" />
    <glyph glyph-name="macron" unicode="&#xaf;" horiz-adv-x="500" 
d="M384 687h-259v-71h259v71z" />
    <glyph glyph-name="degree" unicode="&#xb0;" horiz-adv-x="365" 
d="M183 422q59 0 101 43t42 103q0 57 -41.5 99.5t-101.5 42.5q-61 0 -103 -42.5t-42 -99.5q0 -60 42.5 -103t102.5 -43zM183 485q-34 0 -57.5 24.5t-23.5 58.5q0 32 24 55.5t57 23.5q31 0 55 -23.5t24 -55.5q0 -34 -23.5 -58.5t-55.5 -24.5z" />
    <glyph glyph-name="plusminus" unicode="&#xb1;" horiz-adv-x="552" 
d="M318 184v169h177v84h-177v165h-84v-165h-177v-84h177v-169h84zM495 84h-438v-84h438v84z" />
    <glyph glyph-name="twosuperior" unicode="&#xb2;" horiz-adv-x="320" 
d="M286 591q0 49 -36.5 82t-94.5 33q-47 0 -82 -21t-55 -60l59 -34q13 25 32 38t42 13q25 0 42 -16t17 -41q1 -19 -7.5 -36t-30.5 -40l-140 -146v-48h260v66l-154 -2l88 92q35 35 47.5 62.5t12.5 57.5z" />
    <glyph glyph-name="threesuperior" unicode="&#xb3;" horiz-adv-x="339" 
d="M166 706q-51 0 -86 -21t-54 -57l62 -31q11 21 28.5 33t42.5 12q26 0 42.5 -14t16.5 -36t-15 -36t-38 -14h-51v-62h57q26 0 42.5 -15t16.5 -36q0 -25 -18.5 -41t-48.5 -16q-27 0 -47 12.5t-33 34.5l-61 -34q18 -35 54.5 -56.5t89.5 -21.5q61 0 100.5 34t39.5 83
q0 32 -20 57.5t-51 36.5q26 11 42 32.5t16 49.5q0 45 -36.5 75.5t-90.5 30.5z" />
    <glyph glyph-name="acute" unicode="&#xb4;" horiz-adv-x="500" 
d="M256 730l-116 -138h102l135 138h-121z" />
    <glyph glyph-name="paragraph" unicode="&#xb6;" horiz-adv-x="599" 
d="M29 491q0 -22 4 -42.5t12 -39t19 -35t25.5 -30.5t31 -25t35.5 -19t40 -12t43 -4h49v-284h87v284h63v-284h87v700h-286q-22 0 -43 -4t-40 -12t-35.5 -19t-31 -25.5t-25.5 -31t-19 -35.5t-12 -39.5t-4 -42.5z" />
    <glyph glyph-name="periodcentered" unicode="&#xb7;" horiz-adv-x="236" 
d="M118 367q-26 0 -45 -19t-19 -46t19 -46t45 -19q27 0 46 19t19 46t-19 46t-46 19z" />
    <glyph glyph-name="cedilla" unicode="&#xb8;" horiz-adv-x="500" 
d="M381 -135q0 34 -23.5 57t-63.5 27l20 58h-60l-31 -101h38q23 0 38 -11t15 -30q0 -16 -13.5 -28t-35.5 -12q-19 0 -34.5 7.5t-28.5 23.5l-46 -37q17 -23 47.5 -36.5t65.5 -13.5q48 0 80 27.5t32 68.5z" />
    <glyph glyph-name="onesuperior" unicode="&#xb9;" horiz-adv-x="291" 
d="M266 381h-83v319h-145v-66h69v-253h-83v-66h242v66z" />
    <glyph glyph-name="ordmasculine" unicode="&#xba;" horiz-adv-x="421" 
d="M382 493v42q0 79 -48.5 126.5t-123.5 47.5t-122.5 -48t-47.5 -126v-42q0 -79 47.5 -126.5t122.5 -47.5t123.5 47.5t48.5 126.5zM295 531v-34q0 -46 -22.5 -73.5t-62.5 -27.5t-61.5 27.5t-21.5 73.5v34q0 46 21.5 73t61.5 27t62.5 -27t22.5 -73z" />
    <glyph glyph-name="guillemotright" unicode="&#xbb;" horiz-adv-x="640" 
d="M262 0h115l247 264l-247 265h-118l242 -267zM23 0h115l247 264l-247 265h-118l242 -267z" />
    <glyph glyph-name="onequarter" unicode="&#xbc;" horiz-adv-x="732" 
d="M266 381h-83v319h-145v-66h69v-253h-83v-66h242v66zM601 0h75v94h44v62h-44v229h-99l-162 -235v-56h186v-94zM494 156l107 159v-159h-107zM231 0l380 700h-84l-379 -700h83z" />
    <glyph glyph-name="onehalf" unicode="&#xbd;" horiz-adv-x="767" 
d="M266 381h-83v319h-145v-66h69v-253h-83v-66h242v66zM735 276q0 49 -36.5 82t-94.5 33q-47 0 -82 -21t-55 -60l59 -34q13 25 32 38t42 13q25 0 42 -16t17 -41q1 -19 -7.5 -36t-30.5 -40l-140 -146v-48h260v66l-154 -2l88 92q35 35 47.5 62.5t12.5 57.5zM228 0l380 700h-84
l-379 -700h83z" />
    <glyph glyph-name="threequarters" unicode="&#xbe;" horiz-adv-x="720" 
d="M166 706q-51 0 -86 -21t-54 -57l62 -31q11 21 28.5 33t42.5 12q26 0 42.5 -14t16.5 -36t-15 -36t-38 -14h-51v-62h57q26 0 42.5 -15t16.5 -36q0 -25 -18.5 -41t-48.5 -16q-27 0 -47 12.5t-33 34.5l-61 -34q18 -35 54.5 -56.5t89.5 -21.5q61 0 100.5 34t39.5 83
q0 32 -20 57.5t-51 36.5q26 11 42 32.5t16 49.5q0 45 -36.5 75.5t-90.5 30.5zM614 0h75v94h44v62h-44v229h-99l-162 -235v-56h186v-94zM507 156l107 159v-159h-107zM245 0l380 700h-84l-379 -700h83z" />
    <glyph glyph-name="questiondown" unicode="&#xbf;" horiz-adv-x="508" 
d="M41 199q0 -22 4.5 -42.5t13 -39.5t20.5 -35.5t27.5 -30.5t33.5 -25t39 -19t44.5 -12t48.5 -4q72 0 127 30t94 81l-78 56q-24 -34 -60.5 -54t-80.5 -20q-55 0 -91.5 34.5t-36.5 85.5q0 49 34.5 83t88.5 34h48l-4 188h-84l-5 -105q-20 -2 -38.5 -7.5t-35 -14t-31 -20
t-27 -25.5t-22 -29.5t-16 -33t-10 -36.5t-3.5 -39zM272 590q25 0 43.5 18.5t18.5 43.5t-18.5 43.5t-43.5 18.5q-26 0 -44 -18.5t-18 -43.5t18.5 -43.5t43.5 -18.5z" />
    <glyph glyph-name="Agrave" unicode="&#xc0;" horiz-adv-x="670" 
d="M402 700h-133l-268 -700h113l67 182h303l67 -182h118zM216 278l116 316l116 -316h-232zM292 919h-121l134 -138h104z" />
    <glyph glyph-name="Aacute" unicode="&#xc1;" horiz-adv-x="670" 
d="M402 700h-133l-268 -700h113l67 182h303l67 -182h118zM216 278l116 316l116 -316h-232zM378 919l-116 -138h102l135 138h-121z" />
    <glyph glyph-name="Acircumflex" unicode="&#xc2;" horiz-adv-x="670" 
d="M402 700h-133l-268 -700h113l67 182h303l67 -182h118zM216 278l116 316l116 -316h-232zM263 782l73 82l72 -82h95l-114 138h-105l-115 -138h94z" />
    <glyph glyph-name="Atilde" unicode="&#xc3;" horiz-adv-x="670" 
d="M402 700h-133l-268 -700h113l67 182h303l67 -182h118zM216 278l116 316l116 -316h-232zM269 907q-37 0 -62.5 -28.5t-39.5 -85.5l68 -14q10 34 19 46t22 12q5 0 10.5 -2t11.5 -5t12.5 -7t13.5 -8.5t14.5 -9t15 -8.5t15 -7t15 -5t14.5 -2q37 0 63 28.5t40 85.5l-68 15
q-10 -34 -19.5 -46t-22.5 -12q-5 0 -10.5 2t-11.5 5t-12.5 7t-13.5 8.5t-14.5 8.5l-15 8t-15 7t-15 5t-14.5 2z" />
    <glyph glyph-name="Adieresis" unicode="&#xc4;" horiz-adv-x="670" 
d="M402 700h-133l-268 -700h113l67 182h303l67 -182h118zM216 278l116 316l116 -316h-232zM238 784q26 0 44 18.5t18 43.5q0 27 -18 45.5t-44 18.5t-45 -18.5t-19 -45.5q0 -25 19 -43.5t45 -18.5zM433 784q26 0 44 18.5t18 43.5q0 27 -18 45.5t-44 18.5t-45 -18.5t-19 -45.5
q0 -25 19 -43.5t45 -18.5z" />
    <glyph glyph-name="Aring" unicode="&#xc5;" horiz-adv-x="670" 
d="M402 700h-133l-268 -700h113l67 182h303l67 -182h118zM216 278l116 316l116 -316h-232zM335 760q46 0 78 32t32 77q0 44 -32 75.5t-78 31.5t-78 -31.5t-32 -75.5q0 -46 32 -77.5t78 -31.5zM335 810q-25 0 -41.5 17t-16.5 42q0 23 16.5 40t41.5 17t41.5 -17t16.5 -40
q0 -24 -16.5 -41.5t-41.5 -17.5z" />
    <glyph glyph-name="AE" unicode="&#xc6;" horiz-adv-x="994" 
d="M939 96h-335v208h325v95h-325v205h335v96h-493l-439 -700h127l103 172h257v-172h445v96zM295 268l199 331v-331h-199z" />
    <glyph glyph-name="Ccedilla" unicode="&#xc7;" horiz-adv-x="698" 
d="M657 451q-4 30 -12.5 57.5t-21 51.5t-28.5 44.5t-35 37.5t-41.5 30t-47 22t-51.5 13.5t-56 4.5q-30 0 -57.5 -4.5t-52.5 -13.5t-48 -22t-42.5 -30t-36 -37.5t-29.5 -44.5t-22 -51t-13.5 -57t-4.5 -63v-77q0 -35 5.5 -67t15.5 -61t24.5 -54t33 -45.5t40.5 -37.5t47.5 -29
t53.5 -19.5t58 -9.5l-25 -83h38q23 0 38 -11t15 -30q0 -16 -13.5 -28t-35.5 -12q-19 0 -34.5 7.5t-28.5 23.5l-46 -37q17 -23 47.5 -36.5t65.5 -13.5q48 0 80 27.5t32 68.5q0 34 -23.5 57t-63.5 27l14 41q29 3 56 10.5t51.5 20t46 29.5t39 38t31.5 46t23.5 54t13.5 61h-107
q-15 -77 -65.5 -119t-120.5 -42q-84 0 -139.5 59.5t-55.5 167.5v71q0 107 55.5 166.5t139.5 59.5q70 0 120.5 -42t65.5 -119h107z" />
    <glyph glyph-name="Egrave" unicode="&#xc8;" horiz-adv-x="601" 
d="M85 0h461v96h-351v207h341v95h-341v206h351v96h-461v-700zM280 919h-121l134 -138h104z" />
    <glyph glyph-name="Eacute" unicode="&#xc9;" horiz-adv-x="601" 
d="M85 0h461v96h-351v207h341v95h-341v206h351v96h-461v-700zM365 919l-116 -138h102l135 138h-121z" />
    <glyph glyph-name="Ecircumflex" unicode="&#xca;" horiz-adv-x="601" 
d="M85 0h461v96h-351v207h341v95h-341v206h351v96h-461v-700zM251 782l73 82l72 -82h95l-114 138h-105l-115 -138h94z" />
    <glyph glyph-name="Edieresis" unicode="&#xcb;" horiz-adv-x="601" 
d="M85 0h461v96h-351v207h341v95h-341v206h351v96h-461v-700zM226 784q26 0 44 18.5t18 43.5q0 27 -18 45.5t-44 18.5t-45 -18.5t-19 -45.5q0 -25 19 -43.5t45 -18.5zM421 784q26 0 44 18.5t18 43.5q0 27 -18 45.5t-44 18.5t-45 -18.5t-19 -45.5q0 -25 19 -43.5t45 -18.5z
" />
    <glyph glyph-name="Igrave" unicode="&#xcc;" horiz-adv-x="279" 
d="M195 0v700h-110v-700h110zM97 919h-121l134 -138h104z" />
    <glyph glyph-name="Iacute" unicode="&#xcd;" horiz-adv-x="279" 
d="M195 0v700h-110v-700h110zM182 919l-116 -138h102l135 138h-121z" />
    <glyph glyph-name="Icircumflex" unicode="&#xce;" horiz-adv-x="279" 
d="M195 0v700h-110v-700h110zM68 782l73 82l72 -82h95l-114 138h-105l-115 -138h94z" />
    <glyph glyph-name="Idieresis" unicode="&#xcf;" horiz-adv-x="279" 
d="M195 0v700h-110v-700h110zM43 784q26 0 44 18.5t18 43.5q0 27 -18 45.5t-44 18.5t-45 -18.5t-19 -45.5q0 -25 19 -43.5t45 -18.5zM238 784q26 0 44 18.5t18 43.5q0 27 -18 45.5t-44 18.5t-45 -18.5t-19 -45.5q0 -25 19 -43.5t45 -18.5z" />
    <glyph glyph-name="Eth" unicode="&#xd0;" horiz-adv-x="729" 
d="M5 303h93v-303h262q35 0 67.5 5.5t61 16.5t53 27t45 36.5t36 45t26.5 53.5t16.5 61t5.5 67v76q0 35 -5.5 67t-16.5 61t-27 53.5t-36 45t-45 36.5t-53.5 27t-60.5 16.5t-67 5.5h-262v-303h-93v-94zM353 604q95 0 151 -58.5t56 -160.5v-70q0 -103 -56.5 -161t-151.5 -58
h-144v207h141v94h-141v207h145z" />
    <glyph glyph-name="Ntilde" unicode="&#xd1;" horiz-adv-x="753" 
d="M187 0v545l363 -545h119v700h-103v-543l-363 543h-118v-700h102zM310 907q-37 0 -62.5 -28.5t-39.5 -85.5l68 -14q10 34 19 46t22 12q5 0 10.5 -2t11.5 -5t12.5 -7t13.5 -8.5t14.5 -9t15 -8.5t15 -7t15 -5t14.5 -2q37 0 63 28.5t40 85.5l-68 15q-10 -34 -19.5 -46
t-22.5 -12q-5 0 -10.5 2t-11.5 5t-12.5 7t-13.5 8.5t-14.5 8.5l-15 8t-15 7t-15 5t-14.5 2z" />
    <glyph glyph-name="Ograve" unicode="&#xd2;" horiz-adv-x="746" 
d="M58 389v-77q0 -37 6 -70t17 -63t27.5 -55.5t37 -46.5t45.5 -37.5t54 -28t61 -17.5t67 -6t67 6t60.5 17.5t53.5 28t46 37.5t37.5 46.5t27.5 55.5t17 63t6 70v77q0 36 -6 69.5t-17 63t-27.5 55t-37.5 46.5t-46 37.5t-53.5 28t-60.5 17.5t-67 6t-67 -6t-61 -17.5t-54 -28
t-45.5 -37.5t-37 -46.5t-27.5 -55t-17 -63t-6 -69.5zM169 384q0 108 56.5 168t147.5 60t147.5 -60t56.5 -168v-67q0 -109 -57 -169t-147 -60t-147 60t-57 169v67zM330 919h-121l134 -138h104z" />
    <glyph glyph-name="Oacute" unicode="&#xd3;" horiz-adv-x="746" 
d="M58 389v-77q0 -37 6 -70t17 -63t27.5 -55.5t37 -46.5t45.5 -37.5t54 -28t61 -17.5t67 -6t67 6t60.5 17.5t53.5 28t46 37.5t37.5 46.5t27.5 55.5t17 63t6 70v77q0 36 -6 69.5t-17 63t-27.5 55t-37.5 46.5t-46 37.5t-53.5 28t-60.5 17.5t-67 6t-67 -6t-61 -17.5t-54 -28
t-45.5 -37.5t-37 -46.5t-27.5 -55t-17 -63t-6 -69.5zM169 384q0 108 56.5 168t147.5 60t147.5 -60t56.5 -168v-67q0 -109 -57 -169t-147 -60t-147 60t-57 169v67zM416 919l-116 -138h102l135 138h-121z" />
    <glyph glyph-name="Ocircumflex" unicode="&#xd4;" horiz-adv-x="746" 
d="M58 389v-77q0 -37 6 -70t17 -63t27.5 -55.5t37 -46.5t45.5 -37.5t54 -28t61 -17.5t67 -6t67 6t60.5 17.5t53.5 28t46 37.5t37.5 46.5t27.5 55.5t17 63t6 70v77q0 36 -6 69.5t-17 63t-27.5 55t-37.5 46.5t-46 37.5t-53.5 28t-60.5 17.5t-67 6t-67 -6t-61 -17.5t-54 -28
t-45.5 -37.5t-37 -46.5t-27.5 -55t-17 -63t-6 -69.5zM169 384q0 108 56.5 168t147.5 60t147.5 -60t56.5 -168v-67q0 -109 -57 -169t-147 -60t-147 60t-57 169v67zM301 782l73 82l72 -82h95l-114 138h-105l-115 -138h94z" />
    <glyph glyph-name="Otilde" unicode="&#xd5;" horiz-adv-x="746" 
d="M58 389v-77q0 -37 6 -70t17 -63t27.5 -55.5t37 -46.5t45.5 -37.5t54 -28t61 -17.5t67 -6t67 6t60.5 17.5t53.5 28t46 37.5t37.5 46.5t27.5 55.5t17 63t6 70v77q0 36 -6 69.5t-17 63t-27.5 55t-37.5 46.5t-46 37.5t-53.5 28t-60.5 17.5t-67 6t-67 -6t-61 -17.5t-54 -28
t-45.5 -37.5t-37 -46.5t-27.5 -55t-17 -63t-6 -69.5zM169 384q0 108 56.5 168t147.5 60t147.5 -60t56.5 -168v-67q0 -109 -57 -169t-147 -60t-147 60t-57 169v67zM307 907q-37 0 -62.5 -28.5t-39.5 -85.5l68 -14q10 34 19 46t22 12q5 0 10.5 -2t11.5 -5t12.5 -7t13.5 -8.5
t14.5 -9t15 -8.5t15 -7t15 -5t14.5 -2q37 0 63 28.5t40 85.5l-68 15q-10 -34 -19.5 -46t-22.5 -12q-5 0 -10.5 2t-11.5 5t-12.5 7t-13.5 8.5t-14.5 8.5l-15 8t-15 7t-15 5t-14.5 2z" />
    <glyph glyph-name="Odieresis" unicode="&#xd6;" horiz-adv-x="746" 
d="M58 389v-77q0 -37 6 -70t17 -63t27.5 -55.5t37 -46.5t45.5 -37.5t54 -28t61 -17.5t67 -6t67 6t60.5 17.5t53.5 28t46 37.5t37.5 46.5t27.5 55.5t17 63t6 70v77q0 36 -6 69.5t-17 63t-27.5 55t-37.5 46.5t-46 37.5t-53.5 28t-60.5 17.5t-67 6t-67 -6t-61 -17.5t-54 -28
t-45.5 -37.5t-37 -46.5t-27.5 -55t-17 -63t-6 -69.5zM169 384q0 108 56.5 168t147.5 60t147.5 -60t56.5 -168v-67q0 -109 -57 -169t-147 -60t-147 60t-57 169v67zM276 784q26 0 44 18.5t18 43.5q0 27 -18 45.5t-44 18.5t-45 -18.5t-19 -45.5q0 -25 19 -43.5t45 -18.5z
M471 784q26 0 44 18.5t18 43.5q0 27 -18 45.5t-44 18.5t-45 -18.5t-19 -45.5q0 -25 19 -43.5t45 -18.5z" />
    <glyph glyph-name="multiply" unicode="&#xd7;" horiz-adv-x="525" 
d="M111 152l151 153l151 -154l55 55l-152 154l151 153l-53 53l-151 -153l-151 154l-55 -55l152 -154l-151 -153z" />
    <glyph glyph-name="Oslash" unicode="&#xd8;" horiz-adv-x="747" 
d="M42 0h102l37 47q39 -28 88 -43.5t105 -15.5q35 0 67 6t60.5 17.5t53.5 28t46 37.5t37.5 46.5t27.5 55.5t17 63t6 70v77q0 62 -17.5 115.5t-48.5 93.5l82 102h-102l-37 -46q-39 28 -87.5 43t-104.5 15q-35 0 -67 -6t-61 -17.5t-54 -28t-45.5 -37.5t-37 -46.5t-27.5 -55
t-17 -63t-6 -69.5v-77q0 -63 17 -116t48 -93zM170 384q0 108 56.5 168t147.5 60q37 0 69 -10.5t57 -29.5l-304 -380q-13 25 -19.5 56.5t-6.5 68.5v67zM578 384v-67q0 -109 -57 -169t-147 -60q-37 0 -69.5 10.5t-57.5 30.5l305 380q13 -25 19.5 -56.5t6.5 -68.5z" />
    <glyph glyph-name="Ugrave" unicode="&#xd9;" horiz-adv-x="718" 
d="M185 269v431h-110v-439q0 -31 5 -59t14.5 -53t23 -46.5t31 -39t38 -31.5t44 -23.5t49 -14.5t52.5 -5q61 0 111 28t81 74v-91h109v700h-110v-431q0 -81 -49 -132t-121 -51q-71 0 -119.5 49.5t-48.5 133.5zM311 919h-121l134 -138h104z" />
    <glyph glyph-name="Uacute" unicode="&#xda;" horiz-adv-x="718" 
d="M185 269v431h-110v-439q0 -31 5 -59t14.5 -53t23 -46.5t31 -39t38 -31.5t44 -23.5t49 -14.5t52.5 -5q61 0 111 28t81 74v-91h109v700h-110v-431q0 -81 -49 -132t-121 -51q-71 0 -119.5 49.5t-48.5 133.5zM397 919l-116 -138h102l135 138h-121z" />
    <glyph glyph-name="Ucircumflex" unicode="&#xdb;" horiz-adv-x="718" 
d="M185 269v431h-110v-439q0 -31 5 -59t14.5 -53t23 -46.5t31 -39t38 -31.5t44 -23.5t49 -14.5t52.5 -5q61 0 111 28t81 74v-91h109v700h-110v-431q0 -81 -49 -132t-121 -51q-71 0 -119.5 49.5t-48.5 133.5zM282 782l73 82l72 -82h95l-114 138h-105l-115 -138h94z" />
    <glyph glyph-name="Udieresis" unicode="&#xdc;" horiz-adv-x="718" 
d="M185 269v431h-110v-439q0 -31 5 -59t14.5 -53t23 -46.5t31 -39t38 -31.5t44 -23.5t49 -14.5t52.5 -5q61 0 111 28t81 74v-91h109v700h-110v-431q0 -81 -49 -132t-121 -51q-71 0 -119.5 49.5t-48.5 133.5zM257 784q26 0 44 18.5t18 43.5q0 27 -18 45.5t-44 18.5t-45 -18.5
t-19 -45.5q0 -25 19 -43.5t45 -18.5zM452 784q26 0 44 18.5t18 43.5q0 27 -18 45.5t-44 18.5t-45 -18.5t-19 -45.5q0 -25 19 -43.5t45 -18.5z" />
    <glyph glyph-name="Yacute" unicode="&#xdd;" horiz-adv-x="648" 
d="M379 0v285l272 415h-129l-197 -305l-195 305h-133l272 -415v-285h110zM367 919l-116 -138h102l135 138h-121z" />
    <glyph glyph-name="Thorn" unicode="&#xde;" horiz-adv-x="612" 
d="M195 700h-110v-700h110v138h162q23 0 44.5 4t41 12t37 19.5t32 26t26 31t19.5 35.5t12.5 40t4.5 43t-4.5 43t-12.5 40.5t-19.5 36.5t-26 31.5t-32 25.5t-37 19.5t-41 12.5t-44.5 4h-162v138zM346 465q51 0 83.5 -34t32.5 -83t-32.5 -83t-83.5 -34h-151v234h151z" />
    <glyph glyph-name="germandbls" unicode="&#xdf;" horiz-adv-x="683" 
d="M407 385l72 43q38 22 59.5 52t21.5 77q0 19 -4.5 36.5t-13 33t-20.5 29.5t-27.5 25.5t-33.5 20.5t-39 15t-43.5 9.5t-47.5 3.5q-27 0 -52.5 -4t-48.5 -12.5t-43 -20.5t-37 -27.5t-30 -35t-22 -42.5t-14 -49.5t-5 -55.5v-483h107v483q0 70 40.5 112t104.5 42
q54 0 88.5 -24.5t34.5 -60.5q0 -21 -11.5 -37.5t-34.5 -30.5l-54 -33q-36 -22 -54.5 -46.5t-18.5 -63.5q0 -47 31.5 -75.5t92.5 -46.5l72 -22q31 -9 46 -24t15 -38q0 -28 -20.5 -46.5t-58.5 -18.5t-64.5 20t-34.5 55h-101q13 -66 65 -111t138 -45q83 0 131 43.5t48 109.5
q0 54 -34 88.5t-100 55.5l-82 26q-21 7 -33 14.5t-12 22.5q0 10 7 19t20 17z" />
    <glyph glyph-name="agrave" unicode="&#xe0;" horiz-adv-x="557" 
d="M35 149q0 -69 51 -114t128 -45q50 0 90.5 23.5t63.5 63.5q7 -35 34 -56t69 -21h53v93h-26q-16 0 -24 8t-8 23v237q0 81 -52 130t-138 49q-59 0 -109.5 -18.5t-92.5 -52.5l48 -78q34 27 68 39.5t71 12.5q48 0 74.5 -25t26.5 -70v-34l-156 -10q-79 -5 -125 -44.5
t-46 -110.5zM138 151q0 33 21.5 51t60.5 21l142 11v-48q0 -46 -37.5 -78.5t-89.5 -32.5q-43 0 -70 21t-27 55zM225 748h-121l134 -138h104z" />
    <glyph glyph-name="aacute" unicode="&#xe1;" horiz-adv-x="557" 
d="M35 149q0 -69 51 -114t128 -45q50 0 90.5 23.5t63.5 63.5q7 -35 34 -56t69 -21h53v93h-26q-16 0 -24 8t-8 23v237q0 81 -52 130t-138 49q-59 0 -109.5 -18.5t-92.5 -52.5l48 -78q34 27 68 39.5t71 12.5q48 0 74.5 -25t26.5 -70v-34l-156 -10q-79 -5 -125 -44.5
t-46 -110.5zM138 151q0 33 21.5 51t60.5 21l142 11v-48q0 -46 -37.5 -78.5t-89.5 -32.5q-43 0 -70 21t-27 55zM311 748l-116 -138h102l135 138h-121z" />
    <glyph glyph-name="acircumflex" unicode="&#xe2;" horiz-adv-x="557" 
d="M35 149q0 -69 51 -114t128 -45q50 0 90.5 23.5t63.5 63.5q7 -35 34 -56t69 -21h53v93h-26q-16 0 -24 8t-8 23v237q0 81 -52 130t-138 49q-59 0 -109.5 -18.5t-92.5 -52.5l48 -78q34 27 68 39.5t71 12.5q48 0 74.5 -25t26.5 -70v-34l-156 -10q-79 -5 -125 -44.5
t-46 -110.5zM138 151q0 33 21.5 51t60.5 21l142 11v-48q0 -46 -37.5 -78.5t-89.5 -32.5q-43 0 -70 21t-27 55zM196 611l73 82l72 -82h95l-114 138h-105l-115 -138h94z" />
    <glyph glyph-name="atilde" unicode="&#xe3;" horiz-adv-x="557" 
d="M35 149q0 -69 51 -114t128 -45q50 0 90.5 23.5t63.5 63.5q7 -35 34 -56t69 -21h53v93h-26q-16 0 -24 8t-8 23v237q0 81 -52 130t-138 49q-59 0 -109.5 -18.5t-92.5 -52.5l48 -78q34 27 68 39.5t71 12.5q48 0 74.5 -25t26.5 -70v-34l-156 -10q-79 -5 -125 -44.5
t-46 -110.5zM138 151q0 33 21.5 51t60.5 21l142 11v-48q0 -46 -37.5 -78.5t-89.5 -32.5q-43 0 -70 21t-27 55zM202 736q-37 0 -62.5 -28.5t-39.5 -85.5l68 -14q10 34 19 46t22 12q5 0 10.5 -2t11.5 -5t12.5 -7t13.5 -8.5t14.5 -9t15 -8.5t15 -7t15 -5t14.5 -2q37 0 63 28.5
t40 85.5l-68 15q-10 -34 -19.5 -46t-22.5 -12q-5 0 -10.5 2t-11.5 5t-12.5 7t-13.5 8.5t-14.5 8.5l-15 8t-15 7t-15 5t-14.5 2z" />
    <glyph glyph-name="adieresis" unicode="&#xe4;" horiz-adv-x="557" 
d="M35 149q0 -69 51 -114t128 -45q50 0 90.5 23.5t63.5 63.5q7 -35 34 -56t69 -21h53v93h-26q-16 0 -24 8t-8 23v237q0 81 -52 130t-138 49q-59 0 -109.5 -18.5t-92.5 -52.5l48 -78q34 27 68 39.5t71 12.5q48 0 74.5 -25t26.5 -70v-34l-156 -10q-79 -5 -125 -44.5
t-46 -110.5zM138 151q0 33 21.5 51t60.5 21l142 11v-48q0 -46 -37.5 -78.5t-89.5 -32.5q-43 0 -70 21t-27 55zM171 613q26 0 44 18.5t18 43.5q0 27 -18 45.5t-44 18.5t-45 -18.5t-19 -45.5q0 -25 19 -43.5t45 -18.5zM366 613q26 0 44 18.5t18 43.5q0 27 -18 45.5t-44 18.5
t-45 -18.5t-19 -45.5q0 -25 19 -43.5t45 -18.5z" />
    <glyph glyph-name="aring" unicode="&#xe5;" horiz-adv-x="557" 
d="M35 149q0 -69 51 -114t128 -45q50 0 90.5 23.5t63.5 63.5q7 -35 34 -56t69 -21h53v93h-26q-16 0 -24 8t-8 23v237q0 81 -52 130t-138 49q-59 0 -109.5 -18.5t-92.5 -52.5l48 -78q34 27 68 39.5t71 12.5q48 0 74.5 -25t26.5 -70v-34l-156 -10q-79 -5 -125 -44.5
t-46 -110.5zM138 151q0 33 21.5 51t60.5 21l142 11v-48q0 -46 -37.5 -78.5t-89.5 -32.5q-43 0 -70 21t-27 55zM268 589q46 0 78 32t32 77q0 44 -32 75.5t-78 31.5t-78 -31.5t-32 -75.5q0 -46 32 -77.5t78 -31.5zM268 639q-25 0 -41.5 17t-16.5 42q0 23 16.5 40t41.5 17
t41.5 -17t16.5 -40q0 -24 -16.5 -41.5t-41.5 -17.5z" />
    <glyph glyph-name="ae" unicode="&#xe6;" horiz-adv-x="871" 
d="M811 81l-67 62q-28 -31 -61 -46.5t-72 -15.5q-61 0 -99 41t-38 110v1h347v66q0 27 -4 51.5t-12 46.5t-19 41t-25.5 35t-32 28.5t-37 21.5t-41.5 13.5t-46 4.5q-53 0 -96.5 -21t-73.5 -58q-22 37 -62 57.5t-93 20.5q-59 0 -109.5 -18.5t-92.5 -52.5l48 -78q34 27 68 39.5
t71 12.5q49 0 76.5 -25t27.5 -70v-35l-159 -10q-79 -5 -125 -44.5t-46 -109.5q0 -69 53.5 -114.5t133.5 -45.5q66 0 116 29t76 77q29 -49 78.5 -77.5t112.5 -28.5q65 0 115.5 24t87.5 68zM600 448q51 0 84.5 -36t35.5 -97h-245q4 62 38 97.5t87 35.5zM141 151
q0 31 21.5 49.5t60.5 20.5l145 11v-48q0 -46 -37.5 -77.5t-91.5 -31.5q-43 0 -70.5 21t-27.5 55z" />
    <glyph glyph-name="ccedilla" unicode="&#xe7;" horiz-adv-x="547" 
d="M390 -135q0 34 -23.5 57t-63.5 27l15 42q75 8 128 59t66 130h-103q-12 -46 -43.5 -72t-77.5 -26q-60 0 -94.5 42t-34.5 112v57q0 70 34.5 112.5t94.5 42.5q46 0 77 -26.5t43 -72.5h104q-15 88 -75.5 140t-148.5 52q-26 0 -49.5 -4.5t-45 -13t-40 -20.5t-34 -28
t-27.5 -35.5t-20.5 -41.5t-13 -47t-4.5 -53v-66q0 -102 57 -166.5t147 -74.5l-26 -85h38q23 0 38 -11t15 -30q0 -16 -13.5 -28t-35.5 -12q-19 0 -34.5 7.5t-28.5 23.5l-46 -37q17 -23 47.5 -36.5t65.5 -13.5q48 0 80 27.5t32 68.5z" />
    <glyph glyph-name="egrave" unicode="&#xe8;" horiz-adv-x="554" 
d="M54 233q0 -27 4.5 -52t13 -47.5t21 -42t28 -35.5t34.5 -28.5t40.5 -21t46 -13t50.5 -4.5q65 0 115 24t87 68l-67 62q-28 -31 -60.5 -46.5t-71.5 -15.5q-62 0 -99 40.5t-38 109.5h346v68q0 27 -4 51.5t-12 46.5t-19 41t-25.5 35t-32 28.5t-37 21.5t-41.5 13.5t-46 4.5
q-102 0 -167.5 -68t-65.5 -177v-63zM283 448q52 0 85 -36t35 -98h-244q4 63 37.5 98.5t86.5 35.5zM242 749h-121l134 -138h104z" />
    <glyph glyph-name="eacute" unicode="&#xe9;" horiz-adv-x="554" 
d="M54 233q0 -27 4.5 -52t13 -47.5t21 -42t28 -35.5t34.5 -28.5t40.5 -21t46 -13t50.5 -4.5q65 0 115 24t87 68l-67 62q-28 -31 -60.5 -46.5t-71.5 -15.5q-62 0 -99 40.5t-38 109.5h346v68q0 27 -4 51.5t-12 46.5t-19 41t-25.5 35t-32 28.5t-37 21.5t-41.5 13.5t-46 4.5
q-102 0 -167.5 -68t-65.5 -177v-63zM283 448q52 0 85 -36t35 -98h-244q4 63 37.5 98.5t86.5 35.5zM328 749l-116 -138h102l135 138h-121z" />
    <glyph glyph-name="ecircumflex" unicode="&#xea;" horiz-adv-x="554" 
d="M54 233q0 -27 4.5 -52t13 -47.5t21 -42t28 -35.5t34.5 -28.5t40.5 -21t46 -13t50.5 -4.5q65 0 115 24t87 68l-67 62q-28 -31 -60.5 -46.5t-71.5 -15.5q-62 0 -99 40.5t-38 109.5h346v68q0 27 -4 51.5t-12 46.5t-19 41t-25.5 35t-32 28.5t-37 21.5t-41.5 13.5t-46 4.5
q-102 0 -167.5 -68t-65.5 -177v-63zM283 448q52 0 85 -36t35 -98h-244q4 63 37.5 98.5t86.5 35.5zM213 611l73 82l72 -82h95l-114 138h-105l-115 -138h94z" />
    <glyph glyph-name="edieresis" unicode="&#xeb;" horiz-adv-x="554" 
d="M54 233q0 -27 4.5 -52t13 -47.5t21 -42t28 -35.5t34.5 -28.5t40.5 -21t46 -13t50.5 -4.5q65 0 115 24t87 68l-67 62q-28 -31 -60.5 -46.5t-71.5 -15.5q-62 0 -99 40.5t-38 109.5h346v68q0 27 -4 51.5t-12 46.5t-19 41t-25.5 35t-32 28.5t-37 21.5t-41.5 13.5t-46 4.5
q-102 0 -167.5 -68t-65.5 -177v-63zM283 448q52 0 85 -36t35 -98h-244q4 63 37.5 98.5t86.5 35.5zM189 614q26 0 44 18.5t18 43.5q0 27 -18 45.5t-44 18.5t-45 -18.5t-19 -45.5q0 -25 19 -43.5t45 -18.5zM384 614q26 0 44 18.5t18 43.5q0 27 -18 45.5t-44 18.5t-45 -18.5
t-19 -45.5q0 -25 19 -43.5t45 -18.5z" />
    <glyph glyph-name="igrave" unicode="&#xec;" horiz-adv-x="264" 
d="M185 529h-106v-529h106v529zM89 749h-121l134 -138h104z" />
    <glyph glyph-name="iacute" unicode="&#xed;" horiz-adv-x="264" 
d="M185 529h-106v-529h106v529zM175 749l-116 -138h102l135 138h-121z" />
    <glyph glyph-name="icircumflex" unicode="&#xee;" horiz-adv-x="264" 
d="M185 529h-106v-529h106v529zM60 611l73 82l72 -82h95l-114 138h-105l-115 -138h94z" />
    <glyph glyph-name="idieresis" unicode="&#xef;" horiz-adv-x="264" 
d="M185 529h-106v-529h106v529zM35 614q26 0 44 18.5t18 43.5q0 27 -18 45.5t-44 18.5t-45 -18.5t-19 -45.5q0 -25 19 -43.5t45 -18.5zM230 614q26 0 44 18.5t18 43.5q0 27 -18 45.5t-44 18.5t-45 -18.5t-19 -45.5q0 -25 19 -43.5t45 -18.5z" />
    <glyph glyph-name="eth" unicode="&#xf0;" horiz-adv-x="586" 
d="M54 228q0 -27 4.5 -52t13 -46.5t21 -40.5t28.5 -35t35 -28t40.5 -20t46 -12.5t50.5 -4.5t50 4.5t46 12.5t41 20.5t35 28.5t28.5 35.5t21 42t13 48t4.5 54.5v84q0 102 -32.5 189.5t-95.5 153.5l85 54l-40 56l-98 -63q-28 21 -59 38.5t-66 30.5l-39 -79q22 -8 43 -18.5
t40 -23.5l-69 -44l40 -56l84 54q32 -33 55 -73t36 -84q-26 31 -63 48.5t-83 17.5q-23 0 -44.5 -4t-41.5 -12.5t-37 -20t-31.5 -27t-26 -34t-19.5 -39.5t-12 -45.5t-4 -50.5v-59zM427 233q0 -69 -36 -110t-98 -41q-63 0 -98.5 41t-35.5 110v50q0 69 35.5 110t98.5 41
q62 0 98 -41t36 -110v-50z" />
    <glyph glyph-name="ntilde" unicode="&#xf1;" 
d="M535 345q0 21 -3.5 40t-10 36.5t-16 33.5t-22 29t-27 23.5t-32 17.5t-36.5 11t-40 4q-54 0 -97.5 -28t-65.5 -77v94h-106v-529h106v318q0 54 35.5 90.5t89.5 36.5t86.5 -36t32.5 -87v-322h106v345zM241 737q-37 0 -62.5 -28.5t-39.5 -85.5l68 -14q10 34 19 46t22 12
q5 0 10.5 -2t11.5 -5t12.5 -7t13.5 -8.5t14.5 -9t15 -8.5t15 -7t15 -5t14.5 -2q37 0 63 28.5t40 85.5l-68 15q-10 -34 -19.5 -46t-22.5 -12q-5 0 -10.5 2t-11.5 5t-12.5 7t-13.5 8.5t-14.5 8.5l-15 8t-15 7t-15 5t-14.5 2z" />
    <glyph glyph-name="ograve" unicode="&#xf2;" horiz-adv-x="583" 
d="M529 232v66q0 28 -4.5 53t-13 47.5t-21 41.5t-28.5 35t-35 28t-40.5 20.5t-45.5 13t-50 4.5t-50 -4.5t-45.5 -13t-40 -20.5t-34.5 -28t-28.5 -35.5t-21 -41.5t-13 -47t-4.5 -53v-66q0 -28 4.5 -53t13 -47.5t21 -41.5t28.5 -35t35 -28t40.5 -20.5t45 -13t49.5 -4.5t50 4.5
t45.5 13t40.5 20.5t35 28t28.5 35t21 41.5t13 47.5t4.5 53zM424 293v-57q0 -70 -35.5 -112t-97.5 -42q-61 0 -96.5 42t-35.5 112v57q0 70 35.5 112.5t96.5 42.5q62 0 97.5 -42.5t35.5 -112.5zM248 748h-121l134 -138h104z" />
    <glyph glyph-name="oacute" unicode="&#xf3;" horiz-adv-x="583" 
d="M529 232v66q0 28 -4.5 53t-13 47.5t-21 41.5t-28.5 35t-35 28t-40.5 20.5t-45.5 13t-50 4.5t-50 -4.5t-45.5 -13t-40 -20.5t-34.5 -28t-28.5 -35.5t-21 -41.5t-13 -47t-4.5 -53v-66q0 -28 4.5 -53t13 -47.5t21 -41.5t28.5 -35t35 -28t40.5 -20.5t45 -13t49.5 -4.5t50 4.5
t45.5 13t40.5 20.5t35 28t28.5 35t21 41.5t13 47.5t4.5 53zM424 293v-57q0 -70 -35.5 -112t-97.5 -42q-61 0 -96.5 42t-35.5 112v57q0 70 35.5 112.5t96.5 42.5q62 0 97.5 -42.5t35.5 -112.5zM334 748l-116 -138h102l135 138h-121z" />
    <glyph glyph-name="ocircumflex" unicode="&#xf4;" horiz-adv-x="583" 
d="M529 232v66q0 28 -4.5 53t-13 47.5t-21 41.5t-28.5 35t-35 28t-40.5 20.5t-45.5 13t-50 4.5t-50 -4.5t-45.5 -13t-40 -20.5t-34.5 -28t-28.5 -35.5t-21 -41.5t-13 -47t-4.5 -53v-66q0 -28 4.5 -53t13 -47.5t21 -41.5t28.5 -35t35 -28t40.5 -20.5t45 -13t49.5 -4.5t50 4.5
t45.5 13t40.5 20.5t35 28t28.5 35t21 41.5t13 47.5t4.5 53zM424 293v-57q0 -70 -35.5 -112t-97.5 -42q-61 0 -96.5 42t-35.5 112v57q0 70 35.5 112.5t96.5 42.5q62 0 97.5 -42.5t35.5 -112.5zM219 611l73 82l72 -82h95l-114 138h-105l-115 -138h94z" />
    <glyph glyph-name="otilde" unicode="&#xf5;" horiz-adv-x="583" 
d="M529 232v66q0 28 -4.5 53t-13 47.5t-21 41.5t-28.5 35t-35 28t-40.5 20.5t-45.5 13t-50 4.5t-50 -4.5t-45.5 -13t-40 -20.5t-34.5 -28t-28.5 -35.5t-21 -41.5t-13 -47t-4.5 -53v-66q0 -28 4.5 -53t13 -47.5t21 -41.5t28.5 -35t35 -28t40.5 -20.5t45 -13t49.5 -4.5t50 4.5
t45.5 13t40.5 20.5t35 28t28.5 35t21 41.5t13 47.5t4.5 53zM424 293v-57q0 -70 -35.5 -112t-97.5 -42q-61 0 -96.5 42t-35.5 112v57q0 70 35.5 112.5t96.5 42.5q62 0 97.5 -42.5t35.5 -112.5zM225 736q-37 0 -62.5 -28.5t-39.5 -85.5l68 -14q10 34 19 46t22 12q5 0 10.5 -2
t11.5 -5t12.5 -7t13.5 -8.5t14.5 -9t15 -8.5t15 -7t15 -5t14.5 -2q37 0 63 28.5t40 85.5l-68 15q-10 -34 -19.5 -46t-22.5 -12q-5 0 -10.5 2t-11.5 5t-12.5 7t-13.5 8.5t-14.5 8.5l-15 8t-15 7t-15 5t-14.5 2z" />
    <glyph glyph-name="odieresis" unicode="&#xf6;" horiz-adv-x="583" 
d="M529 232v66q0 28 -4.5 53t-13 47.5t-21 41.5t-28.5 35t-35 28t-40.5 20.5t-45.5 13t-50 4.5t-50 -4.5t-45.5 -13t-40 -20.5t-34.5 -28t-28.5 -35.5t-21 -41.5t-13 -47t-4.5 -53v-66q0 -28 4.5 -53t13 -47.5t21 -41.5t28.5 -35t35 -28t40.5 -20.5t45 -13t49.5 -4.5t50 4.5
t45.5 13t40.5 20.5t35 28t28.5 35t21 41.5t13 47.5t4.5 53zM424 293v-57q0 -70 -35.5 -112t-97.5 -42q-61 0 -96.5 42t-35.5 112v57q0 70 35.5 112.5t96.5 42.5q62 0 97.5 -42.5t35.5 -112.5zM194 613q26 0 44 18.5t18 43.5q0 27 -18 45.5t-44 18.5t-45 -18.5t-19 -45.5
q0 -25 19 -43.5t45 -18.5zM389 613q26 0 44 18.5t18 43.5q0 27 -18 45.5t-44 18.5t-45 -18.5t-19 -45.5q0 -25 19 -43.5t45 -18.5z" />
    <glyph glyph-name="divide" unicode="&#xf7;" horiz-adv-x="550" 
d="M275 621q-26 0 -45 -19t-19 -46t19 -46t45 -19q27 0 46 19t19 46t-19 46t-46 19zM493 323v79h-436v-79h436zM275 231q-26 0 -45 -19t-19 -46t19 -46t45 -19q27 0 46 19t19 46t-19 46t-46 19z" />
    <glyph glyph-name="oslash" unicode="&#xf8;" horiz-adv-x="586" 
d="M38 0h82l27 33q29 -21 65.5 -32.5t78.5 -11.5q26 0 50 4.5t45.5 13t40.5 20.5t35 28t28.5 35t21 41.5t13 47.5t4.5 53v66q0 46 -12 84.5t-34 68.5l62 78h-82l-26 -32q-29 21 -66 32.5t-80 11.5q-26 0 -50 -4.5t-45.5 -13t-40 -20.5t-34.5 -28t-28.5 -35.5t-21 -41.5
t-13 -47t-4.5 -53v-66q0 -46 12.5 -84.5t34.5 -69.5zM159 236v57q0 70 35.5 112.5t96.5 42.5q25 0 46.5 -7.5t37.5 -21.5l-204 -254q-6 16 -9 33.5t-3 37.5zM424 293v-57q0 -70 -35.5 -112t-97.5 -42q-25 0 -46 7.5t-37 20.5l204 254q6 -16 9 -33.5t3 -37.5z" />
    <glyph glyph-name="ugrave" unicode="&#xf9;" 
d="M79 185q0 -21 3.5 -40t10 -37t16.5 -33.5t22 -29t27 -23.5t32.5 -17.5t36.5 -11.5t40 -4q52 0 95.5 27.5t66.5 76.5v-93h106v529h-106v-318q0 -54 -35.5 -90.5t-89.5 -36.5q-53 0 -86 36t-33 88v321h-106v-344zM264 749h-121l134 -138h104z" />
    <glyph glyph-name="uacute" unicode="&#xfa;" 
d="M79 185q0 -21 3.5 -40t10 -37t16.5 -33.5t22 -29t27 -23.5t32.5 -17.5t36.5 -11.5t40 -4q52 0 95.5 27.5t66.5 76.5v-93h106v529h-106v-318q0 -54 -35.5 -90.5t-89.5 -36.5q-53 0 -86 36t-33 88v321h-106v-344zM350 749l-116 -138h102l135 138h-121z" />
    <glyph glyph-name="ucircumflex" unicode="&#xfb;" 
d="M79 185q0 -21 3.5 -40t10 -37t16.5 -33.5t22 -29t27 -23.5t32.5 -17.5t36.5 -11.5t40 -4q52 0 95.5 27.5t66.5 76.5v-93h106v529h-106v-318q0 -54 -35.5 -90.5t-89.5 -36.5q-53 0 -86 36t-33 88v321h-106v-344zM235 611l73 82l72 -82h95l-114 138h-105l-115 -138h94z" />
    <glyph glyph-name="udieresis" unicode="&#xfc;" 
d="M79 185q0 -21 3.5 -40t10 -37t16.5 -33.5t22 -29t27 -23.5t32.5 -17.5t36.5 -11.5t40 -4q52 0 95.5 27.5t66.5 76.5v-93h106v529h-106v-318q0 -54 -35.5 -90.5t-89.5 -36.5q-53 0 -86 36t-33 88v321h-106v-344zM211 614q26 0 44 18.5t18 43.5q0 27 -18 45.5t-44 18.5
t-45 -18.5t-19 -45.5q0 -25 19 -43.5t45 -18.5zM406 614q26 0 44 18.5t18 43.5q0 27 -18 45.5t-44 18.5t-45 -18.5t-19 -45.5q0 -25 19 -43.5t45 -18.5z" />
    <glyph glyph-name="yacute" unicode="&#xfd;" horiz-adv-x="533" 
d="M193 -66q-12 -31 -29.5 -46t-46.5 -15h-55v-91h72q57 0 91 25.5t58 85.5l248 636h-111l-149 -391l-154 391h-114l215 -529zM310 748l-116 -138h102l135 138h-121z" />
    <glyph glyph-name="thorn" unicode="&#xfe;" horiz-adv-x="615" 
d="M79 737v-955h106v291q28 -40 69.5 -62t92.5 -22q23 0 44.5 4.5t41 12.5t37 20t31.5 28t25.5 35t19.5 40.5t12 46.5t4 52v73q0 27 -4 52t-12 47t-19.5 41t-25.5 34.5t-31.5 27.5t-37 20.5t-41 13t-44.5 4.5q-51 0 -92.5 -22.5t-69.5 -62.5v281h-106zM185 236v57
q0 70 36.5 112.5t99.5 42.5t99.5 -42.5t36.5 -112.5v-57q0 -70 -36.5 -112t-99.5 -42t-99.5 42t-36.5 112z" />
    <glyph glyph-name="ydieresis" unicode="&#xff;" horiz-adv-x="533" 
d="M193 -66q-12 -31 -29.5 -46t-46.5 -15h-55v-91h72q57 0 91 25.5t58 85.5l248 636h-111l-149 -391l-154 391h-114l215 -529zM170 613q26 0 44 18.5t18 43.5q0 27 -18 45.5t-44 18.5t-45 -18.5t-19 -45.5q0 -25 19 -43.5t45 -18.5zM365 613q26 0 44 18.5t18 43.5
q0 27 -18 45.5t-44 18.5t-45 -18.5t-19 -45.5q0 -25 19 -43.5t45 -18.5z" />
    <glyph glyph-name="Amacron" unicode="&#x100;" horiz-adv-x="670" 
d="M402 700h-133l-268 -700h113l67 182h303l67 -182h118zM216 278l116 316l116 -316h-232zM464 876h-259v-71h259v71z" />
    <glyph glyph-name="amacron" unicode="&#x101;" horiz-adv-x="557" 
d="M35 149q0 -69 51 -114t128 -45q50 0 90.5 23.5t63.5 63.5q7 -35 34 -56t69 -21h53v93h-26q-16 0 -24 8t-8 23v237q0 81 -52 130t-138 49q-59 0 -109.5 -18.5t-92.5 -52.5l48 -78q34 27 68 39.5t71 12.5q48 0 74.5 -25t26.5 -70v-34l-156 -10q-79 -5 -125 -44.5
t-46 -110.5zM138 151q0 33 21.5 51t60.5 21l142 11v-48q0 -46 -37.5 -78.5t-89.5 -32.5q-43 0 -70 21t-27 55zM397 705h-259v-71h259v71z" />
    <glyph glyph-name="Abreve" unicode="&#x102;" horiz-adv-x="670" 
d="M402 700h-133l-268 -700h113l67 182h303l67 -182h118zM216 278l116 316l116 -316h-232zM335 844q-25 0 -49 15t-38 58l-71 -21q16 -57 60 -88t98 -31t98 31t60 88l-71 21q-14 -43 -38 -58t-49 -15z" />
    <glyph glyph-name="abreve" unicode="&#x103;" horiz-adv-x="557" 
d="M35 149q0 -69 51 -114t128 -45q50 0 90.5 23.5t63.5 63.5q7 -35 34 -56t69 -21h53v93h-26q-16 0 -24 8t-8 23v237q0 81 -52 130t-138 49q-59 0 -109.5 -18.5t-92.5 -52.5l48 -78q34 27 68 39.5t71 12.5q48 0 74.5 -25t26.5 -70v-34l-156 -10q-79 -5 -125 -44.5
t-46 -110.5zM138 151q0 33 21.5 51t60.5 21l142 11v-48q0 -46 -37.5 -78.5t-89.5 -32.5q-43 0 -70 21t-27 55zM268 673q-25 0 -49 15t-38 58l-71 -21q16 -57 60 -88t98 -31t98 31t60 88l-71 21q-14 -43 -38 -58t-49 -15z" />
    <glyph glyph-name="Aogonek" unicode="&#x104;" horiz-adv-x="670" 
d="M668 0l-267 700h-133l-268 -700h113l67 182h303l67 -182h50q-46 -37 -62 -69t-16 -64q0 -37 25.5 -62.5t75.5 -25.5q17 0 33 3t29 8l-11 56q-9 -4 -19 -5.5t-20 -1.5q-22 0 -34.5 12.5t-12.5 34.5t14.5 49.5t65.5 64.5zM215 278l116 316l116 -316h-232z" />
    <glyph glyph-name="aogonek" unicode="&#x105;" horiz-adv-x="557" 
d="M35 149q0 -69 51 -114t128 -45q50 0 90.5 23.5t63.5 63.5q7 -32 30 -52.5t59 -23.5q-47 -37 -63 -69.5t-16 -64.5q0 -37 25.5 -62.5t75.5 -25.5q17 0 33 3t29 8l-11 56q-9 -4 -19 -5.5t-20 -1.5q-22 0 -34.5 12.5t-12.5 34.5t14.5 49.5t65.5 64.5v93h-26q-16 0 -24 8
t-8 23v237q0 81 -52 130t-138 49q-59 0 -109.5 -18.5t-92.5 -52.5l48 -78q34 27 68 39.5t71 12.5q48 0 74.5 -25t26.5 -70v-34l-156 -10q-79 -5 -125 -44.5t-46 -110.5zM138 151q0 33 21.5 51t60.5 21l142 11v-48q0 -46 -37.5 -78.5t-89.5 -32.5q-43 0 -70 21t-27 55z" />
    <glyph glyph-name="Cacute" unicode="&#x106;" horiz-adv-x="698" 
d="M657 451q-4 30 -12.5 57.5t-21 51.5t-28.5 44.5t-35 37.5t-41.5 30t-47 22t-51.5 13.5t-56 4.5q-30 0 -57.5 -4.5t-52.5 -13.5t-48 -22t-42.5 -30t-36 -37.5t-29.5 -44.5t-22 -51t-13.5 -57t-4.5 -63v-77q0 -33 4.5 -63t13.5 -57.5t22 -51.5t29.5 -44.5t36 -37.5
t42.5 -30t48 -22t53 -13.5t57 -4.5q28 0 54.5 4.5t51.5 13.5t47 22t41.5 30t35.5 37.5t29 44.5t21.5 51.5t12.5 57.5h-107q-15 -77 -65.5 -119t-120.5 -42q-84 0 -139.5 59.5t-55.5 167.5v71q0 107 55.5 166.5t139.5 59.5q70 0 120.5 -42t65.5 -119h107zM407 919l-116 -138
h102l135 138h-121z" />
    <glyph glyph-name="cacute" unicode="&#x107;" horiz-adv-x="547" 
d="M288 -11q86 0 147.5 52t76.5 139h-103q-12 -46 -43.5 -72t-77.5 -26q-60 0 -94.5 42t-34.5 112v57q0 70 34.5 112.5t94.5 42.5q46 0 77 -26.5t43 -72.5h104q-15 88 -75.5 140t-148.5 52q-26 0 -49.5 -4.5t-45 -13t-40 -20.5t-34 -28t-27.5 -35.5t-20.5 -41.5t-13 -47
t-4.5 -53v-66q0 -28 4.5 -53t13 -47.5t20.5 -41.5t28 -35t34.5 -28t39.5 -20.5t44.5 -13t49.5 -4.5zM330 748l-116 -138h102l135 138h-121z" />
    <glyph glyph-name="Ccircumflex" unicode="&#x108;" horiz-adv-x="698" 
d="M657 451q-4 30 -12.5 57.5t-21 51.5t-28.5 44.5t-35 37.5t-41.5 30t-47 22t-51.5 13.5t-56 4.5q-30 0 -57.5 -4.5t-52.5 -13.5t-48 -22t-42.5 -30t-36 -37.5t-29.5 -44.5t-22 -51t-13.5 -57t-4.5 -63v-77q0 -33 4.5 -63t13.5 -57.5t22 -51.5t29.5 -44.5t36 -37.5
t42.5 -30t48 -22t53 -13.5t57 -4.5q28 0 54.5 4.5t51.5 13.5t47 22t41.5 30t35.5 37.5t29 44.5t21.5 51.5t12.5 57.5h-107q-15 -77 -65.5 -119t-120.5 -42q-84 0 -139.5 59.5t-55.5 167.5v71q0 107 55.5 166.5t139.5 59.5q70 0 120.5 -42t65.5 -119h107zM292 782l73 82
l72 -82h95l-114 138h-105l-115 -138h94z" />
    <glyph glyph-name="ccircumflex" unicode="&#x109;" horiz-adv-x="547" 
d="M288 -11q86 0 147.5 52t76.5 139h-103q-12 -46 -43.5 -72t-77.5 -26q-60 0 -94.5 42t-34.5 112v57q0 70 34.5 112.5t94.5 42.5q46 0 77 -26.5t43 -72.5h104q-15 88 -75.5 140t-148.5 52q-26 0 -49.5 -4.5t-45 -13t-40 -20.5t-34 -28t-27.5 -35.5t-20.5 -41.5t-13 -47
t-4.5 -53v-66q0 -28 4.5 -53t13 -47.5t20.5 -41.5t28 -35t34.5 -28t39.5 -20.5t44.5 -13t49.5 -4.5zM215 611l73 82l72 -82h95l-114 138h-105l-115 -138h94z" />
    <glyph glyph-name="Cdotaccent" unicode="&#x10a;" horiz-adv-x="698" 
d="M657 451q-4 30 -12.5 57.5t-21 51.5t-28.5 44.5t-35 37.5t-41.5 30t-47 22t-51.5 13.5t-56 4.5q-30 0 -57.5 -4.5t-52.5 -13.5t-48 -22t-42.5 -30t-36 -37.5t-29.5 -44.5t-22 -51t-13.5 -57t-4.5 -63v-77q0 -33 4.5 -63t13.5 -57.5t22 -51.5t29.5 -44.5t36 -37.5
t42.5 -30t48 -22t53 -13.5t57 -4.5q28 0 54.5 4.5t51.5 13.5t47 22t41.5 30t35.5 37.5t29 44.5t21.5 51.5t12.5 57.5h-107q-15 -77 -65.5 -119t-120.5 -42q-84 0 -139.5 59.5t-55.5 167.5v71q0 107 55.5 166.5t139.5 59.5q70 0 120.5 -42t65.5 -119h107zM364 784
q26 0 44.5 18.5t18.5 43.5q0 27 -18.5 45.5t-44.5 18.5t-45 -18.5t-19 -45.5q0 -25 19 -43.5t45 -18.5z" />
    <glyph glyph-name="cdotaccent" unicode="&#x10b;" horiz-adv-x="547" 
d="M288 -11q86 0 147.5 52t76.5 139h-103q-12 -46 -43.5 -72t-77.5 -26q-60 0 -94.5 42t-34.5 112v57q0 70 34.5 112.5t94.5 42.5q46 0 77 -26.5t43 -72.5h104q-15 88 -75.5 140t-148.5 52q-26 0 -49.5 -4.5t-45 -13t-40 -20.5t-34 -28t-27.5 -35.5t-20.5 -41.5t-13 -47
t-4.5 -53v-66q0 -28 4.5 -53t13 -47.5t20.5 -41.5t28 -35t34.5 -28t39.5 -20.5t44.5 -13t49.5 -4.5zM287 613q26 0 44.5 18.5t18.5 43.5q0 27 -18.5 45.5t-44.5 18.5t-45 -18.5t-19 -45.5q0 -25 19 -43.5t45 -18.5z" />
    <glyph glyph-name="Ccaron" unicode="&#x10c;" horiz-adv-x="698" 
d="M657 451q-4 30 -12.5 57.5t-21 51.5t-28.5 44.5t-35 37.5t-41.5 30t-47 22t-51.5 13.5t-56 4.5q-30 0 -57.5 -4.5t-52.5 -13.5t-48 -22t-42.5 -30t-36 -37.5t-29.5 -44.5t-22 -51t-13.5 -57t-4.5 -63v-77q0 -33 4.5 -63t13.5 -57.5t22 -51.5t29.5 -44.5t36 -37.5
t42.5 -30t48 -22t53 -13.5t57 -4.5q28 0 54.5 4.5t51.5 13.5t47 22t41.5 30t35.5 37.5t29 44.5t21.5 51.5t12.5 57.5h-107q-15 -77 -65.5 -119t-120.5 -42q-84 0 -139.5 59.5t-55.5 167.5v71q0 107 55.5 166.5t139.5 59.5q70 0 120.5 -42t65.5 -119h107zM437 919l-72 -82
l-72 82h-95l114 -138h105l115 138h-95z" />
    <glyph glyph-name="ccaron" unicode="&#x10d;" horiz-adv-x="547" 
d="M288 -11q86 0 147.5 52t76.5 139h-103q-12 -46 -43.5 -72t-77.5 -26q-60 0 -94.5 42t-34.5 112v57q0 70 34.5 112.5t94.5 42.5q46 0 77 -26.5t43 -72.5h104q-15 88 -75.5 140t-148.5 52q-26 0 -49.5 -4.5t-45 -13t-40 -20.5t-34 -28t-27.5 -35.5t-20.5 -41.5t-13 -47
t-4.5 -53v-66q0 -28 4.5 -53t13 -47.5t20.5 -41.5t28 -35t34.5 -28t39.5 -20.5t44.5 -13t49.5 -4.5zM360 748l-72 -82l-72 82h-95l114 -138h105l115 138h-95z" />
    <glyph glyph-name="Dcaron" unicode="&#x10e;" horiz-adv-x="716" 
d="M658 312v76q0 35 -5.5 67t-16.5 61t-27 53.5t-36 45t-45 36.5t-53.5 27t-60.5 16.5t-67 5.5h-262v-700h262q35 0 67.5 5.5t61 16.5t53 27t45 36.5t36 45t26.5 53.5t16.5 61t5.5 67zM340 604q95 0 151 -58.5t56 -160.5v-70q0 -103 -56.5 -161t-151.5 -58h-144v508h145z
M432 919l-72 -82l-72 82h-95l114 -138h105l115 138h-95z" />
    <glyph glyph-name="dcaron" unicode="&#x10f;" horiz-adv-x="735" 
d="M626 512h80l42 225h-103zM537 0v737h-106v-284q-27 42 -69 65t-94 23q-23 0 -44.5 -4.5t-41 -13t-36.5 -20.5t-31 -27.5t-25.5 -34.5t-19.5 -41t-12 -47t-4 -52v-73q0 -27 4 -52t12 -46.5t19.5 -40.5t25.5 -35t31 -28t36.5 -20t41 -12.5t44.5 -4.5q53 0 95.5 24t67.5 67
v-80h106zM431 293v-57q0 -70 -36.5 -112t-99.5 -42t-99.5 42t-36.5 112v57q0 70 36.5 112.5t99.5 42.5t99.5 -42.5t36.5 -112.5z" />
    <glyph glyph-name="Dcroat" unicode="&#x110;" horiz-adv-x="729" 
d="M5 303h93v-303h262q35 0 67.5 5.5t61 16.5t53 27t45 36.5t36 45t26.5 53.5t16.5 61t5.5 67v76q0 35 -5.5 67t-16.5 61t-27 53.5t-36 45t-45 36.5t-53.5 27t-60.5 16.5t-67 5.5h-262v-303h-93v-94zM353 604q95 0 151 -58.5t56 -160.5v-70q0 -103 -56.5 -161t-151.5 -58
h-144v207h141v94h-141v207h145z" />
    <glyph glyph-name="dcroat" unicode="&#x111;" horiz-adv-x="615" 
d="M537 0v591h61v74h-61v72h-106v-72h-140v-74h140v-138q-27 42 -69 65t-94 23q-23 0 -44.5 -4.5t-41 -13t-36.5 -20.5t-31 -27.5t-25.5 -34.5t-19.5 -41t-12 -47t-4 -52v-73q0 -27 4 -52t12 -46.5t19.5 -40.5t25.5 -35t31 -28t36.5 -20t41 -12.5t44.5 -4.5q53 0 95.5 24
t67.5 67v-80h106zM431 293v-57q0 -70 -36.5 -112t-99.5 -42t-99.5 42t-36.5 112v57q0 70 36.5 112.5t99.5 42.5t99.5 -42.5t36.5 -112.5z" />
    <glyph glyph-name="Emacron" unicode="&#x112;" horiz-adv-x="601" 
d="M85 0h461v96h-351v207h341v95h-341v206h351v96h-461v-700zM452 876h-259v-71h259v71z" />
    <glyph glyph-name="emacron" unicode="&#x113;" horiz-adv-x="554" 
d="M54 233q0 -27 4.5 -52t13 -47.5t21 -42t28 -35.5t34.5 -28.5t40.5 -21t46 -13t50.5 -4.5q65 0 115 24t87 68l-67 62q-28 -31 -60.5 -46.5t-71.5 -15.5q-62 0 -99 40.5t-38 109.5h346v68q0 27 -4 51.5t-12 46.5t-19 41t-25.5 35t-32 28.5t-37 21.5t-41.5 13.5t-46 4.5
q-102 0 -167.5 -68t-65.5 -177v-63zM283 448q52 0 85 -36t35 -98h-244q4 63 37.5 98.5t86.5 35.5zM414 705h-259v-71h259v71z" />
    <glyph glyph-name="Ebreve" unicode="&#x114;" horiz-adv-x="601" 
d="M85 0h461v96h-351v207h341v95h-341v206h351v96h-461v-700zM323 844q-25 0 -49 15t-38 58l-71 -21q16 -57 60 -88t98 -31t98 31t60 88l-71 21q-14 -43 -38 -58t-49 -15z" />
    <glyph glyph-name="ebreve" unicode="&#x115;" horiz-adv-x="554" 
d="M54 233q0 -27 4.5 -52t13 -47.5t21 -42t28 -35.5t34.5 -28.5t40.5 -21t46 -13t50.5 -4.5q65 0 115 24t87 68l-67 62q-28 -31 -60.5 -46.5t-71.5 -15.5q-62 0 -99 40.5t-38 109.5h346v68q0 27 -4 51.5t-12 46.5t-19 41t-25.5 35t-32 28.5t-37 21.5t-41.5 13.5t-46 4.5
q-102 0 -167.5 -68t-65.5 -177v-63zM283 448q52 0 85 -36t35 -98h-244q4 63 37.5 98.5t86.5 35.5zM285 674q-25 0 -49 15t-38 58l-71 -21q16 -57 60 -88t98 -31t98 31t60 88l-71 21q-14 -43 -38 -58t-49 -15z" />
    <glyph glyph-name="Edotaccent" unicode="&#x116;" horiz-adv-x="601" 
d="M85 0h461v96h-351v207h341v95h-341v206h351v96h-461v-700zM323 784q26 0 44.5 18.5t18.5 43.5q0 27 -18.5 45.5t-44.5 18.5t-45 -18.5t-19 -45.5q0 -25 19 -43.5t45 -18.5z" />
    <glyph glyph-name="edotaccent" unicode="&#x117;" horiz-adv-x="554" 
d="M54 233q0 -27 4.5 -52t13 -47.5t21 -42t28 -35.5t34.5 -28.5t40.5 -21t46 -13t50.5 -4.5q65 0 115 24t87 68l-67 62q-28 -31 -60.5 -46.5t-71.5 -15.5q-62 0 -99 40.5t-38 109.5h346v68q0 27 -4 51.5t-12 46.5t-19 41t-25.5 35t-32 28.5t-37 21.5t-41.5 13.5t-46 4.5
q-102 0 -167.5 -68t-65.5 -177v-63zM283 448q52 0 85 -36t35 -98h-244q4 63 37.5 98.5t86.5 35.5zM285 613q26 0 44.5 18.5t18.5 43.5q0 27 -18.5 45.5t-44.5 18.5t-45 -18.5t-19 -45.5q0 -25 19 -43.5t45 -18.5z" />
    <glyph glyph-name="Eogonek" unicode="&#x118;" horiz-adv-x="601" 
d="M85 0h393q-46 -37 -62 -69t-16 -64q0 -37 25.5 -62.5t75.5 -25.5q17 0 33 3t29 8l-11 56q-9 -4 -19 -5.5t-20 -1.5q-22 0 -34.5 12.5t-12.5 34.5t14.5 49.5t65.5 64.5v96h-351v207h341v95h-341v206h351v96h-461v-700z" />
    <glyph glyph-name="eogonek" unicode="&#x119;" horiz-adv-x="554" 
d="M54 233q0 -107 65.5 -175t167.5 -69q-38 -33 -51.5 -63t-13.5 -59q0 -37 25.5 -62.5t75.5 -25.5q17 0 33 3t29 8l-11 56q-9 -4 -19 -5.5t-20 -1.5q-22 0 -34.5 12.5t-12.5 34.5t14 49t63 63q39 10 71 31t58 52l-67 62q-28 -31 -60.5 -46.5t-71.5 -15.5q-62 0 -99 40.5
t-38 109.5h346v68q0 27 -4 51.5t-12 46.5t-19 41t-25.5 35t-32 28.5t-37 21.5t-41.5 13.5t-46 4.5q-102 0 -167.5 -68t-65.5 -177v-63zM283 448q52 0 85 -36t35 -98h-244q4 63 37.5 98.5t86.5 35.5z" />
    <glyph glyph-name="Ecaron" unicode="&#x11a;" horiz-adv-x="601" 
d="M85 0h461v96h-351v207h341v95h-341v206h351v96h-461v-700zM396 919l-72 -82l-72 82h-95l114 -138h105l115 138h-95z" />
    <glyph glyph-name="ecaron" unicode="&#x11b;" horiz-adv-x="554" 
d="M54 233q0 -27 4.5 -52t13 -47.5t21 -42t28 -35.5t34.5 -28.5t40.5 -21t46 -13t50.5 -4.5q65 0 115 24t87 68l-67 62q-28 -31 -60.5 -46.5t-71.5 -15.5q-62 0 -99 40.5t-38 109.5h346v68q0 27 -4 51.5t-12 46.5t-19 41t-25.5 35t-32 28.5t-37 21.5t-41.5 13.5t-46 4.5
q-102 0 -167.5 -68t-65.5 -177v-63zM283 448q52 0 85 -36t35 -98h-244q4 63 37.5 98.5t86.5 35.5zM358 749l-72 -82l-72 82h-95l114 -138h105l115 138h-95z" />
    <glyph glyph-name="Gcircumflex" unicode="&#x11c;" horiz-adv-x="740" 
d="M58 315q0 -37 5.5 -70t15.5 -63t25 -56t34.5 -47.5t42.5 -38t49.5 -28t56.5 -17.5t63 -6q60 0 117 30t91 88v-107h104v374h-300v-92h196v-22q0 -76 -53 -125t-136 -49q-89 0 -144.5 61t-55.5 168v70q0 105 54.5 165.5t144.5 60.5q63 0 114.5 -34.5t77.5 -94.5l96 45
q-37 87 -112.5 136t-179.5 49q-34 0 -65.5 -6t-59.5 -17.5t-52 -28t-44 -38t-36 -47t-27 -55t-16.5 -63t-5.5 -69.5v-73zM299 781l73 82l72 -82h95l-114 138h-105l-115 -138h94z" />
    <glyph glyph-name="gcircumflex" unicode="&#x11d;" horiz-adv-x="610" 
d="M191 -218h154q84 0 134.5 50t50.5 132v565h-106v-71q-27 39 -68 61t-92 22q-93 0 -152 -67t-59 -174v-66q0 -107 59 -173.5t152 -66.5q51 0 92 21.5t68 60.5v-100q0 -49 -27 -76t-77 -27h-129v-91zM424 293v-54q0 -72 -36.5 -112t-97.5 -40t-97 40t-36 112v54
q0 71 36 113t97 42t97.5 -42t36.5 -113zM222 611l73 82l72 -82h95l-114 138h-105l-115 -138h94z" />
    <glyph glyph-name="Gbreve" unicode="&#x11e;" horiz-adv-x="740" 
d="M58 315q0 -37 5.5 -70t15.5 -63t25 -56t34.5 -47.5t42.5 -38t49.5 -28t56.5 -17.5t63 -6q60 0 117 30t91 88v-107h104v374h-300v-92h196v-22q0 -76 -53 -125t-136 -49q-89 0 -144.5 61t-55.5 168v70q0 105 54.5 165.5t144.5 60.5q63 0 114.5 -34.5t77.5 -94.5l96 45
q-37 87 -112.5 136t-179.5 49q-34 0 -65.5 -6t-59.5 -17.5t-52 -28t-44 -38t-36 -47t-27 -55t-16.5 -63t-5.5 -69.5v-73zM371 843q-25 0 -49 15t-38 58l-71 -21q16 -57 60 -88t98 -31t98 31t60 88l-71 21q-14 -43 -38 -58t-49 -15z" />
    <glyph glyph-name="gbreve" unicode="&#x11f;" horiz-adv-x="610" 
d="M191 -218h154q84 0 134.5 50t50.5 132v565h-106v-71q-27 39 -68 61t-92 22q-93 0 -152 -67t-59 -174v-66q0 -107 59 -173.5t152 -66.5q51 0 92 21.5t68 60.5v-100q0 -49 -27 -76t-77 -27h-129v-91zM424 293v-54q0 -72 -36.5 -112t-97.5 -40t-97 40t-36 112v54
q0 71 36 113t97 42t97.5 -42t36.5 -113zM294 673q-25 0 -49 15t-38 58l-71 -21q16 -57 60 -88t98 -31t98 31t60 88l-71 21q-14 -43 -38 -58t-49 -15z" />
    <glyph glyph-name="Gdotaccent" unicode="&#x120;" horiz-adv-x="740" 
d="M58 315q0 -37 5.5 -70t15.5 -63t25 -56t34.5 -47.5t42.5 -38t49.5 -28t56.5 -17.5t63 -6q60 0 117 30t91 88v-107h104v374h-300v-92h196v-22q0 -76 -53 -125t-136 -49q-89 0 -144.5 61t-55.5 168v70q0 105 54.5 165.5t144.5 60.5q63 0 114.5 -34.5t77.5 -94.5l96 45
q-37 87 -112.5 136t-179.5 49q-34 0 -65.5 -6t-59.5 -17.5t-52 -28t-44 -38t-36 -47t-27 -55t-16.5 -63t-5.5 -69.5v-73zM371 783q26 0 44.5 18.5t18.5 43.5q0 27 -18.5 45.5t-44.5 18.5t-45 -18.5t-19 -45.5q0 -25 19 -43.5t45 -18.5z" />
    <glyph glyph-name="gdotaccent" unicode="&#x121;" horiz-adv-x="610" 
d="M191 -218h154q84 0 134.5 50t50.5 132v565h-106v-71q-27 39 -68 61t-92 22q-93 0 -152 -67t-59 -174v-66q0 -107 59 -173.5t152 -66.5q51 0 92 21.5t68 60.5v-100q0 -49 -27 -76t-77 -27h-129v-91zM424 293v-54q0 -72 -36.5 -112t-97.5 -40t-97 40t-36 112v54
q0 71 36 113t97 42t97.5 -42t36.5 -113zM294 613q26 0 44.5 18.5t18.5 43.5q0 27 -18.5 45.5t-44.5 18.5t-45 -18.5t-19 -45.5q0 -25 19 -43.5t45 -18.5z" />
    <glyph glyph-name="uni0122" unicode="&#x122;" horiz-adv-x="740" 
d="M58 315q0 -37 5.5 -70t15.5 -63t25 -56t34.5 -47.5t42.5 -38t49.5 -28t56.5 -17.5t63 -6q60 0 117 30t91 88v-107h104v374h-300v-92h196v-22q0 -76 -53 -125t-136 -49q-89 0 -144.5 61t-55.5 168v70q0 105 54.5 165.5t144.5 60.5q63 0 114.5 -34.5t77.5 -94.5l96 45
q-37 87 -112.5 136t-179.5 49q-34 0 -65.5 -6t-59.5 -17.5t-52 -28t-44 -38t-36 -47t-27 -55t-16.5 -63t-5.5 -69.5v-73zM314 -234v-42q50 4 81 41.5t31 84.5q0 37 -17 58t-44 21q-20 0 -35.5 -15t-15.5 -34q0 -8 2 -14t5 -11t7 -8.5t8.5 -7t8.5 -6l8 -5t7 -5t5 -5.5t2 -7
q0 -13 -15.5 -27.5t-37.5 -17.5z" />
    <glyph glyph-name="uni0123" unicode="&#x123;" horiz-adv-x="613" 
d="M344 777v42q-50 -4 -81 -41.5t-31 -84.5q0 -37 17 -58t44 -21q20 0 35.5 15t15.5 34q0 8 -2 14t-5 11t-7 8.5l-8 7t-8.5 6t-8.5 5t-7 5t-5 5.5t-2 7q0 13 15.5 27.5t37.5 17.5zM191 -218h154q84 0 134.5 50t50.5 132v565h-106v-71q-27 39 -68 61t-92 22q-93 0 -152 -67
t-59 -174v-66q0 -107 59 -173.5t152 -66.5q51 0 92 21.5t68 60.5v-100q0 -49 -27 -76t-77 -27h-129v-91zM424 293v-54q0 -72 -36.5 -112t-97.5 -40t-97 40t-36 112v54q0 71 36 113t97 42t97.5 -42t36.5 -113z" />
    <glyph glyph-name="Hcircumflex" unicode="&#x124;" horiz-adv-x="730" 
d="M195 0v303h340v-303h110v700h-110v-301h-340v301h-110v-700h110zM293 782l73 82l72 -82h95l-114 138h-105l-115 -138h94z" />
    <glyph glyph-name="hcircumflex" unicode="&#x125;" 
d="M535 345q0 21 -3.5 40t-10 36.5t-16 33.5t-22 29t-27 23.5t-32 17.5t-36.5 11t-40 4q-54 0 -97.5 -28t-65.5 -77v302h-106v-737h106v318q0 54 35.5 90.5t89.5 36.5t86.5 -36t32.5 -87v-322h106v345zM61 818l73 82l72 -82h95l-114 138h-105l-115 -138h94z" />
    <glyph glyph-name="Hbar" unicode="&#x126;" horiz-adv-x="757" 
d="M208 0v303h340v-303h110v504h94v87h-94v109h-110v-109h-340v109h-110v-109h-93v-87h93v-504h110zM208 399v105h340v-105h-340z" />
    <glyph glyph-name="hbar" unicode="&#x127;" horiz-adv-x="628" 
d="M548 345q0 21 -3.5 40t-10 36.5t-16 33.5t-22 29t-27 23.5t-32 17.5t-36.5 11t-40 4q-54 0 -97.5 -28t-65.5 -77v156h139v74h-139v72h-106v-72h-62v-74h62v-591h106v318q0 54 35.5 90.5t89.5 36.5t86.5 -36t32.5 -87v-322h106v345z" />
    <glyph glyph-name="Itilde" unicode="&#x128;" horiz-adv-x="279" 
d="M195 0v700h-110v-700h110zM73 907q-37 0 -62.5 -28.5t-39.5 -85.5l68 -14q10 34 19 46t22 12q5 0 10.5 -2t11.5 -5t12.5 -7t13.5 -8.5t14.5 -9t15 -8.5t15 -7t15 -5t14.5 -2q37 0 63 28.5t40 85.5l-68 15q-10 -34 -19.5 -46t-22.5 -12q-5 0 -10.5 2t-11.5 5t-12.5 7
t-13.5 8.5t-14.5 8.5l-15 8t-15 7t-15 5t-14.5 2z" />
    <glyph glyph-name="itilde" unicode="&#x129;" horiz-adv-x="264" 
d="M185 529h-106v-529h106v529zM66 737q-37 0 -62.5 -28.5t-39.5 -85.5l68 -14q10 34 19 46t22 12q5 0 10.5 -2t11.5 -5t12.5 -7t13.5 -8.5t14.5 -9t15 -8.5t15 -7t15 -5t14.5 -2q37 0 63 28.5t40 85.5l-68 15q-10 -34 -19.5 -46t-22.5 -12q-5 0 -10.5 2t-11.5 5t-12.5 7
t-13.5 8.5t-14.5 8.5l-15 8t-15 7t-15 5t-14.5 2z" />
    <glyph glyph-name="Imacron" unicode="&#x12a;" horiz-adv-x="279" 
d="M195 0v700h-110v-700h110zM269 876h-259v-71h259v71z" />
    <glyph glyph-name="imacron" unicode="&#x12b;" horiz-adv-x="264" 
d="M185 529h-106v-529h106v529zM261 705h-259v-71h259v71z" />
    <glyph glyph-name="Ibreve" unicode="&#x12c;" horiz-adv-x="279" 
d="M195 0v700h-110v-700h110zM140 844q-25 0 -49 15t-38 58l-71 -21q16 -57 60 -88t98 -31t98 31t60 88l-71 21q-14 -43 -38 -58t-49 -15z" />
    <glyph glyph-name="ibreve" unicode="&#x12d;" horiz-adv-x="264" 
d="M185 529h-106v-529h106v529zM132 674q-25 0 -49 15t-38 58l-71 -21q16 -57 60 -88t98 -31t98 31t60 88l-71 21q-14 -43 -38 -58t-49 -15z" />
    <glyph glyph-name="Iogonek" unicode="&#x12e;" horiz-adv-x="279" 
d="M195 0v700h-110v-700h42q-46 -37 -62 -69t-16 -64q0 -37 25.5 -62.5t75.5 -25.5q17 0 33 3t29 8l-11 56q-9 -4 -19 -5.5t-20 -1.5q-22 0 -34.5 12.5t-12.5 34.5t14.5 49.5t65.5 64.5z" />
    <glyph glyph-name="iogonek" unicode="&#x12f;" horiz-adv-x="264" 
d="M132 616q26 0 45 19t19 45q0 27 -19 45.5t-45 18.5q-25 0 -44.5 -18.5t-19.5 -45.5q0 -26 19.5 -45t44.5 -19zM185 0v529h-106v-529h38q-46 -37 -62 -69t-16 -64q0 -37 25.5 -62.5t75.5 -25.5q17 0 33 3t29 8l-11 56q-9 -4 -19 -5.5t-20 -1.5q-22 0 -34.5 12.5
t-12.5 34.5t14.5 49.5t65.5 64.5z" />
    <glyph glyph-name="Idotaccent" unicode="&#x130;" horiz-adv-x="279" 
d="M195 0v700h-110v-700h110zM140 784q26 0 44.5 18.5t18.5 43.5q0 27 -18.5 45.5t-44.5 18.5t-45 -18.5t-19 -45.5q0 -25 19 -43.5t45 -18.5z" />
    <glyph glyph-name="dotlessi" unicode="&#x131;" horiz-adv-x="264" 
d="M185 529h-106v-529h106v529z" />
    <glyph glyph-name="IJ" unicode="&#x132;" horiz-adv-x="795" 
d="M195 0v700h-110v-700h110zM290 51q35 -32 83 -48t103 -16q26 0 50.5 4.5t46.5 12.5t41.5 20t36 28t29.5 35t22 41.5t14 47.5t5 53v471h-110v-461q0 -72 -40 -112.5t-98 -40.5q-34 0 -65 12.5t-53 33.5z" />
    <glyph glyph-name="ij" unicode="&#x133;" horiz-adv-x="529" 
d="M132 616q26 0 45 19t19 45q0 27 -19 45.5t-45 18.5q-25 0 -44.5 -18.5t-19.5 -45.5q0 -26 19.5 -45t44.5 -19zM185 529h-106v-529h106v529zM396 616q26 0 45 19t19 45q0 27 -19 45.5t-45 18.5q-25 0 -44.5 -18.5t-19.5 -45.5q0 -26 19.5 -45t44.5 -19zM329 -218
q57 0 88.5 32t31.5 80v635h-106v-615q0 -20 -11.5 -30.5t-30.5 -10.5h-33v-91h61z" />
    <glyph glyph-name="Jcircumflex" unicode="&#x134;" horiz-adv-x="516" 
d="M11 51q35 -32 83 -48t103 -16q26 0 50.5 4.5t46.5 12.5t41.5 20t36 28t29.5 35t22 41.5t14 47.5t5 53v471h-110v-461q0 -72 -40 -112.5t-98 -40.5q-34 0 -65 12.5t-53 33.5zM314 782l73 82l72 -82h95l-114 138h-105l-115 -138h94z" />
    <glyph glyph-name="jcircumflex" unicode="&#x135;" horiz-adv-x="264" 
d="M65 -218q57 0 88.5 32t31.5 80v635h-106v-615q0 -20 -11.5 -30.5t-30.5 -10.5h-33v-91h61zM60 611l73 82l72 -82h95l-114 138h-105l-115 -138h94z" />
    <glyph glyph-name="uni0136" unicode="&#x136;" horiz-adv-x="640" 
d="M195 0v312l309 -312h155l-368 358l360 342h-144l-312 -304v304h-110v-700h110zM278 -234v-42q50 4 81 41.5t31 84.5q0 37 -17 58t-44 21q-20 0 -35.5 -15t-15.5 -34q0 -8 2 -14t5 -11t7 -8.5t8.5 -7t8.5 -6l8 -5t7 -5t5 -5.5t2 -7q0 -13 -15.5 -27.5t-37.5 -17.5z" />
    <glyph glyph-name="uni0137" unicode="&#x137;" horiz-adv-x="533" 
d="M529 529h-127l-217 -231v439h-106v-737h106v246l224 -246h138l-262 277zM238 -234v-42q50 4 81 41.5t31 84.5q0 37 -17 58t-44 21q-20 0 -35.5 -15t-15.5 -34q0 -8 2 -14t5 -11t7 -8.5t8.5 -7t8.5 -6l8 -5t7 -5t5 -5.5t2 -7q0 -13 -15.5 -27.5t-37.5 -17.5z" />
    <glyph glyph-name="kgreenlandic" unicode="&#x138;" horiz-adv-x="533" 
d="M185 529h-106v-529h106v246l224 -246h138l-262 277l244 252h-127l-217 -231v231z" />
    <glyph glyph-name="Lacute" unicode="&#x139;" horiz-adv-x="583" 
d="M546 96h-351v604h-110v-700h461v96zM181 919l-116 -138h102l135 138h-121z" />
    <glyph glyph-name="lacute" unicode="&#x13a;" horiz-adv-x="264" 
d="M185 0v737h-106v-737h106zM175 956l-116 -138h102l135 138h-121z" />
    <glyph glyph-name="uni013B" unicode="&#x13b;" horiz-adv-x="583" 
d="M546 96h-351v604h-110v-700h461v96zM267 -234v-42q50 4 81 41.5t31 84.5q0 37 -17 58t-44 21q-20 0 -35.5 -15t-15.5 -34q0 -8 2 -14t5 -11t7 -8.5t8.5 -7t8.5 -6l8 -5t7 -5t5 -5.5t2 -7q0 -13 -15.5 -27.5t-37.5 -17.5z" />
    <glyph glyph-name="uni013C" unicode="&#x13c;" horiz-adv-x="264" 
d="M185 0v737h-106v-737h106zM80 -234v-42q50 4 81 41.5t31 84.5q0 37 -17 58t-44 21q-20 0 -35.5 -15t-15.5 -34q0 -8 2 -14t5 -11t7 -8.5t8.5 -7t8.5 -6l8 -5t7 -5t5 -5.5t2 -7q0 -13 -15.5 -27.5t-37.5 -17.5z" />
    <glyph glyph-name="Lcaron" unicode="&#x13d;" horiz-adv-x="583" 
d="M546 96h-351v604h-110v-700h461v96zM366 475h80l42 225h-103z" />
    <glyph glyph-name="lcaron" unicode="&#x13e;" horiz-adv-x="384" 
d="M275 512h80l42 225h-103zM185 0v737h-106v-737h106z" />
    <glyph glyph-name="Ldot" unicode="&#x13f;" horiz-adv-x="583" 
d="M546 96h-351v604h-110v-700h461v96zM421 307q26 0 44.5 18.5t18.5 43.5q0 27 -18.5 45.5t-44.5 18.5t-45 -18.5t-19 -45.5q0 -25 19 -43.5t45 -18.5z" />
    <glyph glyph-name="ldot" unicode="&#x140;" horiz-adv-x="363" 
d="M185 0v737h-106v-737h106zM313 278q26 0 44.5 18.5t18.5 43.5q0 27 -18.5 45.5t-44.5 18.5t-45 -18.5t-19 -45.5q0 -25 19 -43.5t45 -18.5z" />
    <glyph glyph-name="Lslash" unicode="&#x141;" horiz-adv-x="600" 
d="M20 164l78 61v-225h461v96h-351v215l151 118v95l-151 -118v294h-110v-380l-78 -61v-95z" />
    <glyph glyph-name="lslash" unicode="&#x142;" horiz-adv-x="288" 
d="M195 0v357l83 72v96l-83 -72v284h-106v-376l-81 -71v-95l81 70v-265h106z" />
    <glyph glyph-name="Nacute" unicode="&#x143;" horiz-adv-x="753" 
d="M187 0v545l363 -545h119v700h-103v-543l-363 543h-118v-700h102zM419 919l-116 -138h102l135 138h-121z" />
    <glyph glyph-name="nacute" unicode="&#x144;" 
d="M535 345q0 21 -3.5 40t-10 36.5t-16 33.5t-22 29t-27 23.5t-32 17.5t-36.5 11t-40 4q-54 0 -97.5 -28t-65.5 -77v94h-106v-529h106v318q0 54 35.5 90.5t89.5 36.5t86.5 -36t32.5 -87v-322h106v345zM350 749l-116 -138h102l135 138h-121z" />
    <glyph glyph-name="uni0145" unicode="&#x145;" horiz-adv-x="753" 
d="M187 0v545l363 -545h119v700h-103v-543l-363 543h-118v-700h102zM324 -234v-42q50 4 81 41.5t31 84.5q0 37 -17 58t-44 21q-20 0 -35.5 -15t-15.5 -34q0 -8 2 -14t5 -11t7 -8.5t8.5 -7t8.5 -6l8 -5t7 -5t5 -5.5t2 -7q0 -13 -15.5 -27.5t-37.5 -17.5z" />
    <glyph glyph-name="uni0146" unicode="&#x146;" 
d="M535 345q0 21 -3.5 40t-10 36.5t-16 33.5t-22 29t-27 23.5t-32 17.5t-36.5 11t-40 4q-54 0 -97.5 -28t-65.5 -77v94h-106v-529h106v318q0 54 35.5 90.5t89.5 36.5t86.5 -36t32.5 -87v-322h106v345zM255 -234v-42q50 4 81 41.5t31 84.5q0 37 -17 58t-44 21
q-20 0 -35.5 -15t-15.5 -34q0 -8 2 -14t5 -11t7 -8.5t8.5 -7t8.5 -6l8 -5t7 -5t5 -5.5t2 -7q0 -13 -15.5 -27.5t-37.5 -17.5z" />
    <glyph glyph-name="Ncaron" unicode="&#x147;" horiz-adv-x="753" 
d="M187 0v545l363 -545h119v700h-103v-543l-363 543h-118v-700h102zM450 919l-72 -82l-72 82h-95l114 -138h105l115 138h-95z" />
    <glyph glyph-name="ncaron" unicode="&#x148;" 
d="M535 345q0 21 -3.5 40t-10 36.5t-16 33.5t-22 29t-27 23.5t-32 17.5t-36.5 11t-40 4q-54 0 -97.5 -28t-65.5 -77v94h-106v-529h106v318q0 54 35.5 90.5t89.5 36.5t86.5 -36t32.5 -87v-322h106v345zM380 749l-72 -82l-72 82h-95l114 -138h105l115 138h-95z" />
    <glyph glyph-name="Eng" unicode="&#x14a;" horiz-adv-x="756" 
d="M568 -88q0 -19 -11.5 -29t-30.5 -10h-32v-91h60q57 0 87.5 32t30.5 78v808h-103l-1 -518l-369 518h-114v-700h102l1 540l380 -537v-91z" />
    <glyph glyph-name="eng" unicode="&#x14b;" 
d="M415 -218q57 0 88.5 32t31.5 80v451q0 21 -3.5 40t-10 36.5t-16 33.5t-22 29t-27 23.5t-32 17.5t-36.5 11t-40 4q-54 0 -97.5 -28t-65.5 -77v94h-106v-529h106v318q0 54 35.5 90.5t89.5 36.5t86.5 -36t32.5 -87v-407q0 -20 -11 -30.5t-31 -10.5h-33v-92h61z" />
    <glyph glyph-name="Omacron" unicode="&#x14c;" horiz-adv-x="746" 
d="M58 389v-77q0 -37 6 -70t17 -63t27.5 -55.5t37 -46.5t45.5 -37.5t54 -28t61 -17.5t67 -6t67 6t60.5 17.5t53.5 28t46 37.5t37.5 46.5t27.5 55.5t17 63t6 70v77q0 36 -6 69.5t-17 63t-27.5 55t-37.5 46.5t-46 37.5t-53.5 28t-60.5 17.5t-67 6t-67 -6t-61 -17.5t-54 -28
t-45.5 -37.5t-37 -46.5t-27.5 -55t-17 -63t-6 -69.5zM169 384q0 108 56.5 168t147.5 60t147.5 -60t56.5 -168v-67q0 -109 -57 -169t-147 -60t-147 60t-57 169v67zM502 876h-259v-71h259v71z" />
    <glyph glyph-name="omacron" unicode="&#x14d;" horiz-adv-x="583" 
d="M529 232v66q0 28 -4.5 53t-13 47.5t-21 41.5t-28.5 35t-35 28t-40.5 20.5t-45.5 13t-50 4.5t-50 -4.5t-45.5 -13t-40 -20.5t-34.5 -28t-28.5 -35.5t-21 -41.5t-13 -47t-4.5 -53v-66q0 -28 4.5 -53t13 -47.5t21 -41.5t28.5 -35t35 -28t40.5 -20.5t45 -13t49.5 -4.5t50 4.5
t45.5 13t40.5 20.5t35 28t28.5 35t21 41.5t13 47.5t4.5 53zM424 293v-57q0 -70 -35.5 -112t-97.5 -42q-61 0 -96.5 42t-35.5 112v57q0 70 35.5 112.5t96.5 42.5q62 0 97.5 -42.5t35.5 -112.5zM420 705h-259v-71h259v71z" />
    <glyph glyph-name="Obreve" unicode="&#x14e;" horiz-adv-x="746" 
d="M58 389v-77q0 -37 6 -70t17 -63t27.5 -55.5t37 -46.5t45.5 -37.5t54 -28t61 -17.5t67 -6t67 6t60.5 17.5t53.5 28t46 37.5t37.5 46.5t27.5 55.5t17 63t6 70v77q0 36 -6 69.5t-17 63t-27.5 55t-37.5 46.5t-46 37.5t-53.5 28t-60.5 17.5t-67 6t-67 -6t-61 -17.5t-54 -28
t-45.5 -37.5t-37 -46.5t-27.5 -55t-17 -63t-6 -69.5zM169 384q0 108 56.5 168t147.5 60t147.5 -60t56.5 -168v-67q0 -109 -57 -169t-147 -60t-147 60t-57 169v67zM373 844q-25 0 -49 15t-38 58l-71 -21q16 -57 60 -88t98 -31t98 31t60 88l-71 21q-14 -43 -38 -58t-49 -15z
" />
    <glyph glyph-name="obreve" unicode="&#x14f;" horiz-adv-x="583" 
d="M529 232v66q0 28 -4.5 53t-13 47.5t-21 41.5t-28.5 35t-35 28t-40.5 20.5t-45.5 13t-50 4.5t-50 -4.5t-45.5 -13t-40 -20.5t-34.5 -28t-28.5 -35.5t-21 -41.5t-13 -47t-4.5 -53v-66q0 -28 4.5 -53t13 -47.5t21 -41.5t28.5 -35t35 -28t40.5 -20.5t45 -13t49.5 -4.5t50 4.5
t45.5 13t40.5 20.5t35 28t28.5 35t21 41.5t13 47.5t4.5 53zM424 293v-57q0 -70 -35.5 -112t-97.5 -42q-61 0 -96.5 42t-35.5 112v57q0 70 35.5 112.5t96.5 42.5q62 0 97.5 -42.5t35.5 -112.5zM291 673q-25 0 -49 15t-38 58l-71 -21q16 -57 60 -88t98 -31t98 31t60 88l-71 21
q-14 -43 -38 -58t-49 -15z" />
    <glyph glyph-name="Ohungarumlaut" unicode="&#x150;" horiz-adv-x="746" 
d="M58 389v-77q0 -37 6 -70t17 -63t27.5 -55.5t37 -46.5t45.5 -37.5t54 -28t61 -17.5t67 -6t67 6t60.5 17.5t53.5 28t46 37.5t37.5 46.5t27.5 55.5t17 63t6 70v77q0 36 -6 69.5t-17 63t-27.5 55t-37.5 46.5t-46 37.5t-53.5 28t-60.5 17.5t-67 6t-67 -6t-61 -17.5t-54 -28
t-45.5 -37.5t-37 -46.5t-27.5 -55t-17 -63t-6 -69.5zM169 384q0 108 56.5 168t147.5 60t147.5 -60t56.5 -168v-67q0 -109 -57 -169t-147 -60t-147 60t-57 169v67zM325 919l-115 -138h93l130 138h-108zM509 919l-116 -138h94l129 138h-107z" />
    <glyph glyph-name="ohungarumlaut" unicode="&#x151;" horiz-adv-x="583" 
d="M529 232v66q0 28 -4.5 53t-13 47.5t-21 41.5t-28.5 35t-35 28t-40.5 20.5t-45.5 13t-50 4.5t-50 -4.5t-45.5 -13t-40 -20.5t-34.5 -28t-28.5 -35.5t-21 -41.5t-13 -47t-4.5 -53v-66q0 -28 4.5 -53t13 -47.5t21 -41.5t28.5 -35t35 -28t40.5 -20.5t45 -13t49.5 -4.5t50 4.5
t45.5 13t40.5 20.5t35 28t28.5 35t21 41.5t13 47.5t4.5 53zM424 293v-57q0 -70 -35.5 -112t-97.5 -42q-61 0 -96.5 42t-35.5 112v57q0 70 35.5 112.5t96.5 42.5q62 0 97.5 -42.5t35.5 -112.5zM243 748l-115 -138h93l130 138h-108zM427 748l-116 -138h94l129 138h-107z" />
    <glyph glyph-name="OE" unicode="&#x152;" horiz-adv-x="1014" 
d="M58 388v-76q0 -35 5.5 -67t16.5 -61t27 -53.5t36 -45t45 -36.5t53.5 -27t60.5 -16.5t67 -5.5h590v96h-344v207h334v95h-334v206h344v96h-590q-35 0 -67.5 -5.5t-61 -16.5t-53 -27t-45 -36.5t-36 -45t-26.5 -53.5t-16.5 -61t-5.5 -67zM376 96q-95 0 -151 58.5t-56 160.5
v70q0 103 56.5 161t151.5 58h128v-508h-129z" />
    <glyph glyph-name="oe" unicode="&#x153;" horiz-adv-x="928" 
d="M869 81l-67 62q-28 -31 -60.5 -46.5t-72.5 -15.5q-61 0 -98.5 40.5t-37.5 109.5h347v68q0 27 -4 51.5t-12 46.5t-19.5 41t-26 35t-32 28.5t-37 21.5t-41.5 13.5t-46 4.5q-60 0 -107.5 -26t-76.5 -72q-30 46 -79.5 72t-109.5 26q-26 0 -49.5 -4.5t-45 -13t-40 -20.5
t-34.5 -28t-28 -35.5t-20.5 -41.5t-13 -47t-4.5 -53v-66q0 -28 4.5 -53t13 -47.5t21 -41.5t28 -35t34.5 -28t40 -20.5t45 -13t49 -4.5q61 0 110 26t79 73q30 -46 79 -72.5t110 -26.5q65 0 115 24t87 68zM427 293v-57q0 -70 -36 -112t-98 -42q-63 0 -98.5 42t-35.5 112v57
q0 70 35.5 112.5t98.5 42.5q62 0 98 -42.5t36 -112.5zM658 448q53 0 85.5 -36t34.5 -98h-244q4 63 37.5 98.5t86.5 35.5z" />
    <glyph glyph-name="Racute" unicode="&#x154;" horiz-adv-x="640" 
d="M195 0v288h136l167 -288h125l-180 300q61 21 100 73t39 118q0 22 -4 42.5t-12 39.5t-19.5 35.5t-25.5 31t-31 25.5t-36 19t-40 12t-43 4h-286v-700h110zM355 604q51 0 83.5 -33t32.5 -80q0 -46 -32.5 -79t-83.5 -33h-160v225h160zM360 919l-116 -138h102l135 138h-121z
" />
    <glyph glyph-name="racute" unicode="&#x155;" horiz-adv-x="393" 
d="M366 430v104h-43q-51 0 -86.5 -30t-51.5 -78v103h-106v-529h106v293q0 62 37.5 99.5t88.5 37.5h55zM273 749l-116 -138h102l135 138h-121z" />
    <glyph glyph-name="uni0156" unicode="&#x156;" horiz-adv-x="640" 
d="M195 0v288h136l167 -288h125l-180 300q61 21 100 73t39 118q0 22 -4 42.5t-12 39.5t-19.5 35.5t-25.5 31t-31 25.5t-36 19t-40 12t-43 4h-286v-700h110zM355 604q51 0 83.5 -33t32.5 -80q0 -46 -32.5 -79t-83.5 -33h-160v225h160zM279 -234v-42q50 4 81 41.5t31 84.5
q0 37 -17 58t-44 21q-20 0 -35.5 -15t-15.5 -34q0 -8 2 -14t5 -11t7 -8.5t8.5 -7t8.5 -6l8 -5t7 -5t5 -5.5t2 -7q0 -13 -15.5 -27.5t-37.5 -17.5z" />
    <glyph glyph-name="uni0157" unicode="&#x157;" horiz-adv-x="393" 
d="M366 430v104h-43q-51 0 -86.5 -30t-51.5 -78v103h-106v-529h106v293q0 62 37.5 99.5t88.5 37.5h55zM81 -234v-42q50 4 81 41.5t31 84.5q0 37 -17 58t-44 21q-20 0 -35.5 -15t-15.5 -34q0 -8 2 -14t5 -11t7 -8.5t8.5 -7t8.5 -6l8 -5t7 -5t5 -5.5t2 -7q0 -13 -15.5 -27.5
t-37.5 -17.5z" />
    <glyph glyph-name="Rcaron" unicode="&#x158;" horiz-adv-x="640" 
d="M195 0v288h136l167 -288h125l-180 300q61 21 100 73t39 118q0 22 -4 42.5t-12 39.5t-19.5 35.5t-25.5 31t-31 25.5t-36 19t-40 12t-43 4h-286v-700h110zM355 604q51 0 83.5 -33t32.5 -80q0 -46 -32.5 -79t-83.5 -33h-160v225h160zM390 919l-72 -82l-72 82h-95l114 -138
h105l115 138h-95z" />
    <glyph glyph-name="rcaron" unicode="&#x159;" horiz-adv-x="393" 
d="M366 430v104h-43q-51 0 -86.5 -30t-51.5 -78v103h-106v-529h106v293q0 62 37.5 99.5t88.5 37.5h55zM303 749l-72 -82l-72 82h-95l114 -138h105l115 138h-95z" />
    <glyph glyph-name="Sacute" unicode="&#x15a;" horiz-adv-x="612" 
d="M41 214q2 -25 9 -48t18 -43.5t26 -38.5t33 -32.5t39.5 -26t45.5 -19.5t50 -12t55 -4q112 0 179.5 58.5t67.5 145.5q0 74 -44 121t-138 71l-127 32q-47 12 -72.5 37t-25.5 62q0 46 36 73.5t90 27.5q65 0 105 -34t51 -94h108q-13 99 -84.5 160t-178.5 61q-25 0 -48.5 -3.5
t-45 -10.5t-40.5 -17.5t-34.5 -24t-28 -29.5t-21.5 -34.5t-13.5 -39.5t-4.5 -44q0 -72 44.5 -121t132.5 -70l126 -31q51 -13 77.5 -39t26.5 -63q0 -45 -36 -73.5t-102 -28.5q-71 0 -115 35.5t-53 96.5h-108zM338 919l-116 -138h102l135 138h-121z" />
    <glyph glyph-name="sacute" unicode="&#x15b;" horiz-adv-x="505" 
d="M267 -11q87 0 141 44.5t54 115.5q0 57 -37 95t-108 56l-94 23q-35 9 -54 26t-19 42q0 28 22 46.5t60 18.5q44 0 77 -25.5t42 -65.5h102q-12 79 -73 127.5t-148 48.5q-83 0 -134.5 -44t-51.5 -116q0 -57 36 -94.5t106 -54.5l100 -25q32 -8 51 -25t19 -42q0 -29 -25 -48
t-65 -19q-53 0 -87 25.5t-43 65.5h-101q14 -78 76 -126.5t154 -48.5zM279 749l-116 -138h102l135 138h-121z" />
    <glyph glyph-name="Scircumflex" unicode="&#x15c;" horiz-adv-x="612" 
d="M41 214q2 -25 9 -48t18 -43.5t26 -38.5t33 -32.5t39.5 -26t45.5 -19.5t50 -12t55 -4q112 0 179.5 58.5t67.5 145.5q0 74 -44 121t-138 71l-127 32q-47 12 -72.5 37t-25.5 62q0 46 36 73.5t90 27.5q65 0 105 -34t51 -94h108q-13 99 -84.5 160t-178.5 61q-25 0 -48.5 -3.5
t-45 -10.5t-40.5 -17.5t-34.5 -24t-28 -29.5t-21.5 -34.5t-13.5 -39.5t-4.5 -44q0 -72 44.5 -121t132.5 -70l126 -31q51 -13 77.5 -39t26.5 -63q0 -45 -36 -73.5t-102 -28.5q-71 0 -115 35.5t-53 96.5h-108zM223 782l73 82l72 -82h95l-114 138h-105l-115 -138h94z" />
    <glyph glyph-name="scircumflex" unicode="&#x15d;" horiz-adv-x="505" 
d="M267 -11q87 0 141 44.5t54 115.5q0 57 -37 95t-108 56l-94 23q-35 9 -54 26t-19 42q0 28 22 46.5t60 18.5q44 0 77 -25.5t42 -65.5h102q-12 79 -73 127.5t-148 48.5q-83 0 -134.5 -44t-51.5 -116q0 -57 36 -94.5t106 -54.5l100 -25q32 -8 51 -25t19 -42q0 -29 -25 -48
t-65 -19q-53 0 -87 25.5t-43 65.5h-101q14 -78 76 -126.5t154 -48.5zM164 611l73 82l72 -82h95l-114 138h-105l-115 -138h94z" />
    <glyph glyph-name="uni015E" unicode="&#x15e;" horiz-adv-x="612" 
d="M41 214q9 -92 75 -152t165 -70l-26 -86h38q23 0 38 -11t15 -30q0 -16 -13.5 -28t-35.5 -12q-19 0 -34.5 7.5t-28.5 23.5l-46 -37q17 -23 47.5 -36.5t65.5 -13.5q48 0 80 27.5t32 68.5q0 34 -23.5 57t-63.5 27l15 42q101 6 162 63t61 140q0 74 -44 121t-138 71l-127 32
q-47 12 -72.5 37t-25.5 62q0 46 36 73.5t90 27.5q65 0 105 -34t51 -94h108q-13 99 -84.5 160t-178.5 61q-25 0 -48.5 -3.5t-45 -10.5t-40.5 -17.5t-34.5 -24t-28 -29.5t-21.5 -34.5t-13.5 -39.5t-4.5 -44q0 -72 44.5 -121t132.5 -70l126 -31q51 -13 77.5 -39t26.5 -63
q0 -45 -36 -73.5t-102 -28.5q-71 0 -115 35.5t-53 96.5h-108z" />
    <glyph glyph-name="uni015F" unicode="&#x15f;" horiz-adv-x="505" 
d="M363 -135q0 34 -23.5 57t-63.5 27l14 41q77 6 124.5 49.5t47.5 109.5q0 57 -37 95t-108 56l-94 23q-35 9 -54 26t-19 42q0 28 22 46.5t60 18.5q44 0 77 -25.5t42 -65.5h102q-12 79 -73 127.5t-148 48.5q-83 0 -134.5 -44t-51.5 -116q0 -57 36 -94.5t106 -54.5l100 -25
q32 -8 51 -25t19 -42q0 -29 -25 -48t-65 -19q-53 0 -87 25.5t-43 65.5h-101q13 -70 64.5 -117t129.5 -56l-26 -85h38q23 0 38 -11t15 -30q0 -16 -13.5 -28t-35.5 -12q-19 0 -34.5 7.5t-28.5 23.5l-46 -37q17 -23 47.5 -36.5t65.5 -13.5q48 0 80 27.5t32 68.5z" />
    <glyph glyph-name="Scaron" unicode="&#x160;" horiz-adv-x="612" 
d="M41 214q2 -25 9 -48t18 -43.5t26 -38.5t33 -32.5t39.5 -26t45.5 -19.5t50 -12t55 -4q112 0 179.5 58.5t67.5 145.5q0 74 -44 121t-138 71l-127 32q-47 12 -72.5 37t-25.5 62q0 46 36 73.5t90 27.5q65 0 105 -34t51 -94h108q-13 99 -84.5 160t-178.5 61q-25 0 -48.5 -3.5
t-45 -10.5t-40.5 -17.5t-34.5 -24t-28 -29.5t-21.5 -34.5t-13.5 -39.5t-4.5 -44q0 -72 44.5 -121t132.5 -70l126 -31q51 -13 77.5 -39t26.5 -63q0 -45 -36 -73.5t-102 -28.5q-71 0 -115 35.5t-53 96.5h-108zM368 919l-72 -82l-72 82h-95l114 -138h105l115 138h-95z" />
    <glyph glyph-name="scaron" unicode="&#x161;" horiz-adv-x="505" 
d="M267 -11q87 0 141 44.5t54 115.5q0 57 -37 95t-108 56l-94 23q-35 9 -54 26t-19 42q0 28 22 46.5t60 18.5q44 0 77 -25.5t42 -65.5h102q-12 79 -73 127.5t-148 48.5q-83 0 -134.5 -44t-51.5 -116q0 -57 36 -94.5t106 -54.5l100 -25q32 -8 51 -25t19 -42q0 -29 -25 -48
t-65 -19q-53 0 -87 25.5t-43 65.5h-101q14 -78 76 -126.5t154 -48.5zM309 749l-72 -82l-72 82h-95l114 -138h105l115 138h-95z" />
    <glyph glyph-name="uni0162" unicode="&#x162;" horiz-adv-x="633" 
d="M22 604h240v-604h27l-29 -94h38q23 0 38 -11t15 -30q0 -16 -13.5 -28t-35.5 -12q-19 0 -34.5 7.5t-28.5 23.5l-46 -37q17 -23 47.5 -36.5t65.5 -13.5q48 0 80 27.5t32 68.5q0 34 -23.5 57t-63.5 27l18 51h23v604h239v96h-589v-96z" />
    <glyph glyph-name="uni0163" unicode="&#x163;" horiz-adv-x="407" 
d="M25 437h107v-317q0 -46 26.5 -78t75.5 -40l-30 -96h38q23 0 38 -11t15 -30q0 -16 -13.5 -28t-35.5 -12q-19 0 -34.5 7.5t-28.5 23.5l-46 -37q17 -23 47.5 -36.5t65.5 -13.5q48 0 80 27.5t32 68.5q0 34 -23.5 57t-63.5 27l18 51h86v92h-89q-24 0 -38 11t-14 32v302h141v92
h-141v156h-106v-156h-107v-92z" />
    <glyph glyph-name="Tcaron" unicode="&#x164;" horiz-adv-x="633" 
d="M22 604h240v-604h110v604h239v96h-589v-96zM390 919l-72 -82l-72 82h-95l114 -138h105l115 138h-95z" />
    <glyph glyph-name="tcaron" unicode="&#x165;" horiz-adv-x="407" 
d="M305 603h79l41 201h-101zM263 0h116v92h-89q-24 0 -38 11t-14 32v302h141v92h-141v156h-106v-156h-107v-92h107v-317q0 -52 34 -86t97 -34z" />
    <glyph glyph-name="Tbar" unicode="&#x166;" horiz-adv-x="633" 
d="M113 293h149v-293h110v293h148v94h-148v217h239v96h-589v-96h240v-217h-149v-94z" />
    <glyph glyph-name="tbar" unicode="&#x167;" horiz-adv-x="411" 
d="M25 238h107v-118q0 -52 34 -86t97 -34h116v92h-89q-24 0 -38 11t-14 32v103h141v87h-141v112h141v92h-141v156h-106v-156h-107v-92h107v-112h-107v-87z" />
    <glyph glyph-name="Utilde" unicode="&#x168;" horiz-adv-x="718" 
d="M185 269v431h-110v-439q0 -31 5 -59t14.5 -53t23 -46.5t31 -39t38 -31.5t44 -23.5t49 -14.5t52.5 -5q61 0 111 28t81 74v-91h109v700h-110v-431q0 -81 -49 -132t-121 -51q-71 0 -119.5 49.5t-48.5 133.5zM288 907q-37 0 -62.5 -28.5t-39.5 -85.5l68 -14q10 34 19 46
t22 12q5 0 10.5 -2t11.5 -5t12.5 -7t13.5 -8.5t14.5 -9t15 -8.5t15 -7t15 -5t14.5 -2q37 0 63 28.5t40 85.5l-68 15q-10 -34 -19.5 -46t-22.5 -12q-5 0 -10.5 2t-11.5 5t-12.5 7t-13.5 8.5t-14.5 8.5l-15 8t-15 7t-15 5t-14.5 2z" />
    <glyph glyph-name="utilde" unicode="&#x169;" 
d="M79 185q0 -21 3.5 -40t10 -37t16.5 -33.5t22 -29t27 -23.5t32.5 -17.5t36.5 -11.5t40 -4q52 0 95.5 27.5t66.5 76.5v-93h106v529h-106v-318q0 -54 -35.5 -90.5t-89.5 -36.5q-53 0 -86 36t-33 88v321h-106v-344zM241 737q-37 0 -62.5 -28.5t-39.5 -85.5l68 -14
q10 34 19 46t22 12q5 0 10.5 -2t11.5 -5t12.5 -7t13.5 -8.5t14.5 -9t15 -8.5t15 -7t15 -5t14.5 -2q37 0 63 28.5t40 85.5l-68 15q-10 -34 -19.5 -46t-22.5 -12q-5 0 -10.5 2t-11.5 5t-12.5 7t-13.5 8.5t-14.5 8.5l-15 8t-15 7t-15 5t-14.5 2z" />
    <glyph glyph-name="Umacron" unicode="&#x16a;" horiz-adv-x="718" 
d="M185 269v431h-110v-439q0 -31 5 -59t14.5 -53t23 -46.5t31 -39t38 -31.5t44 -23.5t49 -14.5t52.5 -5q61 0 111 28t81 74v-91h109v700h-110v-431q0 -81 -49 -132t-121 -51q-71 0 -119.5 49.5t-48.5 133.5zM483 876h-259v-71h259v71z" />
    <glyph glyph-name="umacron" unicode="&#x16b;" 
d="M79 185q0 -21 3.5 -40t10 -37t16.5 -33.5t22 -29t27 -23.5t32.5 -17.5t36.5 -11.5t40 -4q52 0 95.5 27.5t66.5 76.5v-93h106v529h-106v-318q0 -54 -35.5 -90.5t-89.5 -36.5q-53 0 -86 36t-33 88v321h-106v-344zM436 705h-259v-71h259v71z" />
    <glyph glyph-name="Ubreve" unicode="&#x16c;" horiz-adv-x="718" 
d="M185 269v431h-110v-439q0 -31 5 -59t14.5 -53t23 -46.5t31 -39t38 -31.5t44 -23.5t49 -14.5t52.5 -5q61 0 111 28t81 74v-91h109v700h-110v-431q0 -81 -49 -132t-121 -51q-71 0 -119.5 49.5t-48.5 133.5zM354 844q-25 0 -49 15t-38 58l-71 -21q16 -57 60 -88t98 -31
t98 31t60 88l-71 21q-14 -43 -38 -58t-49 -15z" />
    <glyph glyph-name="ubreve" unicode="&#x16d;" 
d="M79 185q0 -21 3.5 -40t10 -37t16.5 -33.5t22 -29t27 -23.5t32.5 -17.5t36.5 -11.5t40 -4q52 0 95.5 27.5t66.5 76.5v-93h106v529h-106v-318q0 -54 -35.5 -90.5t-89.5 -36.5q-53 0 -86 36t-33 88v321h-106v-344zM307 674q-25 0 -49 15t-38 58l-71 -21q16 -57 60 -88
t98 -31t98 31t60 88l-71 21q-14 -43 -38 -58t-49 -15z" />
    <glyph glyph-name="Uring" unicode="&#x16e;" horiz-adv-x="718" 
d="M185 269v431h-110v-439q0 -31 5 -59t14.5 -53t23 -46.5t31 -39t38 -31.5t44 -23.5t49 -14.5t52.5 -5q61 0 111 28t81 74v-91h109v700h-110v-431q0 -81 -49 -132t-121 -51q-71 0 -119.5 49.5t-48.5 133.5zM354 760q46 0 78 32t32 77q0 44 -32 75.5t-78 31.5t-78 -31.5
t-32 -75.5q0 -46 32 -77.5t78 -31.5zM354 810q-25 0 -41.5 17t-16.5 42q0 23 16.5 40t41.5 17t41.5 -17t16.5 -40q0 -24 -16.5 -41.5t-41.5 -17.5z" />
    <glyph glyph-name="uring" unicode="&#x16f;" 
d="M79 185q0 -21 3.5 -40t10 -37t16.5 -33.5t22 -29t27 -23.5t32.5 -17.5t36.5 -11.5t40 -4q52 0 95.5 27.5t66.5 76.5v-93h106v529h-106v-318q0 -54 -35.5 -90.5t-89.5 -36.5q-53 0 -86 36t-33 88v321h-106v-344zM307 590q46 0 78 32t32 77q0 44 -32 75.5t-78 31.5
t-78 -31.5t-32 -75.5q0 -46 32 -77.5t78 -31.5zM307 640q-25 0 -41.5 17t-16.5 42q0 23 16.5 40t41.5 17t41.5 -17t16.5 -40q0 -24 -16.5 -41.5t-41.5 -17.5z" />
    <glyph glyph-name="Uhungarumlaut" unicode="&#x170;" horiz-adv-x="718" 
d="M185 269v431h-110v-439q0 -31 5 -59t14.5 -53t23 -46.5t31 -39t38 -31.5t44 -23.5t49 -14.5t52.5 -5q61 0 111 28t81 74v-91h109v700h-110v-431q0 -81 -49 -132t-121 -51q-71 0 -119.5 49.5t-48.5 133.5zM306 919l-115 -138h93l130 138h-108zM490 919l-116 -138h94
l129 138h-107z" />
    <glyph glyph-name="uhungarumlaut" unicode="&#x171;" 
d="M79 185q0 -21 3.5 -40t10 -37t16.5 -33.5t22 -29t27 -23.5t32.5 -17.5t36.5 -11.5t40 -4q52 0 95.5 27.5t66.5 76.5v-93h106v529h-106v-318q0 -54 -35.5 -90.5t-89.5 -36.5q-53 0 -86 36t-33 88v321h-106v-344zM260 749l-115 -138h93l130 138h-108zM444 749l-116 -138h94
l129 138h-107z" />
    <glyph glyph-name="Uogonek" unicode="&#x172;" horiz-adv-x="718" 
d="M185 269v431h-110v-439q0 -31 5 -59t14.5 -53t23 -46.5t31 -39t38 -31.5t44 -23.5t49 -14.5t52.5 -5q61 0 111 28t81 74v-91h41q-46 -37 -62 -69t-16 -64q0 -37 25.5 -62.5t75.5 -25.5q17 0 33 3t29 8l-11 56q-9 -4 -19 -5.5t-20 -1.5q-22 0 -34.5 12.5t-12.5 34.5
t14.5 49.5t65.5 64.5v700h-110v-431q0 -81 -49 -132t-121 -51q-71 0 -119.5 49.5t-48.5 133.5z" />
    <glyph glyph-name="uogonek" unicode="&#x173;" 
d="M79 185q0 -21 3.5 -40t10 -37t16.5 -33.5t22 -29t27 -23.5t32.5 -17.5t36.5 -11.5t40 -4q52 0 95.5 27.5t66.5 76.5v-93h38q-46 -37 -62 -69t-16 -64q0 -37 25.5 -62.5t75.5 -25.5q17 0 33 3t29 8l-11 56q-9 -4 -19 -5.5t-20 -1.5q-22 0 -34.5 12.5t-12.5 34.5t14.5 49.5
t65.5 64.5v529h-106v-318q0 -54 -35.5 -90.5t-89.5 -36.5q-53 0 -86 36t-33 88v321h-106v-344z" />
    <glyph glyph-name="Wcircumflex" unicode="&#x174;" horiz-adv-x="961" 
d="M532 700h-97l-170 -541l-134 541h-114l187 -700h108l169 537l168 -537h108l187 700h-109l-134 -541zM408 782l73 82l72 -82h95l-114 138h-105l-115 -138h94z" />
    <glyph glyph-name="wcircumflex" unicode="&#x175;" horiz-adv-x="765" 
d="M341 529l-121 -372l-98 372h-108l149 -529h97l123 381l123 -381h97l149 529h-105l-98 -372l-120 372h-88zM311 611l73 82l72 -82h95l-114 138h-105l-115 -138h94z" />
    <glyph glyph-name="Ycircumflex" unicode="&#x176;" horiz-adv-x="648" 
d="M379 0v285l272 415h-129l-197 -305l-195 305h-133l272 -415v-285h110zM252 782l73 82l72 -82h95l-114 138h-105l-115 -138h94z" />
    <glyph glyph-name="ycircumflex" unicode="&#x177;" horiz-adv-x="533" 
d="M193 -66q-12 -31 -29.5 -46t-46.5 -15h-55v-91h72q57 0 91 25.5t58 85.5l248 636h-111l-149 -391l-154 391h-114l215 -529zM195 611l73 82l72 -82h95l-114 138h-105l-115 -138h94z" />
    <glyph glyph-name="Ydieresis" unicode="&#x178;" horiz-adv-x="648" 
d="M379 0v285l272 415h-129l-197 -305l-195 305h-133l272 -415v-285h110zM227 784q26 0 44 18.5t18 43.5q0 27 -18 45.5t-44 18.5t-45 -18.5t-19 -45.5q0 -25 19 -43.5t45 -18.5zM422 784q26 0 44 18.5t18 43.5q0 27 -18 45.5t-44 18.5t-45 -18.5t-19 -45.5q0 -25 19 -43.5
t45 -18.5z" />
    <glyph glyph-name="Zacute" unicode="&#x179;" horiz-adv-x="582" 
d="M44 604h355l-366 -532v-72h508v96h-367l364 530v74h-494v-96zM332 919l-116 -138h102l135 138h-121z" />
    <glyph glyph-name="zacute" unicode="&#x17a;" horiz-adv-x="492" 
d="M45 437h272l-276 -360v-77h408v93h-278l272 357v79h-398v-92zM288 749l-116 -138h102l135 138h-121z" />
    <glyph glyph-name="Zdotaccent" unicode="&#x17b;" horiz-adv-x="582" 
d="M44 604h355l-366 -532v-72h508v96h-367l364 530v74h-494v-96zM289 784q26 0 44.5 18.5t18.5 43.5q0 27 -18.5 45.5t-44.5 18.5t-45 -18.5t-19 -45.5q0 -25 19 -43.5t45 -18.5z" />
    <glyph glyph-name="zdotaccent" unicode="&#x17c;" horiz-adv-x="492" 
d="M45 437h272l-276 -360v-77h408v93h-278l272 357v79h-398v-92zM245 613q26 0 44.5 18.5t18.5 43.5q0 27 -18.5 45.5t-44.5 18.5t-45 -18.5t-19 -45.5q0 -25 19 -43.5t45 -18.5z" />
    <glyph glyph-name="Zcaron" unicode="&#x17d;" horiz-adv-x="582" 
d="M44 604h355l-366 -532v-72h508v96h-367l364 530v74h-494v-96zM362 919l-72 -82l-72 82h-95l114 -138h105l115 138h-95z" />
    <glyph glyph-name="zcaron" unicode="&#x17e;" horiz-adv-x="492" 
d="M45 437h272l-276 -360v-77h408v93h-278l272 357v79h-398v-92zM318 749l-72 -82l-72 82h-95l114 -138h105l115 138h-95z" />
    <glyph glyph-name="florin" unicode="&#x192;" horiz-adv-x="404" 
d="M52 -80q-3 -21 -12 -33t-28 -12h-97v-93h118q60 0 89 34t36 85l79 536h140v92h-126l13 86q3 22 12 33.5t27 11.5h97v93h-117q-60 0 -89 -34t-36 -85l-16 -105h-116v-92h103z" />
    <glyph glyph-name="uni0218" unicode="&#x218;" horiz-adv-x="612" 
d="M41 214q2 -25 9 -48t18 -43.5t26 -38.5t33 -32.5t39.5 -26t45.5 -19.5t50 -12t55 -4q112 0 179.5 58.5t67.5 145.5q0 74 -44 121t-138 71l-127 32q-47 12 -72.5 37t-25.5 62q0 46 36 73.5t90 27.5q65 0 105 -34t51 -94h108q-13 99 -84.5 160t-178.5 61q-25 0 -48.5 -3.5
t-45 -10.5t-40.5 -17.5t-34.5 -24t-28 -29.5t-21.5 -34.5t-13.5 -39.5t-4.5 -44q0 -72 44.5 -121t132.5 -70l126 -31q51 -13 77.5 -39t26.5 -63q0 -45 -36 -73.5t-102 -28.5q-71 0 -115 35.5t-53 96.5h-108zM259 -234v-42q50 4 81 41.5t31 84.5q0 37 -17 58t-44 21
q-20 0 -35.5 -15t-15.5 -34q0 -8 2 -14t5 -11t7 -8.5t8.5 -7t8.5 -6l8 -5t7 -5t5 -5.5t2 -7q0 -13 -15.5 -27.5t-37.5 -17.5z" />
    <glyph glyph-name="uni0219" unicode="&#x219;" horiz-adv-x="505" 
d="M267 -11q87 0 141 44.5t54 115.5q0 57 -37 95t-108 56l-94 23q-35 9 -54 26t-19 42q0 28 22 46.5t60 18.5q44 0 77 -25.5t42 -65.5h102q-12 79 -73 127.5t-148 48.5q-83 0 -134.5 -44t-51.5 -116q0 -57 36 -94.5t106 -54.5l100 -25q32 -8 51 -25t19 -42q0 -29 -25 -48
t-65 -19q-53 0 -87 25.5t-43 65.5h-101q14 -78 76 -126.5t154 -48.5zM209 -234v-42q50 4 81 41.5t31 84.5q0 37 -17 58t-44 21q-20 0 -35.5 -15t-15.5 -34q0 -8 2 -14t5 -11t7 -8.5t8.5 -7t8.5 -6l8 -5t7 -5t5 -5.5t2 -7q0 -13 -15.5 -27.5t-37.5 -17.5z" />
    <glyph glyph-name="uni021A" unicode="&#x21a;" horiz-adv-x="633" 
d="M22 604h240v-604h110v604h239v96h-589v-96zM264 -234v-42q50 4 81 41.5t31 84.5q0 37 -17 58t-44 21q-20 0 -35.5 -15t-15.5 -34q0 -8 2 -14t5 -11t7 -8.5t8.5 -7t8.5 -6l8 -5t7 -5t5 -5.5t2 -7q0 -13 -15.5 -27.5t-37.5 -17.5z" />
    <glyph glyph-name="uni021B" unicode="&#x21b;" horiz-adv-x="407" 
d="M263 0h116v92h-89q-24 0 -38 11t-14 32v302h141v92h-141v156h-106v-156h-107v-92h107v-317q0 -52 34 -86t97 -34zM208 -234v-42q50 4 81 41.5t31 84.5q0 37 -17 58t-44 21q-20 0 -35.5 -15t-15.5 -34q0 -8 2 -14t5 -11t7 -8.5t8.5 -7t8.5 -6l8 -5t7 -5t5 -5.5t2 -7
q0 -13 -15.5 -27.5t-37.5 -17.5z" />
    <glyph glyph-name="uni0237" unicode="&#x237;" horiz-adv-x="264" 
d="M65 -218q57 0 88.5 32t31.5 80v635h-106v-615q0 -20 -11.5 -30.5t-30.5 -10.5h-33v-91h61z" />
    <glyph glyph-name="circumflex" unicode="&#x2c6;" horiz-adv-x="500" 
d="M178 592l73 82l72 -82h95l-114 138h-105l-115 -138h94z" />
    <glyph glyph-name="caron" unicode="&#x2c7;" horiz-adv-x="500" 
d="M323 730l-72 -82l-72 82h-95l114 -138h105l115 138h-95z" />
    <glyph glyph-name="breve" unicode="&#x2d8;" horiz-adv-x="500" 
d="M250 655q-25 0 -49 15t-38 58l-71 -21q16 -57 60 -88t98 -31t98 31t60 88l-71 21q-14 -43 -38 -58t-49 -15z" />
    <glyph glyph-name="dotaccent" unicode="&#x2d9;" horiz-adv-x="258" 
d="M131 595q26 0 44.5 18.5t18.5 43.5q0 27 -18.5 45.5t-44.5 18.5t-45 -18.5t-19 -45.5q0 -25 19 -43.5t45 -18.5z" />
    <glyph glyph-name="ring" unicode="&#x2da;" horiz-adv-x="500" 
d="M250 571q46 0 78 32t32 77q0 44 -32 75.5t-78 31.5t-78 -31.5t-32 -75.5q0 -46 32 -77.5t78 -31.5zM250 621q-25 0 -41.5 17t-16.5 42q0 23 16.5 40t41.5 17t41.5 -17t16.5 -40q0 -24 -16.5 -41.5t-41.5 -17.5z" />
    <glyph glyph-name="ogonek" unicode="&#x2db;" horiz-adv-x="500" 
d="M312 0l-42 19q-63 -43 -83.5 -79.5t-20.5 -72.5q0 -37 25.5 -62.5t75.5 -25.5q17 0 33 3t29 8l-11 56q-9 -4 -19 -5.5t-20 -1.5q-22 0 -34.5 12.5t-12.5 34.5t14.5 49.5t65.5 64.5z" />
    <glyph glyph-name="tilde" unicode="&#x2dc;" horiz-adv-x="500" 
d="M182 718q-37 0 -62.5 -28.5t-39.5 -85.5l68 -14q10 34 19 46t22 12q5 0 10.5 -2t11.5 -5t12.5 -7t13.5 -8.5t14.5 -9t15 -8.5t15 -7t15 -5t14.5 -2q37 0 63 28.5t40 85.5l-68 15q-10 -34 -19.5 -46t-22.5 -12q-5 0 -10.5 2t-11.5 5t-12.5 7t-13.5 8.5t-14.5 8.5l-15 8
t-15 7t-15 5t-14.5 2z" />
    <glyph glyph-name="hungarumlaut" unicode="&#x2dd;" horiz-adv-x="517" 
d="M208 730l-115 -138h93l130 138h-108zM392 730l-116 -138h94l129 138h-107z" />
    <glyph glyph-name="uni09F3" unicode="&#x9f3;" horiz-adv-x="636" 
d="M204 178v212h66v87h-66v116q0 45 -29 76t-83 31h-65v-95h37q17 0 27 -9t10 -27v-92h-74v-87h74v-222q0 -78 57 -129.5t151 -51.5q25 0 49.5 3.5t47 11t43.5 17.5t39.5 23t35 28.5t30 33.5t24 37.5t18 41t11.5 44t4 46.5t-4 46.5t-11 43t-17.5 38.5t-24 33.5t-29 28
t-33 21t-37 13t-40.5 4.5q-23 0 -45 -6t-47 -18l33 -89q13 7 28.5 11.5t28.5 4.5q40 0 68 -38t28 -93q0 -21 -4 -40t-11.5 -37t-18.5 -33.5t-24 -29t-29 -24t-33.5 -18t-37 -11.5t-39.5 -4q-47 0 -77.5 26t-30.5 76z" />
    <glyph glyph-name="Wgrave" unicode="&#x1e80;" horiz-adv-x="961" 
d="M532 700h-97l-170 -541l-134 541h-114l187 -700h108l169 537l168 -537h108l187 700h-109l-134 -541zM437 919h-121l134 -138h104z" />
    <glyph glyph-name="wgrave" unicode="&#x1e81;" horiz-adv-x="765" 
d="M341 529l-121 -372l-98 372h-108l149 -529h97l123 381l123 -381h97l149 529h-105l-98 -372l-120 372h-88zM340 748h-121l134 -138h104z" />
    <glyph glyph-name="Wacute" unicode="&#x1e82;" horiz-adv-x="961" 
d="M532 700h-97l-170 -541l-134 541h-114l187 -700h108l169 537l168 -537h108l187 700h-109l-134 -541zM523 919l-116 -138h102l135 138h-121z" />
    <glyph glyph-name="wacute" unicode="&#x1e83;" horiz-adv-x="765" 
d="M341 529l-121 -372l-98 372h-108l149 -529h97l123 381l123 -381h97l149 529h-105l-98 -372l-120 372h-88zM426 748l-116 -138h102l135 138h-121z" />
    <glyph glyph-name="Wdieresis" unicode="&#x1e84;" horiz-adv-x="961" 
d="M532 700h-97l-170 -541l-134 541h-114l187 -700h108l169 537l168 -537h108l187 700h-109l-134 -541zM383 784q26 0 44 18.5t18 43.5q0 27 -18 45.5t-44 18.5t-45 -18.5t-19 -45.5q0 -25 19 -43.5t45 -18.5zM578 784q26 0 44 18.5t18 43.5q0 27 -18 45.5t-44 18.5
t-45 -18.5t-19 -45.5q0 -25 19 -43.5t45 -18.5z" />
    <glyph glyph-name="wdieresis" unicode="&#x1e85;" horiz-adv-x="765" 
d="M341 529l-121 -372l-98 372h-108l149 -529h97l123 381l123 -381h97l149 529h-105l-98 -372l-120 372h-88zM286 613q26 0 44 18.5t18 43.5q0 27 -18 45.5t-44 18.5t-45 -18.5t-19 -45.5q0 -25 19 -43.5t45 -18.5zM481 613q26 0 44 18.5t18 43.5q0 27 -18 45.5t-44 18.5
t-45 -18.5t-19 -45.5q0 -25 19 -43.5t45 -18.5z" />
    <glyph glyph-name="Ygrave" unicode="&#x1ef2;" horiz-adv-x="648" 
d="M379 0v285l272 415h-129l-197 -305l-195 305h-133l272 -415v-285h110zM281 919h-121l134 -138h104z" />
    <glyph glyph-name="ygrave" unicode="&#x1ef3;" horiz-adv-x="533" 
d="M193 -66q-12 -31 -29.5 -46t-46.5 -15h-55v-91h72q57 0 91 25.5t58 85.5l248 636h-111l-149 -391l-154 391h-114l215 -529zM224 748h-121l134 -138h104z" />
    <glyph glyph-name="uni2002" unicode="&#x2002;" horiz-adv-x="500" 
 />
    <glyph glyph-name="uni2003" unicode="&#x2003;" horiz-adv-x="1000" 
 />
    <glyph glyph-name="uni2009" unicode="&#x2009;" horiz-adv-x="175" 
 />
    <glyph glyph-name="uni200A" unicode="&#x200a;" horiz-adv-x="100" 
 />
    <glyph glyph-name="uni200B" unicode="&#x200b;" horiz-adv-x="0" 
 />
    <glyph glyph-name="endash" unicode="&#x2013;" horiz-adv-x="601" 
d="M57 252h487v94h-487v-94z" />
    <glyph glyph-name="emdash" unicode="&#x2014;" horiz-adv-x="801" 
d="M57 252h687v94h-687v-94z" />
    <glyph glyph-name="uni2015" unicode="&#x2015;" horiz-adv-x="1001" 
d="M57 252h887v94h-887v-94z" />
    <glyph glyph-name="quoteleft" unicode="&#x2018;" horiz-adv-x="240" 
d="M185 684v54q-66 -12 -104.5 -63.5t-38.5 -123.5q0 -46 20 -73t54 -27q25 0 43 18t18 43q0 9 -2 15.5t-5 12.5t-7 10.5t-9 8.5t-10 7.5t-10 6.5t-9 6.5t-7 7.5t-5 8.5t-2 9.5q0 24 22.5 48.5t51.5 30.5z" />
    <glyph glyph-name="quoteright" unicode="&#x2019;" horiz-adv-x="240" 
d="M55 509v-54q66 12 104.5 63.5t38.5 123.5q0 46 -20 73t-54 27q-25 0 -43 -18t-18 -43q0 -9 2 -15.5t5 -12.5t7 -10.5t9 -8.5t10 -7.5t10 -6.5t9 -6.5t7 -7.5t5 -8.5t2 -9.5q0 -24 -22.5 -48.5t-51.5 -30.5z" />
    <glyph glyph-name="quotesinglbase" unicode="&#x201a;" horiz-adv-x="240" 
d="M48 -114v-54q66 12 104.5 63.5t38.5 123.5q0 46 -20 73t-54 27q-25 0 -43 -18t-18 -43q0 -9 2 -15.5t5 -12.5t7 -10.5t9 -8.5t10 -7.5t10 -6.5t9 -6.5t7 -7.5t5 -8.5t2 -9.5q0 -24 -22.5 -48.5t-51.5 -30.5z" />
    <glyph glyph-name="quotedblleft" unicode="&#x201c;" horiz-adv-x="440" 
d="M185 684v54q-66 -12 -104.5 -63.5t-38.5 -123.5q0 -46 20 -73t54 -27q25 0 43 18t18 43q0 9 -2 15.5t-5 12.5t-7 10.5t-9 8.5t-10 7.5t-10 6.5t-9 6.5t-7 7.5t-5 8.5t-2 9.5q0 24 22.5 48.5t51.5 30.5zM385 684v54q-66 -12 -104.5 -63.5t-38.5 -123.5q0 -46 20 -73
t54 -27q25 0 43 18t18 43q0 9 -2 15.5t-5 12.5t-7 10.5t-9 8.5t-10 7.5t-10 6.5t-9 6.5t-7 7.5t-5 8.5t-2 9.5q0 24 22.5 48.5t51.5 30.5z" />
    <glyph glyph-name="quotedblright" unicode="&#x201d;" horiz-adv-x="440" 
d="M255 509v-54q66 12 104.5 63.5t38.5 123.5q0 46 -20 73t-54 27q-25 0 -43 -18t-18 -43q0 -9 2 -15.5t5 -12.5t7 -10.5t9 -8.5t10 -7.5t10 -6.5t9 -6.5t7 -7.5t5 -8.5t2 -9.5q0 -24 -22.5 -48.5t-51.5 -30.5zM55 509v-54q66 12 104.5 63.5t38.5 123.5q0 46 -20 73t-54 27
q-25 0 -43 -18t-18 -43q0 -9 2 -15.5t5 -12.5t7 -10.5t9 -8.5t10 -7.5t10 -6.5t9 -6.5t7 -7.5t5 -8.5t2 -9.5q0 -24 -22.5 -48.5t-51.5 -30.5z" />
    <glyph glyph-name="quotedblbase" unicode="&#x201e;" horiz-adv-x="440" 
d="M248 -114v-54q66 12 104.5 63.5t38.5 123.5q0 46 -20 73t-54 27q-25 0 -43 -18t-18 -43q0 -9 2 -15.5t5 -12.5t7 -10.5t9 -8.5t10 -7.5t10 -6.5t9 -6.5t7 -7.5t5 -8.5t2 -9.5q0 -24 -22.5 -48.5t-51.5 -30.5zM48 -114v-54q66 12 104.5 63.5t38.5 123.5q0 46 -20 73
t-54 27q-25 0 -43 -18t-18 -43q0 -9 2 -15.5t5 -12.5t7 -10.5t9 -8.5t10 -7.5t10 -6.5t9 -6.5t7 -7.5t5 -8.5t2 -9.5q0 -24 -22.5 -48.5t-51.5 -30.5z" />
    <glyph glyph-name="dagger" unicode="&#x2020;" horiz-adv-x="409" 
d="M161 0h88v428h123v83h-123v189h-88v-189h-123v-83h123v-428z" />
    <glyph glyph-name="daggerdbl" unicode="&#x2021;" horiz-adv-x="409" 
d="M161 0h88v189h123v83h-123v156h123v83h-123v189h-88v-189h-123v-83h123v-156h-123v-83h123v-189z" />
    <glyph glyph-name="bullet" unicode="&#x2022;" horiz-adv-x="317" 
d="M159 436q-46 0 -78.5 -32t-32.5 -78t32.5 -78t78.5 -32t78 32t32 78t-32 78t-78 32z" />
    <glyph glyph-name="ellipsis" unicode="&#x2026;" horiz-adv-x="710" 
d="M118 121q-26 0 -45 -19t-19 -46t19 -46t45 -19q27 0 46 19t19 46t-19 46t-46 19zM355 121q-26 0 -45 -19t-19 -46t19 -46t45 -19q27 0 46 19t19 46t-19 46t-46 19zM591 121q-26 0 -45 -19t-19 -46t19 -46t45 -19q27 0 46 19t19 46t-19 46t-46 19z" />
    <glyph glyph-name="guilsinglleft" unicode="&#x2039;" horiz-adv-x="401" 
d="M378 529h-115l-247 -264l247 -265h118l-242 267z" />
    <glyph glyph-name="guilsinglright" unicode="&#x203a;" horiz-adv-x="401" 
d="M23 0h115l247 264l-247 265h-118l242 -267z" />
    <glyph glyph-name="fraction" unicode="&#x2044;" horiz-adv-x="561" 
d="M128 0l380 700h-84l-379 -700h83z" />
    <glyph glyph-name="uni2070" unicode="&#x2070;" horiz-adv-x="364" 
d="M36 457q0 -69 40 -109.5t105 -40.5t106 40.5t41 109.5v102q0 69 -41 109t-106 40t-105 -40.5t-40 -108.5v-102zM254 460q0 -42 -19.5 -64t-53.5 -22q-32 0 -51.5 22t-19.5 64v96q0 41 19.5 63.5t51.5 22.5q34 0 53.5 -22t19.5 -64v-96z" />
    <glyph glyph-name="uni2074" unicode="&#x2074;" horiz-adv-x="358" 
d="M211 315h75v94h44v62h-44v229h-99l-162 -235v-56h186v-94zM104 471l107 159v-159h-107z" />
    <glyph glyph-name="uni2075" unicode="&#x2075;" horiz-adv-x="337" 
d="M180 563q-21 0 -38.5 -6t-33.5 -21l3 98h165v66h-229l-9 -214l61 -9q13 13 27.5 19t33.5 6q33 0 51 -18.5t18 -44.5q0 -28 -19 -47.5t-50 -19.5q-26 0 -44.5 12.5t-30.5 34.5l-60 -34q17 -36 52.5 -57t86.5 -21q62 0 101 39.5t39 96.5q0 50 -34.5 85t-89.5 35z" />
    <glyph glyph-name="uni2076" unicode="&#x2076;" horiz-adv-x="352" 
d="M190 644q22 0 41 -10t33 -27l47 45q-23 26 -52 40.5t-69 14.5q-71 0 -113 -49.5t-42 -139.5v-27q0 -83 41 -132.5t109 -49.5q57 0 96 38.5t39 99.5q0 50 -35.5 87t-86.5 37q-24 0 -50.5 -13t-38.5 -44v14q0 58 24 87t57 29zM182 373q-28 0 -47.5 19.5t-19.5 48.5
q0 30 19.5 49.5t47.5 19.5t48 -19.5t20 -49.5q0 -29 -20 -48.5t-48 -19.5z" />
    <glyph glyph-name="uni2077" unicode="&#x2077;" horiz-adv-x="328" 
d="M303 644v56h-278v-66h195l-168 -319h88z" />
    <glyph glyph-name="uni2078" unicode="&#x2078;" horiz-adv-x="353" 
d="M176 307q61 0 101 32.5t40 83.5q0 33 -20.5 57t-51.5 34q26 11 42.5 33.5t16.5 51.5q0 46 -37 76.5t-91 30.5t-90.5 -30.5t-36.5 -76.5q0 -29 16.5 -51t42.5 -33q-32 -10 -52 -34.5t-20 -57.5q0 -51 40 -83.5t100 -32.5zM176 542q-22 0 -38.5 14.5t-16.5 35.5
q0 22 16 36.5t39 14.5q24 0 39.5 -14.5t15.5 -36.5q0 -21 -16 -35.5t-39 -14.5zM176 483q28 0 47 -16.5t19 -41.5q0 -24 -19 -39t-47 -15t-46.5 15t-18.5 39q0 25 18.5 41.5t46.5 16.5z" />
    <glyph glyph-name="uni2079" unicode="&#x2079;" horiz-adv-x="352" 
d="M166 371q-22 0 -39.5 11t-30.5 33l-60 -35q21 -34 53 -53.5t78 -19.5q69 0 109.5 49.5t40.5 139.5v27q0 83 -41 132.5t-109 49.5q-57 0 -95.5 -38.5t-38.5 -99.5q0 -50 34.5 -87t85.5 -37q25 0 51.5 13t38.5 44v-14q0 -58 -22.5 -86.5t-54.5 -28.5zM170 641
q28 0 47.5 -19.5t19.5 -48.5q0 -30 -19.5 -49.5t-47.5 -19.5q-29 0 -48 19.5t-19 49.5q0 29 19 48.5t48 19.5z" />
    <glyph glyph-name="uni2080" unicode="&#x2080;" horiz-adv-x="364" 
d="M36 142q0 -69 40 -109.5t105 -40.5t106 40.5t41 109.5v102q0 69 -41 109t-106 40t-105 -40.5t-40 -108.5v-102zM254 145q0 -42 -19.5 -64t-53.5 -22q-32 0 -51.5 22t-19.5 64v96q0 41 19.5 63.5t51.5 22.5q34 0 53.5 -22t19.5 -64v-96z" />
    <glyph glyph-name="uni2081" unicode="&#x2081;" horiz-adv-x="291" 
d="M266 66h-83v319h-145v-66h69v-253h-83v-66h242v66z" />
    <glyph glyph-name="uni2082" unicode="&#x2082;" horiz-adv-x="320" 
d="M286 276q0 49 -36.5 82t-94.5 33q-47 0 -82 -21t-55 -60l59 -34q13 25 32 38t42 13q25 0 42 -16t17 -41q1 -19 -7.5 -36t-30.5 -40l-140 -146v-48h260v66l-154 -2l88 92q35 35 47.5 62.5t12.5 57.5z" />
    <glyph glyph-name="uni2083" unicode="&#x2083;" horiz-adv-x="339" 
d="M166 391q-51 0 -86 -21t-54 -57l62 -31q11 21 28.5 33t42.5 12q26 0 42.5 -14t16.5 -36t-15 -36t-38 -14h-51v-62h57q26 0 42.5 -15t16.5 -36q0 -25 -18.5 -41t-48.5 -16q-27 0 -47 12.5t-33 34.5l-61 -34q18 -35 54.5 -56.5t89.5 -21.5q61 0 100.5 34t39.5 83
q0 32 -20 57.5t-51 36.5q26 11 42 32.5t16 49.5q0 45 -36.5 75.5t-90.5 30.5z" />
    <glyph glyph-name="uni2084" unicode="&#x2084;" horiz-adv-x="358" 
d="M211 0h75v94h44v62h-44v229h-99l-162 -235v-56h186v-94zM104 156l107 159v-159h-107z" />
    <glyph glyph-name="uni2085" unicode="&#x2085;" horiz-adv-x="337" 
d="M180 248q-21 0 -38.5 -6t-33.5 -21l3 98h165v66h-229l-9 -214l61 -9q13 13 27.5 19t33.5 6q33 0 51 -18.5t18 -44.5q0 -28 -19 -47.5t-50 -19.5q-26 0 -44.5 12.5t-30.5 34.5l-60 -34q17 -36 52.5 -57t86.5 -21q62 0 101 39.5t39 96.5q0 50 -34.5 85t-89.5 35z" />
    <glyph glyph-name="uni2086" unicode="&#x2086;" horiz-adv-x="352" 
d="M190 329q22 0 41 -10t33 -27l47 45q-23 26 -52 40.5t-69 14.5q-71 0 -113 -49.5t-42 -139.5v-27q0 -83 41 -132.5t109 -49.5q57 0 96 38.5t39 99.5q0 50 -35.5 87t-86.5 37q-24 0 -50.5 -13t-38.5 -44v14q0 58 24 87t57 29zM182 58q-28 0 -47.5 19.5t-19.5 48.5
q0 30 19.5 49.5t47.5 19.5t48 -19.5t20 -49.5q0 -29 -20 -48.5t-48 -19.5z" />
    <glyph glyph-name="uni2087" unicode="&#x2087;" horiz-adv-x="328" 
d="M303 329v56h-278v-66h195l-168 -319h88z" />
    <glyph glyph-name="uni2088" unicode="&#x2088;" horiz-adv-x="353" 
d="M176 -8q61 0 101 32.5t40 83.5q0 33 -20.5 57t-51.5 34q26 11 42.5 33.5t16.5 51.5q0 46 -37 76.5t-91 30.5t-90.5 -30.5t-36.5 -76.5q0 -29 16.5 -51t42.5 -33q-32 -10 -52 -34.5t-20 -57.5q0 -51 40 -83.5t100 -32.5zM176 227q-22 0 -38.5 14.5t-16.5 35.5
q0 22 16 36.5t39 14.5q24 0 39.5 -14.5t15.5 -36.5q0 -21 -16 -35.5t-39 -14.5zM176 168q28 0 47 -16.5t19 -41.5q0 -24 -19 -39t-47 -15t-46.5 15t-18.5 39q0 25 18.5 41.5t46.5 16.5z" />
    <glyph glyph-name="uni2089" unicode="&#x2089;" horiz-adv-x="352" 
d="M166 56q-22 0 -39.5 11t-30.5 33l-60 -35q21 -34 53 -53.5t78 -19.5q69 0 109.5 49.5t40.5 139.5v27q0 83 -41 132.5t-109 49.5q-57 0 -95.5 -38.5t-38.5 -99.5q0 -50 34.5 -87t85.5 -37q25 0 51.5 13t38.5 44v-14q0 -58 -22.5 -86.5t-54.5 -28.5zM170 326
q28 0 47.5 -19.5t19.5 -48.5q0 -30 -19.5 -49.5t-47.5 -19.5q-29 0 -48 19.5t-19 49.5q0 29 19 48.5t48 19.5z" />
    <glyph glyph-name="uni20A9" unicode="&#x20a9;" horiz-adv-x="992" 
d="M16 316v-70h131l67 -246h108l77 246h194l77 -246h108l68 246h130v70h-111l19 69h92v70h-73l68 245h-114l-59 -245h-175l-77 245h-96l-77 -245h-175l-59 245h-117l67 -245h-73v-70h92l19 -69h-111zM465 455l31 101l32 -101h-63zM232 316l-17 69h136l-22 -69h-97zM421 316
l22 69h107l21 -69h-150zM667 316l-22 69h136l-16 -69h-98zM249 246h58l-33 -106zM689 246h59l-26 -108z" />
    <glyph glyph-name="Euro" unicode="&#x20ac;" horiz-adv-x="718" 
d="M391 316h-188v69h213l27 70h-233q16 75 64.5 116t115.5 41q66 0 113 -39.5t63 -111.5h107q-19 116 -95 183.5t-186 67.5q-115 0 -195.5 -69t-99.5 -188h-88v-70h83v-69h-83v-70h88q19 -119 99.5 -188.5t195.5 -69.5q31 0 59.5 5.5t54.5 17t49 27.5t42 37t34.5 46t26 55
t15.5 63h-107q-16 -72 -63 -111.5t-113 -39.5t-115 41t-65 117h156z" />
    <glyph glyph-name="uni20B9" unicode="&#x20b9;" horiz-adv-x="599" 
d="M503 0l-308 273h41q81 0 140 48.5t74 120.5h111v83h-111q-5 26 -17.5 49.5t-29.5 42.5h158v83h-515v-83h180q47 0 80 -26t44 -66h-305v-83h304q-12 -39 -44.5 -64t-78.5 -25h-180v-61l330 -292h127z" />
    <glyph glyph-name="trademark" unicode="&#x2122;" horiz-adv-x="665" 
d="M318 700v-279h55l-1 191l76 -191h42l76 194l-2 -194h57v279h-74l-78 -199l-78 199h-73zM23 700v-49h94v-230h60v230h95v49h-249z" />
    <glyph glyph-name="uni2190" unicode="&#x2190;" horiz-adv-x="1001" 
d="M91 350l272 -375h117l-239 325h680v100h-680l239 325h-117z" />
    <glyph glyph-name="uni2191" unicode="&#x2191;" horiz-adv-x="1000" 
d="M500 747l-375 -272v-116l325 238v-680h100v680l325 -238v116z" />
    <glyph glyph-name="uni2192" unicode="&#x2192;" horiz-adv-x="1001" 
d="M521 725l240 -327h-682v-96h682l-240 -327h114l274 375l-274 375h-114z" />
    <glyph glyph-name="uni2193" unicode="&#x2193;" horiz-adv-x="1000" 
d="M875 258l-327 -240v682h-96v-682l-327 240v-114l375 -274l375 274v114z" />
    <glyph glyph-name="minus" unicode="&#x2212;" horiz-adv-x="550" 
d="M493 404h-436v-79h436v79z" />
    <glyph glyph-name="approxequal" unicode="&#x2248;" horiz-adv-x="546" 
d="M159 433q12 0 24.5 -2t25 -5.5t25 -7.5t25 -9l25 -10t25 -9t25 -7.5t24.5 -5.5t25 -2q27 0 52 8t56 27v77q-31 -18 -54 -27t-49 -9q-12 0 -25 2t-25.5 5.5t-25 7.5t-25 9l-25 10t-25 9t-24.5 7.5t-24.5 5.5t-24.5 2q-28 0 -53 -8t-55 -27v-78q29 18 52.5 27.5t50.5 9.5z
M159 264q12 0 24.5 -2t25 -5t25 -7.5l25 -9t25 -9.5t25 -9.5t25 -7.5t24.5 -5t25 -2q27 0 52 7.5t56 26.5v78q-31 -18 -54 -27t-49 -9q-12 0 -25 2t-25.5 5t-25 7.5t-25 9.5t-25 9.5l-25 9t-24.5 7.5t-24.5 5t-24.5 2q-28 0 -53 -7.5t-55 -25.5v-79q29 18 52.5 27t50.5 9z
" />
    <glyph glyph-name="notequal" unicode="&#x2260;" horiz-adv-x="558" 
d="M57 119h95l85 115h260v76h-203l66 90h137v76h-80l84 114h-95l-84 -114h-261v-76h204l-66 -90h-138v-76h81z" />
    <glyph glyph-name="lessequal" unicode="&#x2264;" horiz-adv-x="550" 
d="M467 525v91l-413 -184v-82l413 -184v93l-313 133zM54 266v-88l413 -184v88z" />
    <glyph glyph-name="greaterequal" unicode="&#x2265;" horiz-adv-x="550" 
d="M63 523l313 -134l-313 -132v-91l413 184v82l-413 184v-93zM476 266l-413 -184v-88l413 184v88z" />
    <glyph glyph-name="uni25A0" unicode="&#x25a0;" horiz-adv-x="850" 
d="M775 700h-700v-700h700v700z" />
    <glyph glyph-name="uni25CF" unicode="&#x25cf;" horiz-adv-x="819" 
d="M769 351q0 30 -4.5 58t-13.5 55t-22 51.5t-29.5 47t-36 42t-42 36t-47 29.5t-51.5 22t-55 13.5t-58 4.5t-58.5 -4.5t-55 -13.5t-51.5 -22t-47.5 -29.5t-42 -36t-36 -42t-29.5 -47t-22 -51.5t-13.5 -55t-4.5 -58t4.5 -58.5t13.5 -55t22 -51.5t29.5 -47.5t36 -42t42 -36
t47.5 -29.5t51.5 -22t55 -13.5t58.5 -4.5t58 4.5t55 13.5t51.5 22t47 29.5t42 36t36 42t29.5 47.5t22 51.5t13.5 55t4.5 58.5z" />
    <glyph glyph-name="check" unicode="&#x2713;" horiz-adv-x="1002" 
d="M918 672l-542 -541l-292 291v-139l292 -291l542 541v139z" />
    <glyph glyph-name="close" unicode="&#x2715;" horiz-adv-x="1002" 
d="M871 648l-72 72l-297 -299l-298 299l-72 -72l300 -297l-300 -298l72 -71l298 299l297 -299l72 71l-299 298z" />
    <glyph glyph-name="fi" unicode="&#xfb01;" horiz-adv-x="651" 
d="M28 437h108v-437h106v437h227v-437h106v529h-333v86q0 22 11 33.5t30 11.5h202v93h-221q-62 0 -95 -34.5t-33 -86.5v-103h-108v-92z" />
    <glyph glyph-name="fl" unicode="&#xfb02;" horiz-adv-x="655" 
d="M28 437h108v-437h106v437h134v92h-134v86q0 22 11 33.5t30 11.5h186v-660h106v753h-311q-62 0 -95 -34.5t-33 -86.5v-103h-108v-92z" />
    <glyph glyph-name="Uber" horiz-adv-x="2119" 
d="M154 268v432h-105v-438q0 -31 5 -59t15 -53.5t24 -47t32 -39.5t39 -32t45 -23.5t50.5 -14.5t54.5 -5q54 0 102 20t83 57v-65h104v700h-105v-432q0 -83 -50 -134.5t-122 -51.5q-73 0 -122.5 51t-49.5 135zM681 0h100v64q34 -35 81.5 -55.5t100.5 -20.5q25 0 48.5 4.5
t45.5 12.5t42 19.5t37.5 26t32 32t26 37t20 41.5t12.5 45.5t4 47.5q0 25 -4 48.5t-12.5 45t-20 41.5t-26 37.5t-32 32t-37.5 26t-42 19.5t-45.5 12.5t-48.5 4.5q-53 0 -100 -20.5t-81 -55.5v255h-101v-700zM780 254q0 19 3.5 36t10.5 33t16.5 30.5t21.5 26.5t26 21.5
t29.5 16t33 10t35.5 3.5t35 -3.5t33 -10t30 -16t25.5 -21.5t21 -26.5t16.5 -30.5t10.5 -33t3.5 -36q0 -18 -3.5 -35.5t-10.5 -33.5t-16.5 -30t-21 -26t-25.5 -21.5t-30 -16.5t-33 -10.5t-35 -3.5t-35.5 3.5t-33.5 10.5t-30 16.5t-26 21.5t-21.5 26t-16 30t-10 33.5
t-3.5 35.5zM1271 255q0 -25 4 -49t12.5 -46t20 -41.5t26 -37t32.5 -32t38 -25.5t42 -19t46 -12t50 -4q69 0 125.5 29t94.5 80l-73 54q-28 -38 -65.5 -56.5t-81.5 -18.5q-64 0 -111.5 41.5t-57.5 103.5h415v33q0 25 -4 49t-11.5 46t-18 41.5t-24.5 36.5t-30.5 31.5t-35 25.5
t-40 19t-44 12t-47.5 4t-48.5 -4.5t-45 -12.5t-41 -19.5t-36.5 -26.5t-31 -32.5t-25 -37t-19 -41t-12 -44.5t-4 -47zM1531 432q56 0 99 -36t56 -94h-311q13 58 56.5 94t99.5 36zM2101 420v94h-35q-42 0 -72.5 -18t-49.5 -49v63h-100v-510h101v290q0 59 32.5 94.5t81.5 35.5
h42z" />
    <glyph glyph-name="idotaccent" horiz-adv-x="264" 
d="M132 616q26 0 45 19t19 45q0 27 -19 45.5t-45 18.5q-25 0 -44.5 -18.5t-19.5 -45.5q0 -26 19.5 -45t44.5 -19zM185 529h-106v-529h106v529z" />
    <glyph glyph-name="cordinal" horiz-adv-x="396" 
d="M208 319q63 0 107.5 39t54.5 103h-85q-7 -31 -27 -48t-50 -17q-39 0 -60 27.5t-21 73.5v34q0 46 21 73t60 27q30 0 50 -17.5t27 -47.5h85q-10 66 -53 104.5t-109 38.5q-75 0 -121.5 -48t-46.5 -126v-42q0 -79 47 -126.5t121 -47.5z" />
    <glyph glyph-name="a.school" horiz-adv-x="615" 
d="M537 0v529h-106v-76q-27 42 -69 65t-94 23q-23 0 -44.5 -4.5t-41 -13t-36.5 -20.5t-31 -27.5t-25.5 -34.5t-19.5 -41t-12 -47t-4 -52v-73q0 -27 4 -52t12 -46.5t19.5 -40.5t25.5 -35t31 -28t36.5 -20t41 -12.5t44.5 -4.5q53 0 95.5 24t67.5 67v-80h106zM431 293v-57
q0 -70 -36.5 -112t-99.5 -42t-99.5 42t-36.5 112v57q0 70 36.5 112.5t99.5 42.5t99.5 -42.5t36.5 -112.5z" />
    <glyph glyph-name="aacute.school" horiz-adv-x="615" 
d="M537 0v529h-106v-76q-27 42 -69 65t-94 23q-23 0 -44.5 -4.5t-41 -13t-36.5 -20.5t-31 -27.5t-25.5 -34.5t-19.5 -41t-12 -47t-4 -52v-73q0 -27 4 -52t12 -46.5t19.5 -40.5t25.5 -35t31 -28t36.5 -20t41 -12.5t44.5 -4.5q53 0 95.5 24t67.5 67v-80h106zM431 293v-57
q0 -70 -36.5 -112t-99.5 -42t-99.5 42t-36.5 112v57q0 70 36.5 112.5t99.5 42.5t99.5 -42.5t36.5 -112.5zM340 749l-116 -138h102l135 138h-121z" />
    <glyph glyph-name="abreve.school" horiz-adv-x="615" 
d="M537 0v529h-106v-76q-27 42 -69 65t-94 23q-23 0 -44.5 -4.5t-41 -13t-36.5 -20.5t-31 -27.5t-25.5 -34.5t-19.5 -41t-12 -47t-4 -52v-73q0 -27 4 -52t12 -46.5t19.5 -40.5t25.5 -35t31 -28t36.5 -20t41 -12.5t44.5 -4.5q53 0 95.5 24t67.5 67v-80h106zM431 293v-57
q0 -70 -36.5 -112t-99.5 -42t-99.5 42t-36.5 112v57q0 70 36.5 112.5t99.5 42.5t99.5 -42.5t36.5 -112.5zM298 674q-25 0 -49 15t-38 58l-71 -21q16 -57 60 -88t98 -31t98 31t60 88l-71 21q-14 -43 -38 -58t-49 -15z" />
    <glyph glyph-name="acircumflex.school" horiz-adv-x="615" 
d="M537 0v529h-106v-76q-27 42 -69 65t-94 23q-23 0 -44.5 -4.5t-41 -13t-36.5 -20.5t-31 -27.5t-25.5 -34.5t-19.5 -41t-12 -47t-4 -52v-73q0 -27 4 -52t12 -46.5t19.5 -40.5t25.5 -35t31 -28t36.5 -20t41 -12.5t44.5 -4.5q53 0 95.5 24t67.5 67v-80h106zM431 293v-57
q0 -70 -36.5 -112t-99.5 -42t-99.5 42t-36.5 112v57q0 70 36.5 112.5t99.5 42.5t99.5 -42.5t36.5 -112.5zM226 611l73 82l72 -82h95l-114 138h-105l-115 -138h94z" />
    <glyph glyph-name="adieresis.school" horiz-adv-x="615" 
d="M537 0v529h-106v-76q-27 42 -69 65t-94 23q-23 0 -44.5 -4.5t-41 -13t-36.5 -20.5t-31 -27.5t-25.5 -34.5t-19.5 -41t-12 -47t-4 -52v-73q0 -27 4 -52t12 -46.5t19.5 -40.5t25.5 -35t31 -28t36.5 -20t41 -12.5t44.5 -4.5q53 0 95.5 24t67.5 67v-80h106zM431 293v-57
q0 -70 -36.5 -112t-99.5 -42t-99.5 42t-36.5 112v57q0 70 36.5 112.5t99.5 42.5t99.5 -42.5t36.5 -112.5zM201 614q26 0 44 18.5t18 43.5q0 27 -18 45.5t-44 18.5t-45 -18.5t-19 -45.5q0 -25 19 -43.5t45 -18.5zM396 614q26 0 44 18.5t18 43.5q0 27 -18 45.5t-44 18.5
t-45 -18.5t-19 -45.5q0 -25 19 -43.5t45 -18.5z" />
    <glyph glyph-name="agrave.school" horiz-adv-x="615" 
d="M537 0v529h-106v-76q-27 42 -69 65t-94 23q-23 0 -44.5 -4.5t-41 -13t-36.5 -20.5t-31 -27.5t-25.5 -34.5t-19.5 -41t-12 -47t-4 -52v-73q0 -27 4 -52t12 -46.5t19.5 -40.5t25.5 -35t31 -28t36.5 -20t41 -12.5t44.5 -4.5q53 0 95.5 24t67.5 67v-80h106zM431 293v-57
q0 -70 -36.5 -112t-99.5 -42t-99.5 42t-36.5 112v57q0 70 36.5 112.5t99.5 42.5t99.5 -42.5t36.5 -112.5zM255 749h-121l134 -138h104z" />
    <glyph glyph-name="amacron.school" horiz-adv-x="615" 
d="M537 0v529h-106v-76q-27 42 -69 65t-94 23q-23 0 -44.5 -4.5t-41 -13t-36.5 -20.5t-31 -27.5t-25.5 -34.5t-19.5 -41t-12 -47t-4 -52v-73q0 -27 4 -52t12 -46.5t19.5 -40.5t25.5 -35t31 -28t36.5 -20t41 -12.5t44.5 -4.5q53 0 95.5 24t67.5 67v-80h106zM431 293v-57
q0 -70 -36.5 -112t-99.5 -42t-99.5 42t-36.5 112v57q0 70 36.5 112.5t99.5 42.5t99.5 -42.5t36.5 -112.5zM427 705h-259v-71h259v71z" />
    <glyph glyph-name="aogonek.school" horiz-adv-x="615" 
d="M536 0h1v529h-106v-76q-27 42 -69 65t-94 23q-23 0 -44.5 -4.5t-41 -13t-36.5 -20.5t-31 -27.5t-25.5 -34.5t-19.5 -41t-12 -47t-4 -52v-73q0 -27 4 -52t12 -46.5t19.5 -40.5t25.5 -35t31 -28t36.5 -20t41 -12.5t44.5 -4.5q53 0 95.5 24t67.5 67v-80h37q-46 -37 -62 -69
t-16 -64q0 -37 25.5 -62.5t75.5 -25.5q17 0 33 3t29 8l-11 56q-9 -4 -19 -5.5t-20 -1.5q-22 0 -34.5 12.5t-12.5 34.5t14.5 49.5t65.5 64.5zM431 293v-57q0 -70 -36.5 -112t-99.5 -42t-99.5 42t-36.5 112v57q0 70 36.5 112.5t99.5 42.5t99.5 -42.5t36.5 -112.5z" />
    <glyph glyph-name="aring.school" horiz-adv-x="615" 
d="M537 0v529h-106v-76q-27 42 -69 65t-94 23q-23 0 -44.5 -4.5t-41 -13t-36.5 -20.5t-31 -27.5t-25.5 -34.5t-19.5 -41t-12 -47t-4 -52v-73q0 -27 4 -52t12 -46.5t19.5 -40.5t25.5 -35t31 -28t36.5 -20t41 -12.5t44.5 -4.5q53 0 95.5 24t67.5 67v-80h106zM431 293v-57
q0 -70 -36.5 -112t-99.5 -42t-99.5 42t-36.5 112v57q0 70 36.5 112.5t99.5 42.5t99.5 -42.5t36.5 -112.5zM298 590q46 0 78 32t32 77q0 44 -32 75.5t-78 31.5t-78 -31.5t-32 -75.5q0 -46 32 -77.5t78 -31.5zM298 640q-25 0 -41.5 17t-16.5 42q0 23 16.5 40t41.5 17t41.5 -17
t16.5 -40q0 -24 -16.5 -41.5t-41.5 -17.5z" />
    <glyph glyph-name="atilde.school" horiz-adv-x="615" 
d="M537 0v529h-106v-76q-27 42 -69 65t-94 23q-23 0 -44.5 -4.5t-41 -13t-36.5 -20.5t-31 -27.5t-25.5 -34.5t-19.5 -41t-12 -47t-4 -52v-73q0 -27 4 -52t12 -46.5t19.5 -40.5t25.5 -35t31 -28t36.5 -20t41 -12.5t44.5 -4.5q53 0 95.5 24t67.5 67v-80h106zM431 293v-57
q0 -70 -36.5 -112t-99.5 -42t-99.5 42t-36.5 112v57q0 70 36.5 112.5t99.5 42.5t99.5 -42.5t36.5 -112.5zM231 737q-37 0 -62.5 -28.5t-39.5 -85.5l68 -14q10 34 19 46t22 12q5 0 10.5 -2t11.5 -5t12.5 -7t13.5 -8.5t14.5 -9t15 -8.5t15 -7t15 -5t14.5 -2q37 0 63 28.5
t40 85.5l-68 15q-10 -34 -19.5 -46t-22.5 -12q-5 0 -10.5 2t-11.5 5t-12.5 7t-13.5 8.5t-14.5 8.5l-15 8t-15 7t-15 5t-14.5 2z" />
    <glyph glyph-name="caronSlovak" horiz-adv-x="167" 
d="M26 475h80l42 225h-103z" />
    <glyph glyph-name="uni00200326" horiz-adv-x="225" 
d="M57 -234v-42q50 4 81 41.5t31 84.5q0 37 -17 58t-44 21q-20 0 -35.5 -15t-15.5 -34q0 -8 2 -14t5 -11t7 -8.5t8.5 -7t8.5 -6l8 -5t7 -5t5 -5.5t2 -7q0 -13 -15.5 -27.5t-37.5 -17.5z" />
    <glyph glyph-name="colon.alt" horiz-adv-x="239" 
d="M118 235q-26 0 -45 -19t-19 -46t19 -46t45 -19q27 0 46 19t19 46t-19 46t-46 19zM118 559q-26 0 -45 -19t-19 -46t19 -46t45 -19q27 0 46 19t19 46t-19 46t-46 19z" />
    <glyph glyph-name="reversequoteleft" horiz-adv-x="240" 
d="M185 526q-32 6 -53 33t-21 46q0 5 2 9.5t5 8.5t7.5 7.5t9 6.5t10 6.5t10 7.5t9 8.5t7.5 10t5 12.5t2 15q0 26 -18.5 44t-43.5 18q-33 0 -53.5 -26t-20.5 -72q0 -69 37 -123.5t106 -65.5v54z" />
    <glyph glyph-name="reversequotedblleft" horiz-adv-x="434" 
d="M185 526q-32 6 -53 33t-21 46q0 5 2 9.5t5 8.5t7.5 7.5t9 6.5t10 6.5t10 7.5t9 8.5t7.5 10t5 12.5t2 15q0 26 -18.5 44t-43.5 18q-33 0 -53.5 -26t-20.5 -72q0 -69 37 -123.5t106 -65.5v54zM379 526q-32 6 -53 33t-21 46q0 5 2 9.5t5 8.5t7.5 7.5t9 6.5t10 6.5t10 7.5
t9 8.5t7.5 10t5 12.5t2 15q0 26 -18.5 44t-43.5 18q-33 0 -53.5 -26t-20.5 -72q0 -69 37 -123.5t106 -65.5v54z" />
    <glyph glyph-name="at.cap" horiz-adv-x="840" 
d="M404 169q38 0 71.5 16t56.5 44q16 -26 43 -39.5t64 -13.5q14 0 28 3t27.5 9.5t25.5 16t22 21.5t18.5 27.5t14.5 33t9 38.5t3 44q0 29 -4.5 57t-13 53.5t-21 49.5t-29 45t-36 39.5t-42 34t-48 27.5t-53.5 20t-58 12.5t-62 4.5q-31 0 -60 -4.5t-56.5 -13.5t-53 -22
t-48 -29.5t-42.5 -36t-36.5 -42t-29.5 -47.5t-22.5 -52t-14 -56t-4.5 -59t4.5 -59t13.5 -56t22 -52t30 -47.5t36.5 -42t42 -36t48 -29.5t52.5 -22t56.5 -13.5t59.5 -4.5q70 0 132.5 23t110.5 64l-42 44q-40 -34 -93 -54t-112 -20q-28 0 -54 5t-50.5 14t-46.5 22t-41.5 30
t-35.5 36.5t-29 42.5t-22 48t-13.5 52t-4.5 55q0 26 4 50t11 47t18 44t24.5 40t29.5 35.5t34.5 30t39 24.5t43 18.5t46.5 11.5t49 4q30 0 58.5 -4.5t54 -13t48 -20.5t42.5 -27.5t36 -34.5t29 -40t21.5 -45t13 -49.5t4.5 -53.5q0 -57 -21.5 -93t-55.5 -36q-26 0 -40 15
t-14 37v221h-79v-33q-22 19 -50 30t-59 11q-73 0 -124.5 -51.5t-51.5 -124.5q0 -18 3.5 -35t10 -32.5t16 -29.5t21.5 -26t26 -21.5t30 -16t33 -10t36 -3.5zM410 240q-43 0 -73 30t-30 73q0 44 30 74t73 30t73 -30t30 -74q0 -43 -30 -73t-73 -30z" />
    <glyph glyph-name="dollar.alt" horiz-adv-x="583" 
d="M330 -64v79q94 6 147.5 58.5t53.5 127.5q0 70 -41.5 114.5t-128.5 68.5l-112 32q-45 13 -69 35t-24 56q0 43 33 68.5t82 25.5q60 0 98.5 -32t48.5 -89h104q-10 79 -62 132.5t-130 68.5v82h-79v-78q-85 -5 -142 -55t-57 -129q0 -69 42.5 -113.5t125.5 -68.5l111 -32
q48 -13 72.5 -36.5t24.5 -57.5q0 -42 -31.5 -68t-89.5 -26q-66 0 -106.5 33.5t-48.5 90.5h-103q7 -81 62.5 -135.5t139.5 -68.5v-83h79z" />
    <glyph glyph-name="NTD" horiz-adv-x="1817" 
d="M1580 -59v71q89 5 139.5 54t50.5 118q0 64 -38.5 104.5t-118.5 62.5l-33 9v181q34 -11 56 -37t29 -65h95q-10 73 -58 123t-122 63v75h-71v-71q-80 -5 -133 -51.5t-53 -118.5q0 -63 39 -104.5t116 -62.5l31 -8v-185q-40 10 -64 37.5t-29 67.5h-95q7 -74 58.5 -124.5
t129.5 -63.5v-75h71zM178 0v499l333 -499h109v641h-95v-497l-332 497h-108v-641h93zM719 553h220v-553h101v553h218v88h-539v-88zM1504 377q-42 12 -64.5 33t-22.5 53q0 36 26 58t66 26v-171zM1586 266q43 -12 66.5 -34.5t23.5 -54.5q0 -34 -25 -57t-71 -27v175z" />
    <glyph glyph-name=".ttfautohint" horiz-adv-x="850" 
d="M0 0z" />
    </font>
</defs>
</svg>
