<?xml version="1.0" standalone="no"?>
<!DOCTYPE svg PUBLIC "-//W3C//DTD SVG 1.1//EN" "http://www.w3.org/Graphics/SVG/1.1/DTD/svg11.dtd" >
<svg xmlns="http://www.w3.org/2000/svg" xmlns:xlink="http://www.w3.org/1999/xlink" version="1.1">
<metadata>
Created by FontForge 20201107 at Tue Mar 22 23:55:25 2022
 By 
(c) 2018 Uber Technologies, Inc. All rights reserved.
</metadata>
<defs>
<font id="UberMoveText-Light" horiz-adv-x="596" >
  <font-face 
    font-family="Uber Move Text Light"
    font-weight="300"
    font-stretch="normal"
    units-per-em="1000"
    panose-1="2 1 3 3 3 2 1 6 3 3"
    ascent="800"
    descent="-200"
    x-height="524"
    cap-height="700"
    bbox="-74 -237 2101 968"
    underline-thickness="50"
    underline-position="-125"
    unicode-range="U+000D-FB02"
  />
<missing-glyph horiz-adv-x="514" 
d="M60 -100h394v850h-394v-850z" />
    <glyph glyph-name=".notdef" horiz-adv-x="514" 
d="M60 -100h394v850h-394v-850z" />
    <glyph glyph-name="uni0000" horiz-adv-x="225" 
 />
    <glyph glyph-name="uni0000" horiz-adv-x="225" 
 />
    <glyph glyph-name="uni000D" unicode="&#xd;" horiz-adv-x="225" 
 />
    <glyph glyph-name="space" unicode=" " horiz-adv-x="225" 
 />
    <glyph glyph-name="exclam" unicode="!" horiz-adv-x="189" 
d="M117 178l3 552h-51l3 -552h45zM95 68q-15 0 -26.5 -12t-11.5 -27q0 -16 11.5 -27.5t26.5 -11.5t26.5 11.5t11.5 27.5q0 15 -11.5 27t-26.5 12z" />
    <glyph glyph-name="quotedbl" unicode="&#x22;" horiz-adv-x="253" 
d="M53 557h41l4 175h-49zM159 557h41l4 175h-49z" />
    <glyph glyph-name="numbersign" unicode="#" horiz-adv-x="619" 
d="M72 0h48l65 229h180l-65 -229h48l65 229h136v41h-124l46 160h128v41h-116l65 229h-48l-65 -229h-180l65 229h-48l-65 -229h-137v-41h125l-46 -160h-129v-41h117zM197 270l46 160h180l-46 -160h-180z" />
    <glyph glyph-name="dollar" unicode="$" horiz-adv-x="517" 
d="M280 -63v80q86 0 141.5 48t55.5 129q0 60 -40.5 100.5t-115.5 63.5l-41 13v266q57 -10 92.5 -49.5t44.5 -102.5h49q-8 81 -58.5 133t-127.5 64v78h-47v-75q-83 0 -139 -47t-56 -127q0 -57 39 -99t113 -65l43 -13v-271q-60 10 -99 50t-50 102h-50q10 -81 64 -133t135 -62
v-83h47zM209 392q-62 20 -92 49.5t-30 75.5q0 53 41.5 88t104.5 36v-257zM296 316q69 -21 100 -51.5t31 -78.5q0 -55 -39 -89.5t-108 -36.5v261z" />
    <glyph glyph-name="percent" unicode="%" horiz-adv-x="837" 
d="M218 375q69 0 117 49.5t48 120.5q0 17 -3.5 33t-9.5 30.5t-14.5 28t-20 24.5t-24.5 20t-28 15.5t-31.5 10t-33.5 3.5q-18 0 -35 -3.5t-32 -10t-28.5 -15.5t-24.5 -20t-20 -24.5t-15 -28t-9.5 -30.5t-3.5 -33q0 -71 49 -120.5t119 -49.5zM249 0l387 700h-48l-387 -700h48z
M218 417q-53 0 -88 38.5t-35 90.5q0 50 36 86t87 36q48 0 84 -35.5t36 -86.5q0 -52 -35.5 -90.5t-84.5 -38.5zM619 325q-69 0 -117 -49.5t-48 -120.5q0 -17 3.5 -33t9.5 -30.5t14.5 -28t20 -24.5t24.5 -20t28 -15.5t31.5 -10t33.5 -3.5q18 0 35 3.5t32 10t28.5 15.5t24.5 20
t20 24.5t15 28t9.5 30.5t3.5 33q0 71 -49 120.5t-119 49.5zM619 283q53 0 88 -38.5t35 -90.5q0 -50 -36 -86t-87 -36q-48 0 -84 35.5t-36 86.5q0 52 35.5 90.5t84.5 38.5z" />
    <glyph glyph-name="ampersand" unicode="&#x26;" horiz-adv-x="647" 
d="M500 50q25 -29 46.5 -39.5t55.5 -10.5h29v45h-26q-19 0 -35.5 9t-33.5 29l-48 55q9 13 18 27.5t19 30.5l93 154l-42 23l-92 -154q-7 -12 -14 -23t-13 -21l-171 198l51 31q54 33 78 69t24 85q0 63 -44.5 105t-113.5 42q-67 0 -111 -42.5t-44 -108.5q0 -40 16.5 -74.5
t56.5 -81.5l14 -16l-56 -34q-57 -34 -84.5 -76.5t-27.5 -97.5q0 -19 4 -37t11.5 -34.5t18.5 -31t24.5 -27t30 -22t35 -16.5t38.5 -10.5t42 -3.5q66 0 114 23.5t95 82.5zM235 431q-31 36 -45.5 65t-14.5 58q0 48 30 77.5t78 29.5q46 0 77 -30.5t31 -75.5q0 -33 -19 -61.5
t-56 -50.5l-60 -36zM94 175q0 39 20.5 72t58.5 57l70 43l185 -213q-42 -55 -83 -76.5t-96 -21.5q-66 0 -110.5 40t-44.5 99z" />
    <glyph glyph-name="quotesingle" unicode="'" horiz-adv-x="148" 
d="M53 557h41l4 175h-49z" />
    <glyph glyph-name="parenleft" unicode="(" horiz-adv-x="350" 
d="M101 332q0 143 56.5 253.5t161.5 176.5l-26 39q-114 -72 -178 -192t-64 -277t64 -276.5t178 -192.5l27 39q-105 66 -162 176.5t-57 253.5z" />
    <glyph glyph-name="parenright" unicode=")" horiz-adv-x="350" 
d="M250 332q0 -143 -56.5 -253.5t-161.5 -176.5l26 -39q114 72 178 192t64 277t-64 276.5t-178 192.5l-27 -39q105 -66 162 -176.5t57 -253.5z" />
    <glyph glyph-name="asterisk" unicode="*" horiz-adv-x="405" 
d="M340 416l21 33l-124 75l124 75l-21 33l-120 -74l1 142h-39l1 -143l-121 75l-21 -33l124 -75l-124 -75l21 -33l121 75l-1 -141h39l-1 140z" />
    <glyph glyph-name="plus" unicode="+" horiz-adv-x="549" 
d="M297 151v185h177v44h-177v180h-45v-180h-177v-44h177v-185h45z" />
    <glyph glyph-name="comma" unicode="," horiz-adv-x="199" 
d="M39 -105v-31q49 8 75 48.5t26 89.5q0 32 -13 48.5t-33 16.5q-13 0 -24.5 -10.5t-11.5 -26.5q0 -6 1.5 -10.5t4 -8.5t6 -7t7 -5.5t7.5 -4.5t7.5 -4.5t6 -5t4 -5.5t1.5 -7q0 -22 -18 -47t-46 -30z" />
    <glyph glyph-name="hyphen" unicode="-" horiz-adv-x="462" 
d="M75 276h312v45h-312v-45z" />
    <glyph glyph-name="period" unicode="." horiz-adv-x="189" 
d="M95 68q-15 0 -26.5 -12t-11.5 -27q0 -16 11.5 -27.5t26.5 -11.5t26.5 11.5t11.5 27.5q0 15 -11.5 27t-26.5 12z" />
    <glyph glyph-name="slash" unicode="/" horiz-adv-x="397" 
d="M73 0l304 700h-52l-304 -700h52z" />
    <glyph glyph-name="zero" unicode="0" horiz-adv-x="618" 
d="M70 262q0 -122 66 -196.5t173 -74.5t173 74.5t66 196.5v176q0 122 -66 196.5t-173 74.5q-108 0 -173.5 -74t-65.5 -197v-176zM499 266q0 -106 -51.5 -168.5t-138.5 -62.5t-138.5 62.5t-51.5 168.5v168q0 106 51.5 168.5t138.5 62.5t138.5 -62.5t51.5 -168.5v-168z" />
    <glyph glyph-name="one" unicode="1" horiz-adv-x="422" 
d="M372 45h-134v655h-183v-45h134v-610h-134v-45h317v45z" />
    <glyph glyph-name="two" unicode="2" horiz-adv-x="499" 
d="M447 515q0 82 -59 137.5t-149 55.5q-69 0 -122.5 -35t-78.5 -92l41 -20q22 46 64 74.5t96 28.5q68 0 113.5 -42.5t45.5 -107.5q1 -57 -26 -101t-71 -93l-256 -286v-34h407v45h-341l231 256q48 53 77 101t28 113z" />
    <glyph glyph-name="three" unicode="3" horiz-adv-x="522" 
d="M237 709q-70 0 -123.5 -35t-78.5 -92l41 -20q22 46 64.5 74.5t96.5 28.5q66 0 110.5 -41.5t44.5 -104.5q0 -58 -38 -97t-95 -39h-69v-45h76q63 0 105 -42t42 -108t-46 -109.5t-116 -43.5q-60 0 -108.5 31t-72.5 82l-41 -22q27 -60 86.5 -97.5t135.5 -37.5q23 0 44.5 4
t40.5 11t36 17.5t31 23.5t25 29t18.5 33.5t11.5 36.5t4 40q0 65 -37 113.5t-97 64.5q50 16 81 58.5t31 99.5q0 79 -58 133t-145 54z" />
    <glyph glyph-name="four" unicode="4" horiz-adv-x="562" 
d="M379 0h49v191h100v45h-100v464h-62l-337 -473v-36h350v-191zM90 236l289 408v-408h-289z" />
    <glyph glyph-name="five" unicode="5" horiz-adv-x="541" 
d="M265 430q-39 0 -76.5 -14t-64.5 -39l12 278h306v45h-349l-17 -364l41 -5q28 26 66 40.5t81 14.5q73 0 122 -49t49 -125t-50 -127t-122 -51q-59 0 -106.5 31t-70.5 82l-42 -22q28 -61 86 -98t133 -37q24 0 46 4.5t42 12.5t37.5 20t32.5 27t26.5 32.5t19.5 37.5t12.5 42
t4.5 45q0 24 -4 45.5t-12 41.5t-19 37.5t-25.5 32t-32 26t-37.5 20t-42.5 12.5t-46.5 4z" />
    <glyph glyph-name="six" unicode="6" horiz-adv-x="584" 
d="M306 665q48 0 91 -29t64 -77l41 20q-27 60 -80 95t-117 35q-28 0 -52.5 -6t-47 -17.5t-41 -28.5t-34.5 -38.5t-28 -48t-20 -57.5t-12.5 -66t-4.5 -73v-63q0 -36 4.5 -69.5t13 -62.5t21 -54.5t28.5 -46.5t35 -37.5t41.5 -27.5t47 -17t51.5 -6q24 0 45.5 4.5t41.5 13
t37.5 20.5t32 27.5t26 34t19.5 39t12 43.5t4 48q0 24 -4 46t-12 42t-19.5 37.5t-26 32t-31.5 26t-37 20t-41.5 12.5t-45.5 4q-75 0 -127.5 -45.5t-68.5 -117.5v71q0 157 52.5 237t141.5 80zM305 36q-74 0 -123 51t-49 129t48.5 129t123.5 51q74 0 122.5 -51t48.5 -129
t-48.5 -129t-122.5 -51z" />
    <glyph glyph-name="seven" unicode="7" horiz-adv-x="502" 
d="M476 664v36h-449v-45h393l-345 -655h54z" />
    <glyph glyph-name="eight" unicode="8" horiz-adv-x="558" 
d="M279 -9q96 0 157.5 54t61.5 138q0 66 -38 113.5t-102 66.5q54 18 85.5 61.5t31.5 100.5q0 79 -54.5 131.5t-141.5 52.5t-141.5 -52.5t-54.5 -131.5q0 -57 31.5 -100.5t85.5 -61.5q-64 -19 -102 -66.5t-38 -113.5q0 -84 61.5 -138t157.5 -54zM279 383q-65 0 -106 39
t-41 102q0 64 41 103t106 39t106 -39t41 -103q0 -63 -41 -102t-106 -39zM279 338q75 0 122.5 -42t47.5 -110t-47.5 -110t-122.5 -42t-122.5 42t-47.5 110t47.5 110t122.5 42z" />
    <glyph glyph-name="nine" unicode="9" horiz-adv-x="584" 
d="M278 35q-48 0 -91 29t-64 77l-41 -20q27 -60 80 -95t117 -35q28 0 52.5 6t47 17.5t41 28.5t34.5 38.5t28 48t20 57.5t12.5 66t4.5 73v63q0 36 -4.5 69.5t-13 62.5t-21 54.5t-28.5 46.5t-35 37.5t-41.5 27.5t-47 17t-51.5 6q-24 0 -45.5 -4.5t-41.5 -13t-37.5 -20.5
t-32 -27.5t-26 -34t-19.5 -39t-12 -43.5t-4 -48q0 -24 4 -46t12 -42t19.5 -37.5t26 -32t31.5 -26t37 -20t41.5 -12.5t45.5 -4q75 0 127.5 45.5t68.5 117.5v-71q0 -157 -52.5 -237t-141.5 -80zM279 664q74 0 123 -51t49 -129t-48.5 -129t-123.5 -51q-74 0 -122.5 51
t-48.5 129t48.5 129t122.5 51z" />
    <glyph glyph-name="colon" unicode=":" horiz-adv-x="199" 
d="M95 68q-15 0 -26.5 -12t-11.5 -27q0 -16 11.5 -27.5t26.5 -11.5t26.5 11.5t11.5 27.5q0 15 -11.5 27t-26.5 12zM95 507q-15 0 -26.5 -12t-11.5 -27q0 -16 11.5 -27.5t26.5 -11.5t26.5 11.5t11.5 27.5q0 15 -11.5 27t-26.5 12z" />
    <glyph glyph-name="semicolon" unicode=";" horiz-adv-x="199" 
d="M39 -105v-31q49 8 75 48.5t26 89.5q0 32 -13 48.5t-33 16.5q-13 0 -24.5 -10.5t-11.5 -26.5q0 -6 1.5 -10.5t4 -8.5t6 -7t7 -5.5t7.5 -4.5t7.5 -4.5t6 -5t4 -5.5t1.5 -7q0 -22 -18 -47t-46 -30zM95 507q-15 0 -26.5 -12t-11.5 -27q0 -16 11.5 -27.5t26.5 -11.5t26.5 11.5
t11.5 27.5q0 15 -11.5 27t-26.5 12z" />
    <glyph glyph-name="less" unicode="&#x3c;" horiz-adv-x="370" 
d="M332 524h-60l-246 -262l246 -262h63l-243 263z" />
    <glyph glyph-name="equal" unicode="=" horiz-adv-x="549" 
d="M474 453h-399v-42h399v42zM474 303h-399v-42h399v42z" />
    <glyph glyph-name="greater" unicode="&#x3e;" horiz-adv-x="370" 
d="M38 0h60l246 262l-246 262h-63l243 -263z" />
    <glyph glyph-name="question" unicode="?" horiz-adv-x="497" 
d="M448 514q0 21 -4 41t-12 38t-19 34t-25.5 29.5t-32 24.5t-38 18.5t-43 11.5t-47.5 4q-62 0 -116.5 -28t-90.5 -77l39 -27q29 41 73.5 64.5t94.5 23.5q78 0 125 -46t47 -111t-42.5 -111t-114.5 -46h-29l3 -170h43l3 127q84 7 135 64t51 136zM233 68q-15 0 -26.5 -12
t-11.5 -27q0 -16 11 -27.5t27 -11.5t27 11.5t11 27.5q0 15 -11.5 27t-26.5 12z" />
    <glyph glyph-name="at" unicode="@" horiz-adv-x="834" 
d="M403 72q43 0 78 19.5t57 51.5q12 -30 37 -44.5t59 -14.5q14 0 27 3t25.5 9.5t24 15.5t21 21t17.5 26.5t13.5 31.5t8.5 36.5t3 40.5q0 34 -5.5 65t-16 59.5t-26 53.5t-34.5 47t-42.5 40.5t-50 32.5t-55.5 24t-61 15t-66 5q-30 0 -58 -4.5t-55 -13.5t-51.5 -22t-46.5 -29.5
t-41.5 -36t-36 -42t-29 -47.5t-21.5 -52t-13.5 -55.5t-4.5 -58.5t4.5 -58.5t13.5 -55.5t21.5 -51.5t29 -47t36 -42t41.5 -36t46.5 -29t51.5 -21.5t55 -13.5t58 -4.5q70 0 132 21t111 60l-29 33q-42 -34 -97.5 -53t-116.5 -19q-26 0 -50.5 4t-48 12t-45 19t-41 25.5t-36 31.5
t-30.5 37t-25.5 41.5t-19 45.5t-11.5 49t-4 52t4 52t11.5 49t19 46t25.5 42t30.5 37t36 31.5t41 26t45 19.5t48 12t50.5 4q29 0 57 -4.5t53.5 -13t48.5 -21t43 -28.5t37 -35.5t30 -42t22 -47.5t14 -52.5t5 -57.5q0 -59 -26 -99.5t-66 -40.5q-28 0 -43 17t-15 42v224h-47v-55
q-22 28 -55 44.5t-72 16.5q-70 0 -120 -50t-50 -121q0 -72 49.5 -122t120.5 -50zM406 115q-52 0 -88.5 37.5t-36.5 91.5q0 53 36.5 90.5t88.5 37.5q51 0 88 -37.5t37 -90.5t-37 -91t-88 -38z" />
    <glyph glyph-name="A" unicode="A" horiz-adv-x="639" 
d="M344 700h-49l-285 -700h54l83 208h343l84 -208h55zM166 254l152 382l154 -382h-306z" />
    <glyph glyph-name="B" unicode="B" horiz-adv-x="626" 
d="M100 0h260q22 0 43 4t39.5 11.5t35 18t30 23.5t24.5 28.5t18.5 33t11.5 36.5t4 39q0 65 -44.5 116t-116.5 65q50 19 80.5 59t30.5 89q0 18 -4 35.5t-11 33.5t-17.5 30t-23.5 26t-28.5 21.5t-33.5 16.5t-37.5 10.5t-40.5 3.5h-220v-700zM320 654q63 0 104 -39t41 -94
q0 -54 -41 -92.5t-104 -38.5h-169v264h169zM360 46h-209v298h209q67 0 111 -43.5t44 -104.5t-44 -105.5t-111 -44.5z" />
    <glyph glyph-name="C" unicode="C" horiz-adv-x="685" 
d="M637 475q-6 32 -17.5 60.5t-27 52t-35 43t-42 34.5t-47.5 25t-52.5 15t-56.5 5q-27 0 -52 -4.5t-49 -12.5t-45 -20.5t-40 -29t-35 -36.5t-28.5 -43.5t-21.5 -50.5t-13.5 -57.5t-4.5 -64.5v-82q0 -34 4.5 -64.5t13.5 -57.5t21.5 -50.5t28.5 -43.5t35 -36.5t40 -29
t45 -20.5t49 -12.5t52 -4.5q29 0 56.5 5t52.5 15t47.5 25t42 34.5t35 43t27 52t17.5 60.5h-50q-21 -91 -84 -139.5t-144 -48.5q-25 0 -48 4.5t-44.5 13.5t-40.5 22t-35.5 30t-29 38.5t-21.5 47t-14 54.5t-5 62v82q0 33 5 62t14 54.5t21.5 47t29 38.5t35.5 30t40.5 22
t44.5 13.5t48 4.5q81 0 144 -48.5t84 -139.5h50z" />
    <glyph glyph-name="D" unicode="D" horiz-adv-x="707" 
d="M637 309v80q0 143 -78 227t-221 84h-238v-700h238q144 0 221.5 83t77.5 226zM335 654q122 0 186.5 -71.5t64.5 -193.5v-80q0 -124 -64 -193.5t-187 -69.5h-184v608h184z" />
    <glyph glyph-name="E" unicode="E" horiz-adv-x="585" 
d="M100 0h425v46h-374v282h364v46h-364v280h374v46h-425v-700z" />
    <glyph glyph-name="F" unicode="F" horiz-adv-x="585" 
d="M151 0v328h364v46h-364v280h374v46h-425v-700h51z" />
    <glyph glyph-name="G" unicode="G" horiz-adv-x="728" 
d="M70 309q0 -36 5.5 -68.5t16 -61.5t25.5 -54.5t34.5 -46.5t42.5 -37.5t50 -27.5t56.5 -17t62.5 -6q75 0 136 39t90 99v-128h49v349h-268v-46h219v-44q0 -23 -4 -44.5t-11 -40.5t-17 -35.5t-23 -30.5t-28 -25t-31.5 -19.5t-35 -14.5t-37.5 -9t-39 -3q-108 0 -175 75
t-67 197v82q0 122 66.5 197t174.5 75q75 0 136.5 -41t87.5 -116l47 15q-30 87 -104 138t-167 51q-33 0 -62.5 -6t-56.5 -17t-50 -27.5t-42.5 -37.5t-34 -46.5t-25 -54.5t-16 -61.5t-5.5 -68.5v-82z" />
    <glyph glyph-name="H" unicode="H" horiz-adv-x="701" 
d="M151 0v328h399v-328h51v700h-51v-326h-399v326h-51v-700h51z" />
    <glyph glyph-name="I" unicode="I" horiz-adv-x="251" 
d="M151 0v700h-51v-700h51z" />
    <glyph glyph-name="J" unicode="J" horiz-adv-x="488" 
d="M28 44q31 -25 71.5 -38.5t84.5 -13.5q22 0 43.5 3.5t40.5 11t36.5 18.5t31.5 25t25.5 32t20 39t12.5 45t4 52v482h-51v-482q0 -88 -47 -133.5t-116 -45.5q-37 0 -70 11t-59 32z" />
    <glyph glyph-name="K" unicode="K" horiz-adv-x="578" 
d="M151 0v332l369 -332h70l-393 355l389 345h-67l-368 -328v328h-51v-700h51z" />
    <glyph glyph-name="L" unicode="L" horiz-adv-x="560" 
d="M525 46h-374v654h-51v-700h425v46z" />
    <glyph glyph-name="M" unicode="M" horiz-adv-x="874" 
d="M151 0l-2 655l265 -655h46l265 655l-2 -655h51v700h-82l-254 -632l-255 632h-83v-700h51z" />
    <glyph glyph-name="N" unicode="N" horiz-adv-x="731" 
d="M149 0l-2 631l426 -631h58v700h-49l2 -629l-425 629h-59v-700h49z" />
    <glyph glyph-name="O" unicode="O" horiz-adv-x="734" 
d="M70 391v-82q0 -36 5.5 -69t16 -62.5t26 -54.5t35 -46t43 -37t50.5 -27.5t57.5 -17t63.5 -5.5t63.5 5.5t57.5 17t50.5 27.5t43 37t35 46t26 54.5t16 62.5t5.5 69v82q0 36 -5.5 69t-16 62.5t-26 54.5t-35 46t-43 37t-50.5 27.5t-57.5 17t-63.5 5.5t-63.5 -5.5t-57.5 -17
t-50.5 -27.5t-43 -37t-35 -46t-26 -54.5t-16 -62.5t-5.5 -69zM121 386q0 132 68 204.5t178 72.5t178 -72.5t68 -204.5v-72q0 -132 -68 -204.5t-178 -72.5t-178 72.5t-68 204.5v72z" />
    <glyph glyph-name="P" unicode="P" horiz-adv-x="585" 
d="M100 0h51v301h189q22 0 43 4t39.5 11.5t35 18t30 24t24.5 29.5t18.5 34t11.5 37t4 40t-4 40.5t-11.5 37.5t-18.5 34t-24.5 30t-30 25t-35 18.5t-39.5 11.5t-43 4h-240v-700zM340 654q67 0 111 -46t44 -109t-44 -108t-111 -45h-189v308h189z" />
    <glyph glyph-name="Q" unicode="Q" horiz-adv-x="734" 
d="M70 391v-82q0 -36 5.5 -69t16 -62.5t26 -54.5t35 -46t43 -37t50.5 -27.5t57.5 -17t63.5 -5.5q49 0 91.5 12.5t76.5 34.5l65 -79l38 31l-65 79q43 42 67 103.5t24 137.5v82q0 36 -5.5 69t-16 62.5t-26 54.5t-35 46t-43 37t-50.5 27.5t-57.5 17t-63.5 5.5t-63.5 -5.5
t-57.5 -17t-50.5 -27.5t-43 -37t-35 -46t-26 -54.5t-16 -62.5t-5.5 -69zM121 386q0 132 68 204.5t178 72.5t178 -72.5t68 -204.5v-72q0 -67 -18.5 -120t-51.5 -88l-94 115l-38 -31l94 -115q-28 -19 -63 -28.5t-75 -9.5q-110 0 -178 72.5t-68 204.5v72z" />
    <glyph glyph-name="R" unicode="R" horiz-adv-x="600" 
d="M151 0v311h174l193 -311h58l-195 315q73 13 119 66t46 123q0 20 -4 39.5t-11.5 37t-18.5 33t-24.5 29t-30 24t-35 18t-39.5 11.5t-43 4h-240v-700h51zM340 654q67 0 111 -44.5t44 -105.5t-44 -104.5t-111 -43.5h-189v298h189z" />
    <glyph glyph-name="S" unicode="S" 
d="M54 204q11 -96 82 -154.5t176 -58.5q100 0 160.5 52.5t60.5 137.5q0 65 -42.5 109.5t-126.5 68.5l-125 36q-63 19 -94.5 51t-31.5 81q0 60 45.5 98t114.5 38q81 0 132 -44.5t61 -124.5h51q-10 97 -76.5 156t-165.5 59q-93 0 -153 -52t-60 -135q0 -61 40.5 -107t115.5 -67
l120 -34q75 -22 109 -54.5t34 -83.5q0 -64 -46.5 -101.5t-123.5 -37.5q-82 0 -137 44.5t-68 122.5h-52z" />
    <glyph glyph-name="T" unicode="T" horiz-adv-x="609" 
d="M30 654h249v-654h51v654h249v46h-549v-46z" />
    <glyph glyph-name="U" unicode="U" horiz-adv-x="701" 
d="M141 258v442h-51v-446q0 -26 4 -50.5t11.5 -46.5t18.5 -41.5t25 -36t30.5 -30.5t35 -24.5t39 -18t42.5 -11t45 -3.5q20 0 38 3t34.5 8.5t31.5 13t28 17t24.5 20.5t21 23t17.5 24t14 25v-126h51v700h-51v-442q0 -25 -4 -47.5t-12 -42.5t-19 -37.5t-25 -31.5t-30.5 -25.5
t-35 -19t-39 -11.5t-41.5 -4q-22 0 -42 4t-38.5 11.5t-34.5 19t-30 25.5t-24.5 31.5t-18 37.5t-11.5 42.5t-4 47.5z" />
    <glyph glyph-name="V" unicode="V" horiz-adv-x="639" 
d="M295 0h49l285 700h-54l-254 -636l-256 636h-55z" />
    <glyph glyph-name="W" unicode="W" horiz-adv-x="926" 
d="M486 700h-44l-198 -615l-152 615h-52l178 -700h44l201 619l201 -619h44l178 700h-50l-151 -615z" />
    <glyph glyph-name="X" unicode="X" horiz-adv-x="566" 
d="M5 0h56l222 328l222 -328h56l-250 369l225 331h-56l-197 -290l-197 290h-56l225 -331z" />
    <glyph glyph-name="Y" unicode="Y" horiz-adv-x="591" 
d="M321 0v294l265 406h-56l-233 -359l-234 359h-58l265 -405v-295h51z" />
    <glyph glyph-name="Z" unicode="Z" horiz-adv-x="536" 
d="M43 654h388l-394 -618v-36h458v46h-395l394 618v36h-451v-46z" />
    <glyph glyph-name="bracketleft" unicode="[" horiz-adv-x="310" 
d="M47 -125h235v42h-187v831h187v42h-235v-915z" />
    <glyph glyph-name="backslash" unicode="\" horiz-adv-x="397" 
d="M376 0l-304 700h-52l304 -700h52z" />
    <glyph glyph-name="bracketright" unicode="]" horiz-adv-x="310" 
d="M262 790h-235v-42h187v-831h-187v-42h235v915z" />
    <glyph glyph-name="asciicircum" unicode="^" horiz-adv-x="510" 
d="M44 350h52l159 297l159 -297h52l-189 350h-44z" />
    <glyph glyph-name="underscore" unicode="_" horiz-adv-x="477" 
d="M481 -80h-485v-42h485v42z" />
    <glyph glyph-name="grave" unicode="`" horiz-adv-x="500" 
d="M226 705h-66l123 -120h53z" />
    <glyph glyph-name="a" unicode="a" horiz-adv-x="528" 
d="M45 142q0 -66 49 -108.5t124 -42.5q51 0 95.5 27t66.5 71v-19q0 -32 21 -51t56 -19h32v45h-25q-16 0 -25.5 8t-9.5 23v296q0 72 -45.5 115.5t-123.5 43.5q-51 0 -93 -17t-85 -57l32 -34q30 33 65 48.5t79 15.5q57 0 89.5 -33t32.5 -90v-64l-178 -8q-73 -3 -115 -43.5
t-42 -106.5zM93 144q0 46 30 74t83 30l174 7v-80q0 -58 -47.5 -99t-113.5 -41q-54 0 -90 31t-36 78z" />
    <glyph glyph-name="b" unicode="b" 
d="M96 0h49v105q24 -52 71 -82.5t108 -30.5q22 0 42.5 4t39 12.5t35 20t30 26.5t24.5 33t18.5 38.5t11.5 44t4 48.5v86q0 101 -58 164t-147 63q-61 0 -108 -30.5t-71 -82.5v311h-49v-730zM145 299q0 84 46 136.5t121 52.5t121.5 -52.5t46.5 -136.5v-74q0 -84 -46.5 -136.5
t-121.5 -52.5t-121 52.5t-46 136.5v74z" />
    <glyph glyph-name="c" unicode="c" horiz-adv-x="534" 
d="M279 -8q74 0 129 44t74 118h-50q-16 -54 -57 -86t-96 -32q-72 0 -117.5 52.5t-45.5 136.5v74q0 84 45.5 136.5t117.5 52.5q55 0 95.5 -32t56.5 -86h51q-19 75 -74 118.5t-129 43.5q-23 0 -44 -4t-40 -12t-36 -20t-31.5 -26.5t-25.5 -32.5t-19 -39t-12 -44.5t-4 -48.5v-86
q0 -25 4 -48.5t12 -44.5t19.5 -39t25.5 -32.5t31 -26.5t36 -20t40 -12t44 -4z" />
    <glyph glyph-name="d" unicode="d" 
d="M501 0v730h-49v-312q-23 52 -70.5 83t-109.5 31q-88 0 -146.5 -63t-58.5 -164v-86q0 -25 4 -48.5t11.5 -44t18.5 -38.5t24.5 -33t30 -26.5t35 -20t39 -12.5t42.5 -4q62 0 109.5 31t70.5 83v-106h49zM452 299v-74q0 -84 -46.5 -136.5t-121.5 -52.5t-121.5 52.5
t-46.5 136.5v74q0 84 46.5 136.5t121.5 52.5t121.5 -52.5t46.5 -136.5z" />
    <glyph glyph-name="e" unicode="e" horiz-adv-x="543" 
d="M67 219q0 -25 4 -47.5t12.5 -43t20 -38.5t26 -33.5t31.5 -27.5t36.5 -20t41 -12.5t44.5 -4.5q59 0 105.5 24t83.5 73l-40 27q-30 -42 -66.5 -61t-82.5 -19q-70 0 -118 52t-48 133v27h364v62q0 24 -4 46.5t-11.5 42.5t-18 38t-24 32.5t-29.5 26t-34.5 20t-38.5 12.5t-42 4
q-23 0 -44 -4.5t-40.5 -12.5t-36.5 -20t-31 -27t-25 -33t-19 -38.5t-12 -43.5t-4 -48v-86zM117 303q0 81 46 133t115 52q66 0 110 -51t44 -129v-15h-315v10z" />
    <glyph glyph-name="f" unicode="f" horiz-adv-x="370" 
d="M37 479h109v-479h49v479h138v45h-138v113q0 27 13 42t38 15h87v45h-94q-43 0 -68 -26t-25 -70v-119h-109v-45z" />
    <glyph glyph-name="g" unicode="g" 
d="M200 -212h123q84 0 130.5 46.5t46.5 129.5v560h-49v-105q-23 51 -70.5 82t-108.5 31q-88 0 -146.5 -63.5t-58.5 -165.5v-84q0 -25 4 -48.5t11.5 -44.5t18.5 -39t24.5 -32.5t30 -26.5t35 -20t39 -12t42.5 -4q61 0 108.5 30t70.5 82v-135q0 -68 -33.5 -102t-102.5 -34h-115
v-45zM451 299v-75q0 -85 -46 -136.5t-121 -51.5t-121.5 51.5t-46.5 136.5v75q0 84 46.5 136.5t121.5 52.5t121 -52.5t46 -136.5z" />
    <glyph glyph-name="h" unicode="h" 
d="M500 343q0 20 -3.5 38.5t-10 35.5t-16 32t-21.5 28t-26.5 23t-31 17.5t-35.5 11t-39 3.5q-60 0 -106.5 -31t-65.5 -82v311h-49v-730h49v326q0 69 45.5 115t115.5 46q66 0 105.5 -43t39.5 -108v-336h49v343z" />
    <glyph glyph-name="i" unicode="i" horiz-adv-x="241" 
d="M121 643q15 0 27 12.5t12 27.5q0 16 -12 28t-27 12t-27 -12t-12 -28q0 -15 12 -27.5t27 -12.5zM145 524h-49v-524h49v524z" />
    <glyph glyph-name="j" unicode="j" horiz-adv-x="241" 
d="M121 643q15 0 27 12.5t12 27.5q0 16 -12 28t-27 12t-27 -12t-12 -28q0 -15 12 -27.5t27 -12.5zM57 -212q40 0 64 21.5t24 58.5v656h-49v-651q0 -19 -12 -29.5t-34 -10.5h-35v-45h42z" />
    <glyph glyph-name="k" unicode="k" horiz-adv-x="478" 
d="M484 524h-70l-269 -236v442h-49v-730h49v250l276 -250h71l-301 271z" />
    <glyph glyph-name="l" unicode="l" horiz-adv-x="241" 
d="M145 0v730h-49v-730h49z" />
    <glyph glyph-name="m" unicode="m" horiz-adv-x="920" 
d="M145 320q0 72 43 119.5t109 47.5q62 0 100 -44.5t38 -112.5v-330h49v320q0 72 43 119.5t109 47.5q62 0 100.5 -44.5t38.5 -112.5v-330h49v338q0 20 -3.5 39.5t-9.5 37t-15.5 33t-21 28.5t-25.5 23.5t-30.5 17.5t-34.5 11t-38 4q-66 0 -111.5 -39t-60.5 -94
q-16 58 -60 95.5t-107 37.5q-56 0 -100 -31t-62 -84v107h-49v-524h49v320z" />
    <glyph glyph-name="n" unicode="n" 
d="M500 343q0 20 -3.5 38.5t-10 35.5t-16 32t-21.5 28t-26.5 23t-31 17.5t-35.5 11t-39 3.5q-60 0 -106.5 -31t-65.5 -82v105h-49v-524h49v326q0 69 45.5 115t115.5 46q66 0 105.5 -43t39.5 -108v-336h49v343z" />
    <glyph glyph-name="o" unicode="o" horiz-adv-x="568" 
d="M501 219v86q0 25 -4.5 48.5t-12.5 44.5t-19.5 39t-26 32.5t-32 26.5t-37 20t-41 12t-44.5 4t-44.5 -4t-41 -12t-37 -20t-32 -26.5t-26 -32.5t-19.5 -39t-12.5 -44.5t-4.5 -48.5v-86q0 -25 4.5 -48.5t12.5 -44.5t19.5 -39t26 -32.5t32 -26.5t37 -20t41 -12t44.5 -4t44.5 4
t41 12t37 20t32 26.5t26 32.5t19.5 39t12.5 44.5t4.5 48.5zM452 299v-74q0 -84 -46.5 -136.5t-121.5 -52.5t-121.5 52.5t-46.5 136.5v74q0 84 46.5 136.5t121.5 52.5t121.5 -52.5t46.5 -136.5z" />
    <glyph glyph-name="p" unicode="p" 
d="M96 524v-736h49v317q24 -52 71 -82.5t108 -30.5q89 0 147 63t58 164v86q0 25 -4 48.5t-11.5 44t-18.5 38.5t-24.5 33t-30 26.5t-35 20t-39 12.5t-42.5 4q-61 0 -108 -30.5t-71 -82.5v105h-49zM145 225v74q0 84 46 136.5t121 52.5t121.5 -52.5t46.5 -136.5v-74
q0 -84 -46.5 -136.5t-121.5 -52.5t-121 52.5t-46 136.5z" />
    <glyph glyph-name="q" unicode="q" 
d="M501 524h-49v-106q-23 52 -70.5 83t-109.5 31q-88 0 -146.5 -63t-58.5 -164v-86q0 -25 4 -48.5t11.5 -44t18.5 -38.5t24.5 -33t30 -26.5t35 -20t39 -12.5t42.5 -4q62 0 109.5 31t70.5 83v-318h49v736zM452 299v-74q0 -84 -46.5 -136.5t-121.5 -52.5t-121.5 52.5
t-46.5 136.5v74q0 84 46.5 136.5t121.5 52.5t121.5 -52.5t46.5 -136.5z" />
    <glyph glyph-name="r" unicode="r" horiz-adv-x="357" 
d="M325 481v47h-46q-46 0 -83 -30t-51 -78v104h-49v-524h49v331q0 62 38.5 106t95.5 44h46z" />
    <glyph glyph-name="s" unicode="s" horiz-adv-x="473" 
d="M246 -9q77 0 125.5 40t48.5 104q0 50 -38.5 87t-106.5 56l-79 22q-43 12 -69.5 35t-26.5 61q0 39 31.5 65.5t86.5 26.5t97 -34.5t49 -83.5h50q-2 18 -8 34.5t-14.5 31.5t-19.5 27.5t-24.5 23.5t-28.5 19t-31.5 14t-34 9t-36.5 3q-75 0 -120.5 -40t-45.5 -103
q0 -50 35 -84t98 -51l79 -22q50 -14 79 -38t29 -65q0 -39 -34.5 -66.5t-89.5 -27.5q-65 0 -106.5 36t-49.5 85h-49q10 -69 65 -117t139 -48z" />
    <glyph glyph-name="t" unicode="t" horiz-adv-x="371" 
d="M244 0h90v45h-84q-27 0 -41.5 13.5t-14.5 37.5v383h140v45h-140v160h-49v-160h-108v-45h108v-388q0 -42 27 -66.5t72 -24.5z" />
    <glyph glyph-name="u" unicode="u" 
d="M96 181q0 -20 3.5 -38.5t10 -35.5t16 -32t21.5 -28t26.5 -23t31.5 -17.5t35.5 -11t39.5 -3.5q59 0 105.5 31t65.5 82v-105h49v524h-49v-326q0 -69 -45.5 -115t-115.5 -46q-65 0 -105 43t-40 108v336h-49v-343z" />
    <glyph glyph-name="v" unicode="v" horiz-adv-x="479" 
d="M222 0h35l216 524h-50l-182 -450l-184 450h-50z" />
    <glyph glyph-name="w" unicode="w" horiz-adv-x="719" 
d="M339 524l-140 -442l-121 442h-51l148 -524h42l143 442l142 -442h42l148 524h-50l-121 -440l-139 440h-43z" />
    <glyph glyph-name="x" unicode="x" horiz-adv-x="450" 
d="M5 0h54l165 235l166 -235h55l-193 273l178 251h-54l-150 -213l-151 213h-54l176 -251z" />
    <glyph glyph-name="y" unicode="y" horiz-adv-x="479" 
d="M164 -116q-9 -22 -26.5 -36.5t-44.5 -14.5h-56v-45h63q45 0 70.5 26.5t40.5 64.5l262 645h-50l-181 -450l-185 450h-50l209 -510z" />
    <glyph glyph-name="z" unicode="z" horiz-adv-x="456" 
d="M41 479h306l-309 -443v-36h375v45h-314l308 443v36h-366v-45z" />
    <glyph glyph-name="braceleft" unicode="{" horiz-adv-x="374" 
d="M238 181q6 14 9 27.5t2.5 25.5t-3.5 23.5t-8.5 21t-12.5 18t-15.5 15.5t-18.5 12t-21 9q11 4 21 9t18.5 12t15.5 15.5t12.5 18t8.5 21t3.5 23.5t-2.5 25.5t-9 27.5l-61 140q-7 17 -10.5 31t-3 26.5t3.5 22.5t9 18.5t14.5 14.5t18.5 10t21.5 6.5t24.5 2.5q22 0 40.5 -4.5
t37.5 -12.5l15 38q-25 12 -45.5 17t-46.5 5q-22 0 -41.5 -4t-35.5 -11t-28 -17.5t-20 -24t-12 -29t-4 -33.5t5 -37.5t15 -40.5l53 -114q26 -55 3.5 -94.5t-76.5 -39.5h-88v-44h88q54 0 76.5 -39.5t-3.5 -94.5l-53 -114q-10 -21 -15 -40.5t-5 -37.5t4 -33.5t12 -29t20 -24
t28 -17.5t35.5 -11t41.5 -4q26 0 46.5 5t45.5 17l-15 38q-19 -8 -37.5 -12.5t-40.5 -4.5q-13 0 -24.5 2.5t-21.5 6.5t-18.5 10t-14.5 14.5t-9 18.5t-3.5 22.5t3 26.5t10.5 31z" />
    <glyph glyph-name="bar" unicode="|" horiz-adv-x="229" 
d="M139 -212v912h-49v-912h49z" />
    <glyph glyph-name="braceright" unicode="}" horiz-adv-x="374" 
d="M136 485q-6 -14 -9 -27.5t-2.5 -25.5t3.5 -23.5t8.5 -21t12.5 -18t15.5 -15.5t18.5 -12t21 -9q-11 -4 -21 -9t-18.5 -12t-15.5 -15.5t-12.5 -18t-8.5 -21t-3.5 -23.5t2.5 -25.5t9 -27.5l61 -140q7 -17 10.5 -31t3 -26.5t-3.5 -22.5t-9 -18.5t-14.5 -14.5t-18.5 -10
t-21.5 -6.5t-24.5 -2.5q-22 0 -40.5 4.5t-37.5 12.5l-15 -38q25 -12 45.5 -17t46.5 -5q22 0 41.5 4t35.5 11t28 17.5t20 24t12 29t4 33.5t-5 37.5t-15 40.5l-53 114q-26 55 -3.5 94.5t76.5 39.5h88v44h-88q-54 0 -76.5 39.5t3.5 94.5l53 114q10 21 15 40.5t5 37.5t-4 33.5
t-12 29t-20 24t-28 17.5t-35.5 11t-41.5 4q-26 0 -46.5 -5t-45.5 -17l15 -38q19 8 37.5 12.5t40.5 4.5q13 0 24.5 -2.5t21.5 -6.5t18.5 -10t14.5 -14.5t9 -18.5t3.5 -22.5t-3 -26.5t-10.5 -31z" />
    <glyph glyph-name="asciitilde" unicode="~" horiz-adv-x="548" 
d="M117 316q17 50 31.5 67t34.5 17q7 0 16 -2t19 -6t21 -9t22.5 -11l23 -12l23 -12t23 -11t22.5 -9t21 -6t19 -2q37 0 63 31t43 88l-43 12q-17 -50 -31.5 -67t-34.5 -17q-8 0 -16.5 2t-18.5 6t-21 9t-22.5 11l-23 12l-23 12t-23 11t-22.5 9t-21 6t-19 2q-37 0 -63 -31
t-43 -88z" />
    <glyph glyph-name="uni00A0" unicode="&#xa0;" horiz-adv-x="225" 
 />
    <glyph glyph-name="exclamdown" unicode="&#xa1;" horiz-adv-x="189" 
d="M73 522l-3 -552h51l-3 552h-45zM95 632q15 0 26.5 12t11.5 27q0 16 -11.5 27.5t-26.5 11.5t-26.5 -11.5t-11.5 -27.5q0 -15 11.5 -27t26.5 -12z" />
    <glyph glyph-name="cent" unicode="&#xa2;" horiz-adv-x="546" 
d="M303 627h-47v-96q-81 -9 -134 -70.5t-53 -155.5v-86q0 -94 53 -155.5t134 -70.5v-96h47v96q66 7 115 49.5t66 111.5h-50q-15 -49 -49.5 -80t-81.5 -37v450q47 -6 81 -37t49 -80h51q-17 69 -66 112t-115 49v96zM118 225v74q0 77 38 127.5t100 59.5v-448q-62 9 -100 59.5
t-38 127.5z" />
    <glyph glyph-name="sterling" unicode="&#xa3;" horiz-adv-x="551" 
d="M369 365h-201l-16 62q-28 110 11.5 173t124.5 63q68 0 115 -42t53 -110h48q-7 90 -65.5 143t-150.5 53q-27 0 -51 -5t-45 -15t-37.5 -24.5t-29 -33t-20.5 -41t-11 -48.5t-0.5 -55t10.5 -61l15 -59h-72v-43h83l36 -144q16 -63 -11.5 -98t-74.5 -35h-44v-45h485v45h-345
q27 18 39 52t0 81l-36 144h190v43z" />
    <glyph glyph-name="yen" unicode="&#xa5;" horiz-adv-x="591" 
d="M95 201v-43h180v-158h51v158h170v43h-170v91h170v43h-143l238 365h-56l-233 -359l-234 359h-58l239 -365h-154v-43h180v-91h-180z" />
    <glyph glyph-name="section" unicode="&#xa7;" horiz-adv-x="470" 
d="M406 28q0 34 -16.5 62t-50.5 50q52 12 84 49.5t32 91.5q0 51 -34 88.5t-97 59.5l-119 41q-49 16 -71 42t-22 61q0 40 29.5 65.5t76.5 25.5q49 0 88.5 -31.5t46.5 -78.5h48q-9 66 -61 109t-123 43q-68 0 -110 -38.5t-42 -100.5q0 -34 15.5 -61t46.5 -48q-51 -9 -82 -47
t-31 -94q0 -50 34 -88t97 -60l119 -41q49 -17 72 -43t23 -63q0 -40 -29 -64t-77 -24q-50 0 -90 32t-47 78h-48q9 -66 62 -109t124 -43q68 0 110 38t42 98zM312 387q49 -16 72 -43.5t23 -67.5q0 -56 -46 -86t-117 -8l-87 29q-49 16 -72 43.5t-23 67.5q0 14 3 27t9 24
t14.5 20.5t18.5 16t21.5 11t24 6.5t26 0.5t27.5 -5.5z" />
    <glyph glyph-name="dieresis" unicode="&#xa8;" horiz-adv-x="500" 
d="M173 608q15 0 26 11.5t11 26.5q0 16 -11 27t-26 11t-26 -11t-11 -27q0 -15 11 -26.5t26 -11.5zM327 608q15 0 26 11.5t11 26.5q0 16 -11 27t-26 11t-26 -11t-11 -27q0 -15 11 -26.5t26 -11.5z" />
    <glyph glyph-name="copyright" unicode="&#xa9;" horiz-adv-x="834" 
d="M417 -10q30 0 58 4.5t55 13.5t51.5 22t46.5 29.5t41.5 36t36 42t29 47.5t21.5 52t13.5 55.5t4.5 58.5t-4.5 58.5t-13.5 55.5t-21.5 51.5t-29 47t-36 42t-41.5 36t-46.5 29t-51.5 21.5t-55 13.5t-58 4.5t-58 -4.5t-55 -13.5t-51.5 -22t-46.5 -29.5t-41.5 -36t-36 -42
t-29 -47.5t-21.5 -52t-13.5 -55.5t-4.5 -58.5t4.5 -58.5t13.5 -55.5t21.5 -51.5t29 -47t36 -42t41.5 -36t46.5 -29t51.5 -21.5t55 -13.5t58 -4.5zM417 32q-26 0 -50.5 4t-48 12t-45 19t-41 25.5t-36 31.5t-30.5 37t-25.5 41.5t-19 45.5t-11.5 49t-4 52t4 52t11.5 49t19 46
t25.5 42t30.5 37t36 31.5t41 26t45 19.5t48 12t50.5 4t50.5 -4t48 -12t45 -19t41 -25.5t36 -31.5t30.5 -37t25.5 -41.5t19 -45.5t11.5 -49t4 -52t-4 -52t-11.5 -49t-19 -46t-25.5 -42t-30.5 -37t-36 -31.5t-41 -26t-45 -19.5t-48 -12t-50.5 -4zM290 349q0 59 40 99.5
t95 40.5q34 0 63 -15.5t48 -42.5l36 26q-25 34 -63 54.5t-84 20.5q-19 0 -37.5 -3.5t-35 -10.5t-31 -17t-26.5 -22.5t-22 -27t-17 -31t-10.5 -34.5t-3.5 -37t3.5 -37t10.5 -34t17 -31t22 -27t26.5 -22t31 -17t35 -10.5t37.5 -3.5q46 0 84 20.5t63 54.5l-36 26
q-19 -28 -48 -43t-63 -15q-55 0 -95 40.5t-40 98.5z" />
    <glyph glyph-name="ordfeminine" unicode="&#xaa;" horiz-adv-x="388" 
d="M35 433q0 -47 35 -77t87 -30q37 0 66.5 17.5t45.5 46.5v-2q0 -25 15.5 -40t43.5 -15h26v40h-18q-11 0 -17.5 6t-6.5 16v196q0 52 -33 83.5t-89 31.5q-39 0 -69.5 -13t-58.5 -38l25 -32q22 22 46.5 32.5t53.5 10.5q38 0 59.5 -21.5t21.5 -59.5v-40l-120 -6
q-50 -2 -81.5 -29.5t-31.5 -76.5zM79 435q0 31 20 48.5t53 18.5l116 5v-50q0 -38 -30.5 -65.5t-75.5 -27.5q-37 0 -60 20t-23 51z" />
    <glyph glyph-name="guillemotleft" unicode="&#xab;" horiz-adv-x="563" 
d="M332 524h-60l-246 -262l246 -262h63l-243 263zM525 524h-60l-246 -262l246 -262h63l-243 263z" />
    <glyph glyph-name="registered" unicode="&#xae;" horiz-adv-x="470" 
d="M235 311q21 0 40 4t37 11.5t34 18t29.5 24t24 29.5t18 34t11.5 37.5t4 40.5t-4 40.5t-11.5 37.5t-18 34t-24 29.5t-29.5 24t-34 18t-37 11.5t-40 4t-40 -4t-37 -11.5t-34 -18t-29.5 -24t-24 -29.5t-18 -34t-11.5 -37.5t-4 -40.5t4 -40.5t11.5 -37.5t18 -34t24 -29.5
t29.5 -24t34 -18t37 -11.5t40 -4zM235 343q-69 0 -116.5 49t-47.5 118t47.5 118t116.5 49t116.5 -49t47.5 -118t-47.5 -118t-116.5 -49zM171 419h33v75h29l43 -75h37l-47 79q16 6 26 19.5t10 32.5q0 23 -16.5 39.5t-39.5 16.5h-75v-187zM237 577q13 0 22 -8t9 -19
q0 -12 -9 -20t-22 -8h-33v55h33z" />
    <glyph glyph-name="macron" unicode="&#xaf;" horiz-adv-x="500" 
d="M373 656h-239v-39h239v39z" />
    <glyph glyph-name="degree" unicode="&#xb0;" horiz-adv-x="373" 
d="M187 426q58 0 99.5 42t41.5 102q0 56 -41 98t-100 42q-60 0 -101 -42t-41 -98q0 -60 41 -102t101 -42zM187 466q-43 0 -71.5 31t-28.5 74q0 40 29.5 69.5t70.5 29.5q40 0 69.5 -29t29.5 -70q0 -43 -29.5 -74t-69.5 -31z" />
    <glyph glyph-name="plusminus" unicode="&#xb1;" horiz-adv-x="549" 
d="M297 163v184h177v45h-177v180h-45v-180h-177v-45h177v-184h45zM474 44h-399v-44h399v44z" />
    <glyph glyph-name="twosuperior" unicode="&#xb2;" horiz-adv-x="297" 
d="M263 596q0 46 -33.5 77.5t-86.5 31.5q-41 0 -72.5 -20t-47.5 -54l35 -19q13 25 34.5 40t49.5 15q33 0 55 -21t22 -53q0 -27 -12.5 -48.5t-35.5 -46.5l-140 -154v-29h236v39h-174l112 123q29 31 43.5 58t14.5 61z" />
    <glyph glyph-name="threesuperior" unicode="&#xb3;" horiz-adv-x="312" 
d="M146 705q-43 0 -74 -20t-47 -53l37 -18q11 24 32.5 38.5t49.5 14.5q32 0 54 -19.5t22 -50.5q0 -28 -19 -47t-47 -19h-43v-38h47q32 0 52.5 -20t20.5 -51q0 -32 -22.5 -53.5t-58.5 -21.5q-31 0 -55 15.5t-37 41.5l-37 -20q16 -34 50 -54.5t80 -20.5q54 0 89.5 32t35.5 78
q0 34 -20.5 60.5t-52.5 36.5q27 10 43.5 32.5t16.5 52.5q0 44 -33.5 74t-83.5 30z" />
    <glyph glyph-name="acute" unicode="&#xb4;" horiz-adv-x="500" 
d="M273 705l-110 -120h51l125 120h-66z" />
    <glyph glyph-name="paragraph" unicode="&#xb6;" horiz-adv-x="530" 
d="M25 499q0 -21 4 -40t11.5 -37t18.5 -34t24.5 -29.5t30 -24t35 -18t39.5 -11.5t43 -4h63v-301h52v301h78v-301h52v700h-245q-22 0 -43 -4t-39.5 -11.5t-35 -18.5t-30 -25t-24.5 -30t-18.5 -34t-11.5 -37.5t-4 -40.5z" />
    <glyph glyph-name="periodcentered" unicode="&#xb7;" horiz-adv-x="190" 
d="M95 341q-15 0 -26.5 -12t-11.5 -27q0 -16 11.5 -27.5t26.5 -11.5t26.5 11.5t11.5 27.5q0 15 -11.5 27t-26.5 12z" />
    <glyph glyph-name="cedilla" unicode="&#xb8;" horiz-adv-x="500" 
d="M375 -140q0 36 -25 58t-65 23l18 65h-35l-27 -95h27q31 0 49 -14t18 -37q0 -22 -16 -36t-41 -14q-20 0 -37.5 9t-29.5 25l-30 -24q15 -21 41.5 -33.5t55.5 -12.5q42 0 69.5 24.5t27.5 61.5z" />
    <glyph glyph-name="onesuperior" unicode="&#xb9;" horiz-adv-x="259" 
d="M230 354h-77v346h-117v-39h72v-307h-77v-39h199v39z" />
    <glyph glyph-name="ordmasculine" unicode="&#xba;" horiz-adv-x="412" 
d="M362 487v56q0 73 -45 117.5t-111 44.5t-110.5 -45t-44.5 -117v-56q0 -73 44.5 -117.5t110.5 -44.5t111 44.5t45 117.5zM318 539v-48q0 -57 -31 -92t-81 -35t-80.5 35t-30.5 92v48q0 57 30.5 92t80.5 35t81 -35t31 -92z" />
    <glyph glyph-name="guillemotright" unicode="&#xbb;" horiz-adv-x="563" 
d="M231 0h60l246 262l-246 262h-63l243 -263zM38 0h60l246 262l-246 262h-63l243 -263z" />
    <glyph glyph-name="onequarter" unicode="&#xbc;" horiz-adv-x="654" 
d="M230 354h-77v346h-117v-39h72v-307h-77v-39h199v39zM540 0h45v101h51v38h-51v246h-57l-178 -251v-33h190v-101zM400 139l140 201v-201h-140zM157 0l388 700h-48l-387 -700h47z" />
    <glyph glyph-name="onehalf" unicode="&#xbd;" horiz-adv-x="681" 
d="M230 354h-77v346h-117v-39h72v-307h-77v-39h199v39zM654 281q0 46 -33.5 77.5t-86.5 31.5q-41 0 -72.5 -20t-47.5 -54l35 -19q13 25 34.5 40t49.5 15q33 0 55 -21t22 -53q0 -27 -12.5 -48.5t-35.5 -46.5l-140 -154v-29h236v39h-174l112 123q29 31 43.5 58t14.5 61zM157 0
l388 700h-48l-387 -700h47z" />
    <glyph glyph-name="threequarters" unicode="&#xbe;" horiz-adv-x="679" 
d="M146 705q-43 0 -74 -20t-47 -53l37 -18q11 24 32.5 38.5t49.5 14.5q32 0 54 -19.5t22 -50.5q0 -28 -19 -47t-47 -19h-43v-38h47q32 0 52.5 -20t20.5 -51q0 -32 -22.5 -53.5t-58.5 -21.5q-31 0 -55 15.5t-37 41.5l-37 -20q16 -34 50 -54.5t80 -20.5q54 0 89.5 32t35.5 78
q0 34 -20.5 60.5t-52.5 36.5q27 10 43.5 32.5t16.5 52.5q0 44 -33.5 74t-83.5 30zM565 0h45v101h51v38h-51v246h-57l-178 -251v-33h190v-101zM425 139l140 201v-201h-140zM182 0l388 700h-48l-387 -700h47z" />
    <glyph glyph-name="questiondown" unicode="&#xbf;" horiz-adv-x="497" 
d="M49 191q0 -21 4 -41t12 -38t19 -34t25.5 -29.5t32 -24.5t38 -18.5t43 -11.5t47.5 -4q62 0 116.5 28t90.5 77l-39 27q-29 -41 -73.5 -64.5t-94.5 -23.5q-78 0 -125 46t-47 111t42.5 111t114.5 46h29l-3 170h-43l-3 -127q-84 -7 -135 -64t-51 -136zM264 637q15 0 26.5 12
t11.5 27q0 16 -11 27.5t-27 11.5t-27 -11.5t-11 -27.5q0 -15 11.5 -27t26.5 -12z" />
    <glyph glyph-name="Agrave" unicode="&#xc0;" horiz-adv-x="639" 
d="M344 700h-49l-285 -700h54l83 208h343l84 -208h55zM166 254l152 382l154 -382h-306zM254 909h-66l123 -120h53z" />
    <glyph glyph-name="Aacute" unicode="&#xc1;" horiz-adv-x="639" 
d="M344 700h-49l-285 -700h54l83 208h343l84 -208h55zM166 254l152 382l154 -382h-306zM383 909l-110 -120h51l125 120h-66z" />
    <glyph glyph-name="Acircumflex" unicode="&#xc2;" horiz-adv-x="639" 
d="M344 700h-49l-285 -700h54l83 208h343l84 -208h55zM166 254l152 382l154 -382h-306zM237 790l83 86l82 -86h48l-105 120h-51l-105 -120h48z" />
    <glyph glyph-name="Atilde" unicode="&#xc3;" horiz-adv-x="639" 
d="M344 700h-49l-285 -700h54l83 208h343l84 -208h55zM166 254l152 382l154 -382h-306zM263 903q-28 0 -48 -26t-34 -72l35 -9q13 40 23 54t24 14q4 0 8.5 -2t9.5 -5t10.5 -7.5l11 -9t11.5 -10t12 -10t12.5 -9t13 -7.5t13 -5t12.5 -2q28 0 48 26t34 72l-35 9
q-13 -40 -23 -54t-24 -14q-4 0 -9.5 2.5t-11 6t-11.5 8.5t-12.5 10.5t-13.5 11.5t-14 11t-14 8.5t-14 6t-14 2.5z" />
    <glyph glyph-name="Adieresis" unicode="&#xc4;" horiz-adv-x="639" 
d="M344 700h-49l-285 -700h54l83 208h343l84 -208h55zM166 254l152 382l154 -382h-306zM243 812q15 0 26 11.5t11 26.5q0 16 -11 27t-26 11t-26 -11t-11 -27q0 -15 11 -26.5t26 -11.5zM397 812q15 0 26 11.5t11 26.5q0 16 -11 27t-26 11t-26 -11t-11 -27q0 -15 11 -26.5
t26 -11.5z" />
    <glyph glyph-name="Aring" unicode="&#xc5;" horiz-adv-x="639" 
d="M344 700h-49l-285 -700h54l83 208h343l84 -208h55zM166 254l152 382l154 -382h-306zM320 774q41 0 70 28.5t29 68.5t-29 68.5t-70 28.5t-70 -28.5t-29 -68.5t29 -68.5t70 -28.5zM320 806q-28 0 -46.5 19t-18.5 46t18.5 46t46.5 19t46.5 -19t18.5 -46t-18.5 -46t-46.5 -19
z" />
    <glyph glyph-name="AE" unicode="&#xc6;" horiz-adv-x="917" 
d="M857 46h-344v282h334v46h-334v280h344v46h-410l-427 -700h59l119 197h264v-197h395v46zM225 243l237 392v-392h-237z" />
    <glyph glyph-name="Ccedilla" unicode="&#xc7;" horiz-adv-x="690" 
d="M642 475q-6 32 -17.5 60.5t-27 52t-35 43t-42 34.5t-47.5 25t-52.5 15t-56.5 5q-27 0 -52 -4.5t-49 -12.5t-45 -20.5t-40 -29t-35 -36.5t-28.5 -43.5t-21.5 -50.5t-13.5 -57.5t-4.5 -64.5v-82q0 -37 5.5 -69.5t15.5 -61.5t25 -53.5t33 -45t40 -36t46.5 -27t51 -18
t55.5 -8.5l-23 -79h27q31 0 49 -14t18 -37q0 -22 -16 -36t-41 -14q-20 0 -37.5 9t-29.5 25l-30 -24q15 -21 41.5 -33.5t55.5 -12.5q42 0 69.5 24.5t27.5 61.5q0 36 -25 58t-65 23l14 49q95 6 166.5 67t93.5 168h-50q-21 -91 -84 -139.5t-144 -48.5q-25 0 -48 4.5t-44.5 13.5
t-40.5 22t-35.5 30t-29 38.5t-21.5 47t-14 54.5t-5 62v82q0 33 5 62t14 54.5t21.5 47t29 38.5t35.5 30t40.5 22t44.5 13.5t48 4.5q81 0 144 -48.5t84 -139.5h50z" />
    <glyph glyph-name="Egrave" unicode="&#xc8;" horiz-adv-x="585" 
d="M100 0h425v46h-374v282h364v46h-364v280h374v46h-425v-700zM256 909h-66l123 -120h53z" />
    <glyph glyph-name="Eacute" unicode="&#xc9;" horiz-adv-x="585" 
d="M100 0h425v46h-374v282h364v46h-364v280h374v46h-425v-700zM385 909l-110 -120h51l125 120h-66z" />
    <glyph glyph-name="Ecircumflex" unicode="&#xca;" horiz-adv-x="585" 
d="M100 0h425v46h-374v282h364v46h-364v280h374v46h-425v-700zM239 790l83 86l82 -86h48l-105 120h-51l-105 -120h48z" />
    <glyph glyph-name="Edieresis" unicode="&#xcb;" horiz-adv-x="585" 
d="M100 0h425v46h-374v282h364v46h-364v280h374v46h-425v-700zM245 812q15 0 26 11.5t11 26.5q0 16 -11 27t-26 11t-26 -11t-11 -27q0 -15 11 -26.5t26 -11.5zM399 812q15 0 26 11.5t11 26.5q0 16 -11 27t-26 11t-26 -11t-11 -27q0 -15 11 -26.5t26 -11.5z" />
    <glyph glyph-name="Igrave" unicode="&#xcc;" horiz-adv-x="251" 
d="M151 0v700h-51v-700h51zM59 909h-66l123 -120h53z" />
    <glyph glyph-name="Iacute" unicode="&#xcd;" horiz-adv-x="251" 
d="M151 0v700h-51v-700h51zM188 909l-110 -120h51l125 120h-66z" />
    <glyph glyph-name="Icircumflex" unicode="&#xce;" horiz-adv-x="251" 
d="M151 0v700h-51v-700h51zM43 790l83 86l82 -86h48l-105 120h-51l-105 -120h48z" />
    <glyph glyph-name="Idieresis" unicode="&#xcf;" horiz-adv-x="251" 
d="M151 0v700h-51v-700h51zM48 812q15 0 26 11.5t11 26.5q0 16 -11 27t-26 11t-26 -11t-11 -27q0 -15 11 -26.5t26 -11.5zM202 812q15 0 26 11.5t11 26.5q0 16 -11 27t-26 11t-26 -11t-11 -27q0 -15 11 -26.5t26 -11.5z" />
    <glyph glyph-name="Eth" unicode="&#xd0;" horiz-adv-x="707" 
d="M0 328h100v-328h238q144 0 221.5 83t77.5 226v80q0 143 -78 227t-221 84h-238v-327h-100v-45zM335 654q122 0 186.5 -71.5t64.5 -193.5v-80q0 -124 -64 -193.5t-187 -69.5h-184v282h161v45h-161v281h184z" />
    <glyph glyph-name="Ntilde" unicode="&#xd1;" horiz-adv-x="731" 
d="M149 0l-2 631l426 -631h58v700h-49l2 -629l-425 629h-59v-700h49zM309 903q-28 0 -48 -26t-34 -72l35 -9q13 40 23 54t24 14q4 0 8.5 -2t9.5 -5t10.5 -7.5l11 -9t11.5 -10t12 -10t12.5 -9t13 -7.5t13 -5t12.5 -2q28 0 48 26t34 72l-35 9q-13 -40 -23 -54t-24 -14
q-4 0 -9.5 2.5t-11 6t-11.5 8.5t-12.5 10.5t-13.5 11.5t-14 11t-14 8.5t-14 6t-14 2.5z" />
    <glyph glyph-name="Ograve" unicode="&#xd2;" horiz-adv-x="734" 
d="M70 391v-82q0 -36 5.5 -69t16 -62.5t26 -54.5t35 -46t43 -37t50.5 -27.5t57.5 -17t63.5 -5.5t63.5 5.5t57.5 17t50.5 27.5t43 37t35 46t26 54.5t16 62.5t5.5 69v82q0 36 -5.5 69t-16 62.5t-26 54.5t-35 46t-43 37t-50.5 27.5t-57.5 17t-63.5 5.5t-63.5 -5.5t-57.5 -17
t-50.5 -27.5t-43 -37t-35 -46t-26 -54.5t-16 -62.5t-5.5 -69zM121 386q0 132 68 204.5t178 72.5t178 -72.5t68 -204.5v-72q0 -132 -68 -204.5t-178 -72.5t-178 72.5t-68 204.5v72zM301 909h-66l123 -120h53z" />
    <glyph glyph-name="Oacute" unicode="&#xd3;" horiz-adv-x="734" 
d="M70 391v-82q0 -36 5.5 -69t16 -62.5t26 -54.5t35 -46t43 -37t50.5 -27.5t57.5 -17t63.5 -5.5t63.5 5.5t57.5 17t50.5 27.5t43 37t35 46t26 54.5t16 62.5t5.5 69v82q0 36 -5.5 69t-16 62.5t-26 54.5t-35 46t-43 37t-50.5 27.5t-57.5 17t-63.5 5.5t-63.5 -5.5t-57.5 -17
t-50.5 -27.5t-43 -37t-35 -46t-26 -54.5t-16 -62.5t-5.5 -69zM121 386q0 132 68 204.5t178 72.5t178 -72.5t68 -204.5v-72q0 -132 -68 -204.5t-178 -72.5t-178 72.5t-68 204.5v72zM430 909l-110 -120h51l125 120h-66z" />
    <glyph glyph-name="Ocircumflex" unicode="&#xd4;" horiz-adv-x="734" 
d="M70 391v-82q0 -36 5.5 -69t16 -62.5t26 -54.5t35 -46t43 -37t50.5 -27.5t57.5 -17t63.5 -5.5t63.5 5.5t57.5 17t50.5 27.5t43 37t35 46t26 54.5t16 62.5t5.5 69v82q0 36 -5.5 69t-16 62.5t-26 54.5t-35 46t-43 37t-50.5 27.5t-57.5 17t-63.5 5.5t-63.5 -5.5t-57.5 -17
t-50.5 -27.5t-43 -37t-35 -46t-26 -54.5t-16 -62.5t-5.5 -69zM121 386q0 132 68 204.5t178 72.5t178 -72.5t68 -204.5v-72q0 -132 -68 -204.5t-178 -72.5t-178 72.5t-68 204.5v72zM284 790l83 86l82 -86h48l-105 120h-51l-105 -120h48z" />
    <glyph glyph-name="Otilde" unicode="&#xd5;" horiz-adv-x="734" 
d="M70 391v-82q0 -36 5.5 -69t16 -62.5t26 -54.5t35 -46t43 -37t50.5 -27.5t57.5 -17t63.5 -5.5t63.5 5.5t57.5 17t50.5 27.5t43 37t35 46t26 54.5t16 62.5t5.5 69v82q0 36 -5.5 69t-16 62.5t-26 54.5t-35 46t-43 37t-50.5 27.5t-57.5 17t-63.5 5.5t-63.5 -5.5t-57.5 -17
t-50.5 -27.5t-43 -37t-35 -46t-26 -54.5t-16 -62.5t-5.5 -69zM121 386q0 132 68 204.5t178 72.5t178 -72.5t68 -204.5v-72q0 -132 -68 -204.5t-178 -72.5t-178 72.5t-68 204.5v72zM310 903q-28 0 -48 -26t-34 -72l35 -9q13 40 23 54t24 14q4 0 8.5 -2t9.5 -5t10.5 -7.5
l11 -9t11.5 -10t12 -10t12.5 -9t13 -7.5t13 -5t12.5 -2q28 0 48 26t34 72l-35 9q-13 -40 -23 -54t-24 -14q-4 0 -9.5 2.5t-11 6t-11.5 8.5t-12.5 10.5t-13.5 11.5t-14 11t-14 8.5t-14 6t-14 2.5z" />
    <glyph glyph-name="Odieresis" unicode="&#xd6;" horiz-adv-x="734" 
d="M70 391v-82q0 -36 5.5 -69t16 -62.5t26 -54.5t35 -46t43 -37t50.5 -27.5t57.5 -17t63.5 -5.5t63.5 5.5t57.5 17t50.5 27.5t43 37t35 46t26 54.5t16 62.5t5.5 69v82q0 36 -5.5 69t-16 62.5t-26 54.5t-35 46t-43 37t-50.5 27.5t-57.5 17t-63.5 5.5t-63.5 -5.5t-57.5 -17
t-50.5 -27.5t-43 -37t-35 -46t-26 -54.5t-16 -62.5t-5.5 -69zM121 386q0 132 68 204.5t178 72.5t178 -72.5t68 -204.5v-72q0 -132 -68 -204.5t-178 -72.5t-178 72.5t-68 204.5v72zM290 812q15 0 26 11.5t11 26.5q0 16 -11 27t-26 11t-26 -11t-11 -27q0 -15 11 -26.5
t26 -11.5zM444 812q15 0 26 11.5t11 26.5q0 16 -11 27t-26 11t-26 -11t-11 -27q0 -15 11 -26.5t26 -11.5z" />
    <glyph glyph-name="multiply" unicode="&#xd7;" horiz-adv-x="525" 
d="M105 170l157 159l157 -160l31 31l-158 160l157 159l-30 30l-156 -159l-157 159l-31 -31l157 -159l-157 -159z" />
    <glyph glyph-name="Oslash" unicode="&#xd8;" horiz-adv-x="734" 
d="M66 0h56l47 60q38 -34 88.5 -52t109.5 -18q33 0 63.5 5.5t57.5 17t50.5 27.5t43 37t35 46t26 54.5t16 62.5t5.5 69v82q0 66 -18 121t-50 95l72 93h-56l-47 -60q-38 34 -88.5 52t-109.5 18q-33 0 -63.5 -5.5t-57.5 -17t-50.5 -27.5t-43 -37t-35 -46t-26 -54.5t-16 -62.5
t-5.5 -69v-82q0 -66 18 -121t50 -95zM121 386q0 132 68 204.5t178 72.5q51 0 94 -15.5t74 -46.5l-365 -468q-24 34 -36.5 79.5t-12.5 101.5v72zM613 386v-72q0 -132 -68 -204.5t-178 -72.5q-51 0 -94 15.5t-74 46.5l365 468q24 -34 36.5 -79.5t12.5 -101.5z" />
    <glyph glyph-name="Ugrave" unicode="&#xd9;" horiz-adv-x="701" 
d="M141 258v442h-51v-446q0 -26 4 -50.5t11.5 -46.5t18.5 -41.5t25 -36t30.5 -30.5t35 -24.5t39 -18t42.5 -11t45 -3.5q20 0 38 3t34.5 8.5t31.5 13t28 17t24.5 20.5t21 23t17.5 24t14 25v-126h51v700h-51v-442q0 -25 -4 -47.5t-12 -42.5t-19 -37.5t-25 -31.5t-30.5 -25.5
t-35 -19t-39 -11.5t-41.5 -4q-22 0 -42 4t-38.5 11.5t-34.5 19t-30 25.5t-24.5 31.5t-18 37.5t-11.5 42.5t-4 47.5zM280 909h-66l123 -120h53z" />
    <glyph glyph-name="Uacute" unicode="&#xda;" horiz-adv-x="701" 
d="M141 258v442h-51v-446q0 -26 4 -50.5t11.5 -46.5t18.5 -41.5t25 -36t30.5 -30.5t35 -24.5t39 -18t42.5 -11t45 -3.5q20 0 38 3t34.5 8.5t31.5 13t28 17t24.5 20.5t21 23t17.5 24t14 25v-126h51v700h-51v-442q0 -25 -4 -47.5t-12 -42.5t-19 -37.5t-25 -31.5t-30.5 -25.5
t-35 -19t-39 -11.5t-41.5 -4q-22 0 -42 4t-38.5 11.5t-34.5 19t-30 25.5t-24.5 31.5t-18 37.5t-11.5 42.5t-4 47.5zM409 909l-110 -120h51l125 120h-66z" />
    <glyph glyph-name="Ucircumflex" unicode="&#xdb;" horiz-adv-x="701" 
d="M141 258v442h-51v-446q0 -26 4 -50.5t11.5 -46.5t18.5 -41.5t25 -36t30.5 -30.5t35 -24.5t39 -18t42.5 -11t45 -3.5q20 0 38 3t34.5 8.5t31.5 13t28 17t24.5 20.5t21 23t17.5 24t14 25v-126h51v700h-51v-442q0 -25 -4 -47.5t-12 -42.5t-19 -37.5t-25 -31.5t-30.5 -25.5
t-35 -19t-39 -11.5t-41.5 -4q-22 0 -42 4t-38.5 11.5t-34.5 19t-30 25.5t-24.5 31.5t-18 37.5t-11.5 42.5t-4 47.5zM263 790l83 86l82 -86h48l-105 120h-51l-105 -120h48z" />
    <glyph glyph-name="Udieresis" unicode="&#xdc;" horiz-adv-x="701" 
d="M141 258v442h-51v-446q0 -26 4 -50.5t11.5 -46.5t18.5 -41.5t25 -36t30.5 -30.5t35 -24.5t39 -18t42.5 -11t45 -3.5q20 0 38 3t34.5 8.5t31.5 13t28 17t24.5 20.5t21 23t17.5 24t14 25v-126h51v700h-51v-442q0 -25 -4 -47.5t-12 -42.5t-19 -37.5t-25 -31.5t-30.5 -25.5
t-35 -19t-39 -11.5t-41.5 -4q-22 0 -42 4t-38.5 11.5t-34.5 19t-30 25.5t-24.5 31.5t-18 37.5t-11.5 42.5t-4 47.5zM269 812q15 0 26 11.5t11 26.5q0 16 -11 27t-26 11t-26 -11t-11 -27q0 -15 11 -26.5t26 -11.5zM423 812q15 0 26 11.5t11 26.5q0 16 -11 27t-26 11t-26 -11
t-11 -27q0 -15 11 -26.5t26 -11.5z" />
    <glyph glyph-name="Yacute" unicode="&#xdd;" horiz-adv-x="591" 
d="M321 0v294l265 406h-56l-233 -359l-234 359h-58l265 -405v-295h51zM359 909l-110 -120h51l125 120h-66z" />
    <glyph glyph-name="Thorn" unicode="&#xde;" horiz-adv-x="570" 
d="M151 700h-51v-700h51v151h174q22 0 43 4t39.5 11.5t35 18t30 24t24.5 29.5t18.5 34t11.5 37t4 40t-4 40.5t-11.5 37.5t-18.5 34t-24.5 30t-30 25t-35 18.5t-39.5 11.5t-43 4h-174v150zM325 504q67 0 111 -46t44 -109t-44 -108t-111 -45h-174v308h174z" />
    <glyph glyph-name="germandbls" unicode="&#xdf;" horiz-adv-x="640" 
d="M363 399l61 40q42 28 62 56t20 75q0 74 -56.5 121.5t-140.5 47.5q-93 0 -153 -58.5t-60 -157.5v-523h49v523q0 76 45.5 124t117.5 48q65 0 107.5 -36t42.5 -90q0 -30 -15 -51t-43 -40l-65 -43q-39 -25 -53.5 -46.5t-14.5 -55.5q0 -37 30.5 -61t84.5 -40l70 -21
q40 -12 63.5 -32t23.5 -56q0 -37 -29 -63t-80 -26q-57 0 -93 28t-43 68h-48q9 -58 58 -98.5t124 -40.5q71 0 115 38.5t44 98.5q0 47 -32.5 79.5t-89.5 49.5l-70 21q-36 10 -58 23t-22 38q0 17 11.5 30.5t36.5 29.5z" />
    <glyph glyph-name="agrave" unicode="&#xe0;" horiz-adv-x="528" 
d="M45 142q0 -66 49 -108.5t124 -42.5q51 0 95.5 27t66.5 71v-19q0 -32 21 -51t56 -19h32v45h-25q-16 0 -25.5 8t-9.5 23v296q0 72 -45.5 115.5t-123.5 43.5q-51 0 -93 -17t-85 -57l32 -34q30 33 65 48.5t79 15.5q57 0 89.5 -33t32.5 -90v-64l-178 -8q-73 -3 -115 -43.5
t-42 -106.5zM93 144q0 46 30 74t83 30l174 7v-80q0 -58 -47.5 -99t-113.5 -41q-54 0 -90 31t-36 78zM186 733h-66l123 -120h53z" />
    <glyph glyph-name="aacute" unicode="&#xe1;" horiz-adv-x="528" 
d="M45 142q0 -66 49 -108.5t124 -42.5q51 0 95.5 27t66.5 71v-19q0 -32 21 -51t56 -19h32v45h-25q-16 0 -25.5 8t-9.5 23v296q0 72 -45.5 115.5t-123.5 43.5q-51 0 -93 -17t-85 -57l32 -34q30 33 65 48.5t79 15.5q57 0 89.5 -33t32.5 -90v-64l-178 -8q-73 -3 -115 -43.5
t-42 -106.5zM93 144q0 46 30 74t83 30l174 7v-80q0 -58 -47.5 -99t-113.5 -41q-54 0 -90 31t-36 78zM315 733l-110 -120h51l125 120h-66z" />
    <glyph glyph-name="acircumflex" unicode="&#xe2;" horiz-adv-x="528" 
d="M45 142q0 -66 49 -108.5t124 -42.5q51 0 95.5 27t66.5 71v-19q0 -32 21 -51t56 -19h32v45h-25q-16 0 -25.5 8t-9.5 23v296q0 72 -45.5 115.5t-123.5 43.5q-51 0 -93 -17t-85 -57l32 -34q30 33 65 48.5t79 15.5q57 0 89.5 -33t32.5 -90v-64l-178 -8q-73 -3 -115 -43.5
t-42 -106.5zM93 144q0 46 30 74t83 30l174 7v-80q0 -58 -47.5 -99t-113.5 -41q-54 0 -90 31t-36 78zM169 614l83 86l82 -86h48l-105 120h-51l-105 -120h48z" />
    <glyph glyph-name="atilde" unicode="&#xe3;" horiz-adv-x="528" 
d="M45 142q0 -66 49 -108.5t124 -42.5q51 0 95.5 27t66.5 71v-19q0 -32 21 -51t56 -19h32v45h-25q-16 0 -25.5 8t-9.5 23v296q0 72 -45.5 115.5t-123.5 43.5q-51 0 -93 -17t-85 -57l32 -34q30 33 65 48.5t79 15.5q57 0 89.5 -33t32.5 -90v-64l-178 -8q-73 -3 -115 -43.5
t-42 -106.5zM93 144q0 46 30 74t83 30l174 7v-80q0 -58 -47.5 -99t-113.5 -41q-54 0 -90 31t-36 78zM195 727q-28 0 -48 -26t-34 -72l35 -9q13 40 23 54t24 14q4 0 8.5 -2t9.5 -5t10.5 -7.5l11 -9t11.5 -10t12 -10t12.5 -9t13 -7.5t13 -5t12.5 -2q28 0 48 26t34 72l-35 9
q-13 -40 -23 -54t-24 -14q-4 0 -9.5 2.5t-11 6t-11.5 8.5t-12.5 10.5t-13.5 11.5t-14 11t-14 8.5t-14 6t-14 2.5z" />
    <glyph glyph-name="adieresis" unicode="&#xe4;" horiz-adv-x="528" 
d="M45 142q0 -66 49 -108.5t124 -42.5q51 0 95.5 27t66.5 71v-19q0 -32 21 -51t56 -19h32v45h-25q-16 0 -25.5 8t-9.5 23v296q0 72 -45.5 115.5t-123.5 43.5q-51 0 -93 -17t-85 -57l32 -34q30 33 65 48.5t79 15.5q57 0 89.5 -33t32.5 -90v-64l-178 -8q-73 -3 -115 -43.5
t-42 -106.5zM93 144q0 46 30 74t83 30l174 7v-80q0 -58 -47.5 -99t-113.5 -41q-54 0 -90 31t-36 78zM175 636q15 0 26 11.5t11 26.5q0 16 -11 27t-26 11t-26 -11t-11 -27q0 -15 11 -26.5t26 -11.5zM329 636q15 0 26 11.5t11 26.5q0 16 -11 27t-26 11t-26 -11t-11 -27
q0 -15 11 -26.5t26 -11.5z" />
    <glyph glyph-name="aring" unicode="&#xe5;" horiz-adv-x="528" 
d="M45 142q0 -66 49 -108.5t124 -42.5q51 0 95.5 27t66.5 71v-19q0 -32 21 -51t56 -19h32v45h-25q-16 0 -25.5 8t-9.5 23v296q0 72 -45.5 115.5t-123.5 43.5q-51 0 -93 -17t-85 -57l32 -34q30 33 65 48.5t79 15.5q57 0 89.5 -33t32.5 -90v-64l-178 -8q-73 -3 -115 -43.5
t-42 -106.5zM93 144q0 46 30 74t83 30l174 7v-80q0 -58 -47.5 -99t-113.5 -41q-54 0 -90 31t-36 78zM252 598q41 0 70 28.5t29 68.5t-29 68.5t-70 28.5t-70 -28.5t-29 -68.5t29 -68.5t70 -28.5zM252 630q-28 0 -46.5 19t-18.5 46t18.5 46t46.5 19t46.5 -19t18.5 -46
t-18.5 -46t-46.5 -19z" />
    <glyph glyph-name="ae" unicode="&#xe6;" horiz-adv-x="858" 
d="M786 88l-39 27q-31 -41 -68 -60.5t-82 -19.5q-71 0 -119.5 52.5t-48.5 133.5v31h367v58q0 24 -4 46.5t-11.5 42.5t-18.5 38t-24.5 32.5t-29.5 26t-34.5 20t-38.5 12.5t-42 4q-56 0 -102 -28.5t-73 -77.5q-14 49 -56 77t-102 28q-54 0 -96 -18.5t-82 -55.5l32 -34
q31 34 66 49t78 15q57 0 89.5 -33t32.5 -90v-68l-178 -8q-69 -3 -113 -40.5t-44 -105.5q0 -66 49.5 -108.5t123.5 -42.5q71 0 120.5 39.5t67.5 93.5q24 -60 75 -96.5t116 -36.5q59 0 106 24t83 73zM429 302q0 81 48 133.5t117 52.5q64 0 108 -51t44 -130v-11h-317v6zM93 144
q0 47 31.5 72.5t81.5 27.5l174 7v-76q0 -57 -46.5 -98.5t-114.5 -41.5q-54 0 -90 31t-36 78z" />
    <glyph glyph-name="ccedilla" unicode="&#xe7;" horiz-adv-x="534" 
d="M373 -140q0 36 -25 58t-65 23l14 52q68 5 118 48.5t67 112.5h-50q-16 -54 -57 -86t-96 -32q-72 0 -117.5 52.5t-45.5 136.5v74q0 84 45.5 136.5t117.5 52.5q55 0 95.5 -32t56.5 -86h51q-19 75 -74 118.5t-129 43.5q-23 0 -44 -4t-40 -12t-36 -20t-31.5 -26.5t-25.5 -32.5
t-19 -39t-12 -44.5t-4 -48.5v-86q0 -97 56 -158.5t139 -67.5l-23 -82h27q31 0 49 -14t18 -37q0 -22 -16 -36t-41 -14q-20 0 -37.5 9t-29.5 25l-30 -24q15 -21 41.5 -33.5t55.5 -12.5q42 0 69.5 24.5t27.5 61.5z" />
    <glyph glyph-name="egrave" unicode="&#xe8;" horiz-adv-x="542" 
d="M67 219q0 -25 4 -47.5t12.5 -43t20 -38.5t26 -33.5t31.5 -27.5t36.5 -20t41 -12.5t44.5 -4.5q59 0 105.5 24t83.5 73l-40 27q-30 -42 -66.5 -61t-82.5 -19q-70 0 -118 52t-48 133v27h364v62q0 24 -4 46.5t-11.5 42.5t-18 38t-24 32.5t-29.5 26t-34.5 20t-38.5 12.5t-42 4
q-23 0 -44 -4.5t-40.5 -12.5t-36.5 -20t-31 -27t-25 -33t-19 -38.5t-12 -43.5t-4 -48v-86zM117 303q0 81 46 133t115 52q66 0 110 -51t44 -129v-15h-315v10zM215 733h-66l123 -120h53z" />
    <glyph glyph-name="eacute" unicode="&#xe9;" horiz-adv-x="542" 
d="M67 219q0 -25 4 -47.5t12.5 -43t20 -38.5t26 -33.5t31.5 -27.5t36.5 -20t41 -12.5t44.5 -4.5q59 0 105.5 24t83.5 73l-40 27q-30 -42 -66.5 -61t-82.5 -19q-70 0 -118 52t-48 133v27h364v62q0 24 -4 46.5t-11.5 42.5t-18 38t-24 32.5t-29.5 26t-34.5 20t-38.5 12.5t-42 4
q-23 0 -44 -4.5t-40.5 -12.5t-36.5 -20t-31 -27t-25 -33t-19 -38.5t-12 -43.5t-4 -48v-86zM117 303q0 81 46 133t115 52q66 0 110 -51t44 -129v-15h-315v10zM344 733l-110 -120h51l125 120h-66z" />
    <glyph glyph-name="ecircumflex" unicode="&#xea;" horiz-adv-x="542" 
d="M67 219q0 -25 4 -47.5t12.5 -43t20 -38.5t26 -33.5t31.5 -27.5t36.5 -20t41 -12.5t44.5 -4.5q59 0 105.5 24t83.5 73l-40 27q-30 -42 -66.5 -61t-82.5 -19q-70 0 -118 52t-48 133v27h364v62q0 24 -4 46.5t-11.5 42.5t-18 38t-24 32.5t-29.5 26t-34.5 20t-38.5 12.5t-42 4
q-23 0 -44 -4.5t-40.5 -12.5t-36.5 -20t-31 -27t-25 -33t-19 -38.5t-12 -43.5t-4 -48v-86zM117 303q0 81 46 133t115 52q66 0 110 -51t44 -129v-15h-315v10zM198 614l83 86l82 -86h48l-105 120h-51l-105 -120h48z" />
    <glyph glyph-name="edieresis" unicode="&#xeb;" horiz-adv-x="542" 
d="M67 219q0 -25 4 -47.5t12.5 -43t20 -38.5t26 -33.5t31.5 -27.5t36.5 -20t41 -12.5t44.5 -4.5q59 0 105.5 24t83.5 73l-40 27q-30 -42 -66.5 -61t-82.5 -19q-70 0 -118 52t-48 133v27h364v62q0 24 -4 46.5t-11.5 42.5t-18 38t-24 32.5t-29.5 26t-34.5 20t-38.5 12.5t-42 4
q-23 0 -44 -4.5t-40.5 -12.5t-36.5 -20t-31 -27t-25 -33t-19 -38.5t-12 -43.5t-4 -48v-86zM117 303q0 81 46 133t115 52q66 0 110 -51t44 -129v-15h-315v10zM204 636q15 0 26 11.5t11 26.5q0 16 -11 27t-26 11t-26 -11t-11 -27q0 -15 11 -26.5t26 -11.5zM358 636
q15 0 26 11.5t11 26.5q0 16 -11 27t-26 11t-26 -11t-11 -27q0 -15 11 -26.5t26 -11.5z" />
    <glyph glyph-name="igrave" unicode="&#xec;" horiz-adv-x="241" 
d="M145 524h-49v-524h49v524zM54 733h-66l123 -120h53z" />
    <glyph glyph-name="iacute" unicode="&#xed;" horiz-adv-x="241" 
d="M145 524h-49v-524h49v524zM183 733l-110 -120h51l125 120h-66z" />
    <glyph glyph-name="icircumflex" unicode="&#xee;" horiz-adv-x="241" 
d="M145 524h-49v-524h49v524zM37 614l83 86l82 -86h48l-105 120h-51l-105 -120h48z" />
    <glyph glyph-name="idieresis" unicode="&#xef;" horiz-adv-x="241" 
d="M145 524h-49v-524h49v524zM43 636q15 0 26 11.5t11 26.5q0 16 -11 27t-26 11t-26 -11t-11 -27q0 -15 11 -26.5t26 -11.5zM197 636q15 0 26 11.5t11 26.5q0 16 -11 27t-26 11t-26 -11t-11 -27q0 -15 11 -26.5t26 -11.5z" />
    <glyph glyph-name="eth" unicode="&#xf0;" horiz-adv-x="568" 
d="M67 219q0 -25 4 -48.5t12 -44t19.5 -38.5t26.5 -33t32 -26.5t36.5 -20t41.5 -12.5t45 -4t44.5 4t41 12.5t37 20t32 26.5t26 33t19.5 38.5t12.5 44t4.5 48.5v76q0 115 -30.5 208t-92.5 159l108 67l-21 39l-120 -74q-28 23 -60.5 42t-69.5 33l-18 -39q31 -10 58 -25.5
t51 -34.5l-92 -57l22 -39l104 64q40 -41 66 -95t39 -117q-25 45 -67.5 70.5t-98.5 25.5q-23 0 -44 -4t-40 -12.5t-36 -20t-31 -26.5t-25.5 -33t-19.5 -39t-12 -44t-4 -49v-75zM452 225q0 -84 -46.5 -136.5t-121.5 -52.5t-121.5 52.5t-46.5 136.5v64q0 84 46.5 136.5
t121.5 52.5t121.5 -52.5t46.5 -136.5v-64z" />
    <glyph glyph-name="ntilde" unicode="&#xf1;" 
d="M500 343q0 20 -3.5 38.5t-10 35.5t-16 32t-21.5 28t-26.5 23t-31 17.5t-35.5 11t-39 3.5q-60 0 -106.5 -31t-65.5 -82v105h-49v-524h49v326q0 69 45.5 115t115.5 46q66 0 105.5 -43t39.5 -108v-336h49v343zM241 727q-28 0 -48 -26t-34 -72l35 -9q13 40 23 54t24 14
q4 0 8.5 -2t9.5 -5t10.5 -7.5l11 -9t11.5 -10t12 -10t12.5 -9t13 -7.5t13 -5t12.5 -2q28 0 48 26t34 72l-35 9q-13 -40 -23 -54t-24 -14q-4 0 -9.5 2.5t-11 6t-11.5 8.5t-12.5 10.5t-13.5 11.5t-14 11t-14 8.5t-14 6t-14 2.5z" />
    <glyph glyph-name="ograve" unicode="&#xf2;" horiz-adv-x="568" 
d="M501 219v86q0 25 -4.5 48.5t-12.5 44.5t-19.5 39t-26 32.5t-32 26.5t-37 20t-41 12t-44.5 4t-44.5 -4t-41 -12t-37 -20t-32 -26.5t-26 -32.5t-19.5 -39t-12.5 -44.5t-4.5 -48.5v-86q0 -25 4.5 -48.5t12.5 -44.5t19.5 -39t26 -32.5t32 -26.5t37 -20t41 -12t44.5 -4t44.5 4
t41 12t37 20t32 26.5t26 32.5t19.5 39t12.5 44.5t4.5 48.5zM452 299v-74q0 -84 -46.5 -136.5t-121.5 -52.5t-121.5 52.5t-46.5 136.5v74q0 84 46.5 136.5t121.5 52.5t121.5 -52.5t46.5 -136.5zM218 733h-66l123 -120h53z" />
    <glyph glyph-name="oacute" unicode="&#xf3;" horiz-adv-x="568" 
d="M501 219v86q0 25 -4.5 48.5t-12.5 44.5t-19.5 39t-26 32.5t-32 26.5t-37 20t-41 12t-44.5 4t-44.5 -4t-41 -12t-37 -20t-32 -26.5t-26 -32.5t-19.5 -39t-12.5 -44.5t-4.5 -48.5v-86q0 -25 4.5 -48.5t12.5 -44.5t19.5 -39t26 -32.5t32 -26.5t37 -20t41 -12t44.5 -4t44.5 4
t41 12t37 20t32 26.5t26 32.5t19.5 39t12.5 44.5t4.5 48.5zM452 299v-74q0 -84 -46.5 -136.5t-121.5 -52.5t-121.5 52.5t-46.5 136.5v74q0 84 46.5 136.5t121.5 52.5t121.5 -52.5t46.5 -136.5zM347 733l-110 -120h51l125 120h-66z" />
    <glyph glyph-name="ocircumflex" unicode="&#xf4;" horiz-adv-x="568" 
d="M501 219v86q0 25 -4.5 48.5t-12.5 44.5t-19.5 39t-26 32.5t-32 26.5t-37 20t-41 12t-44.5 4t-44.5 -4t-41 -12t-37 -20t-32 -26.5t-26 -32.5t-19.5 -39t-12.5 -44.5t-4.5 -48.5v-86q0 -25 4.5 -48.5t12.5 -44.5t19.5 -39t26 -32.5t32 -26.5t37 -20t41 -12t44.5 -4t44.5 4
t41 12t37 20t32 26.5t26 32.5t19.5 39t12.5 44.5t4.5 48.5zM452 299v-74q0 -84 -46.5 -136.5t-121.5 -52.5t-121.5 52.5t-46.5 136.5v74q0 84 46.5 136.5t121.5 52.5t121.5 -52.5t46.5 -136.5zM201 614l83 86l82 -86h48l-105 120h-51l-105 -120h48z" />
    <glyph glyph-name="otilde" unicode="&#xf5;" horiz-adv-x="568" 
d="M501 219v86q0 25 -4.5 48.5t-12.5 44.5t-19.5 39t-26 32.5t-32 26.5t-37 20t-41 12t-44.5 4t-44.5 -4t-41 -12t-37 -20t-32 -26.5t-26 -32.5t-19.5 -39t-12.5 -44.5t-4.5 -48.5v-86q0 -25 4.5 -48.5t12.5 -44.5t19.5 -39t26 -32.5t32 -26.5t37 -20t41 -12t44.5 -4t44.5 4
t41 12t37 20t32 26.5t26 32.5t19.5 39t12.5 44.5t4.5 48.5zM452 299v-74q0 -84 -46.5 -136.5t-121.5 -52.5t-121.5 52.5t-46.5 136.5v74q0 84 46.5 136.5t121.5 52.5t121.5 -52.5t46.5 -136.5zM227 727q-28 0 -48 -26t-34 -72l35 -9q13 40 23 54t24 14q4 0 8.5 -2t9.5 -5
t10.5 -7.5l11 -9t11.5 -10t12 -10t12.5 -9t13 -7.5t13 -5t12.5 -2q28 0 48 26t34 72l-35 9q-13 -40 -23 -54t-24 -14q-4 0 -9.5 2.5t-11 6t-11.5 8.5t-12.5 10.5t-13.5 11.5t-14 11t-14 8.5t-14 6t-14 2.5z" />
    <glyph glyph-name="odieresis" unicode="&#xf6;" horiz-adv-x="568" 
d="M501 219v86q0 25 -4.5 48.5t-12.5 44.5t-19.5 39t-26 32.5t-32 26.5t-37 20t-41 12t-44.5 4t-44.5 -4t-41 -12t-37 -20t-32 -26.5t-26 -32.5t-19.5 -39t-12.5 -44.5t-4.5 -48.5v-86q0 -25 4.5 -48.5t12.5 -44.5t19.5 -39t26 -32.5t32 -26.5t37 -20t41 -12t44.5 -4t44.5 4
t41 12t37 20t32 26.5t26 32.5t19.5 39t12.5 44.5t4.5 48.5zM452 299v-74q0 -84 -46.5 -136.5t-121.5 -52.5t-121.5 52.5t-46.5 136.5v74q0 84 46.5 136.5t121.5 52.5t121.5 -52.5t46.5 -136.5zM207 636q15 0 26 11.5t11 26.5q0 16 -11 27t-26 11t-26 -11t-11 -27
q0 -15 11 -26.5t26 -11.5zM361 636q15 0 26 11.5t11 26.5q0 16 -11 27t-26 11t-26 -11t-11 -27q0 -15 11 -26.5t26 -11.5z" />
    <glyph glyph-name="divide" unicode="&#xf7;" horiz-adv-x="549" 
d="M275 565q-15 0 -26.5 -12t-11.5 -27q0 -16 11.5 -27.5t26.5 -11.5t26.5 11.5t11.5 27.5q0 15 -11.5 27t-26.5 12zM474 335v44h-399v-44h399zM275 216q-15 0 -26.5 -12t-11.5 -27q0 -16 11.5 -27.5t26.5 -11.5t26.5 11.5t11.5 27.5q0 15 -11.5 27t-26.5 12z" />
    <glyph glyph-name="oslash" unicode="&#xf8;" horiz-adv-x="572" 
d="M50 0h54l37 46q28 -26 65 -40t80 -14q23 0 44.5 4t41 12t37 20t32 26.5t26 32.5t19.5 39t12.5 44.5t4.5 48.5v86q0 41 -11 76t-30 63l64 80h-53l-39 -48q-28 27 -66.5 41.5t-81.5 14.5q-23 0 -44.5 -4t-41 -12t-37 -20t-32 -26.5t-26 -32.5t-19.5 -39t-12.5 -44.5
t-4.5 -48.5v-86q0 -42 11.5 -78t31.5 -64zM118 225v74q0 84 46.5 136.5t121.5 52.5q36 0 66 -13t52 -36l-260 -322q-13 22 -19.5 49.5t-6.5 58.5zM454 299v-74q0 -84 -46.5 -136.5t-121.5 -52.5q-35 0 -64.5 12t-51.5 34l260 322q11 -22 17.5 -48.5t6.5 -56.5z" />
    <glyph glyph-name="ugrave" unicode="&#xf9;" 
d="M96 181q0 -20 3.5 -38.5t10 -35.5t16 -32t21.5 -28t26.5 -23t31.5 -17.5t35.5 -11t39.5 -3.5q59 0 105.5 31t65.5 82v-105h49v524h-49v-326q0 -69 -45.5 -115t-115.5 -46q-65 0 -105 43t-40 108v336h-49v-343zM232 733h-66l123 -120h53z" />
    <glyph glyph-name="uacute" unicode="&#xfa;" 
d="M96 181q0 -20 3.5 -38.5t10 -35.5t16 -32t21.5 -28t26.5 -23t31.5 -17.5t35.5 -11t39.5 -3.5q59 0 105.5 31t65.5 82v-105h49v524h-49v-326q0 -69 -45.5 -115t-115.5 -46q-65 0 -105 43t-40 108v336h-49v-343zM361 733l-110 -120h51l125 120h-66z" />
    <glyph glyph-name="ucircumflex" unicode="&#xfb;" 
d="M96 181q0 -20 3.5 -38.5t10 -35.5t16 -32t21.5 -28t26.5 -23t31.5 -17.5t35.5 -11t39.5 -3.5q59 0 105.5 31t65.5 82v-105h49v524h-49v-326q0 -69 -45.5 -115t-115.5 -46q-65 0 -105 43t-40 108v336h-49v-343zM215 614l83 86l82 -86h48l-105 120h-51l-105 -120h48z" />
    <glyph glyph-name="udieresis" unicode="&#xfc;" 
d="M96 181q0 -20 3.5 -38.5t10 -35.5t16 -32t21.5 -28t26.5 -23t31.5 -17.5t35.5 -11t39.5 -3.5q59 0 105.5 31t65.5 82v-105h49v524h-49v-326q0 -69 -45.5 -115t-115.5 -46q-65 0 -105 43t-40 108v336h-49v-343zM221 636q15 0 26 11.5t11 26.5q0 16 -11 27t-26 11t-26 -11
t-11 -27q0 -15 11 -26.5t26 -11.5zM375 636q15 0 26 11.5t11 26.5q0 16 -11 27t-26 11t-26 -11t-11 -27q0 -15 11 -26.5t26 -11.5z" />
    <glyph glyph-name="yacute" unicode="&#xfd;" horiz-adv-x="479" 
d="M164 -116q-9 -22 -26.5 -36.5t-44.5 -14.5h-56v-45h63q45 0 70.5 26.5t40.5 64.5l262 645h-50l-181 -450l-185 450h-50l209 -510zM305 733l-110 -120h51l125 120h-66z" />
    <glyph glyph-name="thorn" unicode="&#xfe;" 
d="M96 730v-942h49v317q24 -52 71 -82.5t108 -30.5q89 0 147 63t58 164v86q0 25 -4 48.5t-11.5 44t-18.5 38.5t-24.5 33t-30 26.5t-35 20t-39 12.5t-42.5 4q-61 0 -108 -30.5t-71 -82.5v311h-49zM145 225v74q0 84 46 136.5t121 52.5t121.5 -52.5t46.5 -136.5v-74
q0 -84 -46.5 -136.5t-121.5 -52.5t-121 52.5t-46 136.5z" />
    <glyph glyph-name="ydieresis" unicode="&#xff;" horiz-adv-x="479" 
d="M164 -116q-9 -22 -26.5 -36.5t-44.5 -14.5h-56v-45h63q45 0 70.5 26.5t40.5 64.5l262 645h-50l-181 -450l-185 450h-50l209 -510zM165 636q15 0 26 11.5t11 26.5q0 16 -11 27t-26 11t-26 -11t-11 -27q0 -15 11 -26.5t26 -11.5zM319 636q15 0 26 11.5t11 26.5q0 16 -11 27
t-26 11t-26 -11t-11 -27q0 -15 11 -26.5t26 -11.5z" />
    <glyph glyph-name="Amacron" unicode="&#x100;" horiz-adv-x="639" 
d="M344 700h-49l-285 -700h54l83 208h343l84 -208h55zM166 254l152 382l154 -382h-306zM439 860h-239v-39h239v39z" />
    <glyph glyph-name="amacron" unicode="&#x101;" horiz-adv-x="528" 
d="M45 142q0 -66 49 -108.5t124 -42.5q51 0 95.5 27t66.5 71v-19q0 -32 21 -51t56 -19h32v45h-25q-16 0 -25.5 8t-9.5 23v296q0 72 -45.5 115.5t-123.5 43.5q-51 0 -93 -17t-85 -57l32 -34q30 33 65 48.5t79 15.5q57 0 89.5 -33t32.5 -90v-64l-178 -8q-73 -3 -115 -43.5
t-42 -106.5zM93 144q0 46 30 74t83 30l174 7v-80q0 -58 -47.5 -99t-113.5 -41q-54 0 -90 31t-36 78zM371 684h-239v-39h239v39z" />
    <glyph glyph-name="Abreve" unicode="&#x102;" horiz-adv-x="639" 
d="M344 700h-49l-285 -700h54l83 208h343l84 -208h55zM166 254l152 382l154 -382h-306zM320 836q-27 0 -53 15.5t-37 61.5l-39 -12q11 -51 47.5 -78.5t81.5 -27.5t81.5 27.5t47.5 78.5l-39 12q-11 -46 -37 -61.5t-53 -15.5z" />
    <glyph glyph-name="abreve" unicode="&#x103;" horiz-adv-x="528" 
d="M45 142q0 -66 49 -108.5t124 -42.5q51 0 95.5 27t66.5 71v-19q0 -32 21 -51t56 -19h32v45h-25q-16 0 -25.5 8t-9.5 23v296q0 72 -45.5 115.5t-123.5 43.5q-51 0 -93 -17t-85 -57l32 -34q30 33 65 48.5t79 15.5q57 0 89.5 -33t32.5 -90v-64l-178 -8q-73 -3 -115 -43.5
t-42 -106.5zM93 144q0 46 30 74t83 30l174 7v-80q0 -58 -47.5 -99t-113.5 -41q-54 0 -90 31t-36 78zM252 660q-27 0 -53 15.5t-37 61.5l-39 -12q11 -51 47.5 -78.5t81.5 -27.5t81.5 27.5t47.5 78.5l-39 12q-11 -46 -37 -61.5t-53 -15.5z" />
    <glyph glyph-name="Aogonek" unicode="&#x104;" horiz-adv-x="639" 
d="M629 0l-285 700h-49l-285 -700h54l83 208h343l84 -208h9q-44 -44 -59.5 -76.5t-15.5 -63.5q0 -35 22 -58t67 -23q12 0 23 1.5t21 3.5l-5 35q-7 -2 -16.5 -3t-18.5 -1q-25 0 -39 14t-14 38q0 25 15.5 56t65.5 77zM166 254l152 382l154 -382h-306z" />
    <glyph glyph-name="aogonek" unicode="&#x105;" horiz-adv-x="528" 
d="M45 142q0 -66 49.5 -108.5t123.5 -42.5q54 0 96.5 26t65.5 68v-15q0 -28 17 -46.5t46 -22.5q-44 -45 -59.5 -77.5t-15.5 -63.5q0 -35 22 -58t67 -23q12 0 23 1.5t21 3.5l-5 35q-7 -2 -16.5 -3t-18.5 -1q-25 0 -39 14t-14 38q0 25 15.5 56t65.5 77v45h-25q-17 0 -26 8.5
t-9 22.5v296q0 72 -45.5 115.5t-123.5 43.5q-54 0 -96 -18.5t-82 -55.5l32 -34q31 34 66 49t78 15q57 0 89.5 -33t32.5 -90v-64l-178 -8q-69 -3 -113 -41.5t-44 -108.5zM93 144q0 49 31.5 75.5t81.5 28.5l174 7v-80q0 -57 -46.5 -98.5t-114.5 -41.5q-54 0 -90 31t-36 78z
" />
    <glyph glyph-name="Cacute" unicode="&#x106;" horiz-adv-x="685" 
d="M637 475q-6 32 -17.5 60.5t-27 52t-35 43t-42 34.5t-47.5 25t-52.5 15t-56.5 5q-27 0 -52 -4.5t-49 -12.5t-45 -20.5t-40 -29t-35 -36.5t-28.5 -43.5t-21.5 -50.5t-13.5 -57.5t-4.5 -64.5v-82q0 -34 4.5 -64.5t13.5 -57.5t21.5 -50.5t28.5 -43.5t35 -36.5t40 -29
t45 -20.5t49 -12.5t52 -4.5q29 0 56.5 5t52.5 15t47.5 25t42 34.5t35 43t27 52t17.5 60.5h-50q-21 -91 -84 -139.5t-144 -48.5q-25 0 -48 4.5t-44.5 13.5t-40.5 22t-35.5 30t-29 38.5t-21.5 47t-14 54.5t-5 62v82q0 33 5 62t14 54.5t21.5 47t29 38.5t35.5 30t40.5 22
t44.5 13.5t48 4.5q81 0 144 -48.5t84 -139.5h50zM423 909l-110 -120h51l125 120h-66z" />
    <glyph glyph-name="cacute" unicode="&#x107;" horiz-adv-x="534" 
d="M279 -8q74 0 129 44t74 118h-50q-16 -54 -57 -86t-96 -32q-72 0 -117.5 52.5t-45.5 136.5v74q0 84 45.5 136.5t117.5 52.5q55 0 95.5 -32t56.5 -86h51q-19 75 -74 118.5t-129 43.5q-23 0 -44 -4t-40 -12t-36 -20t-31.5 -26.5t-25.5 -32.5t-19 -39t-12 -44.5t-4 -48.5v-86
q0 -25 4 -48.5t12 -44.5t19.5 -39t25.5 -32.5t31 -26.5t36 -20t40 -12t44 -4zM341 733l-110 -120h51l125 120h-66z" />
    <glyph glyph-name="Ccircumflex" unicode="&#x108;" horiz-adv-x="685" 
d="M637 475q-6 32 -17.5 60.5t-27 52t-35 43t-42 34.5t-47.5 25t-52.5 15t-56.5 5q-27 0 -52 -4.5t-49 -12.5t-45 -20.5t-40 -29t-35 -36.5t-28.5 -43.5t-21.5 -50.5t-13.5 -57.5t-4.5 -64.5v-82q0 -34 4.5 -64.5t13.5 -57.5t21.5 -50.5t28.5 -43.5t35 -36.5t40 -29
t45 -20.5t49 -12.5t52 -4.5q29 0 56.5 5t52.5 15t47.5 25t42 34.5t35 43t27 52t17.5 60.5h-50q-21 -91 -84 -139.5t-144 -48.5q-25 0 -48 4.5t-44.5 13.5t-40.5 22t-35.5 30t-29 38.5t-21.5 47t-14 54.5t-5 62v82q0 33 5 62t14 54.5t21.5 47t29 38.5t35.5 30t40.5 22
t44.5 13.5t48 4.5q81 0 144 -48.5t84 -139.5h50zM277 790l83 86l82 -86h48l-105 120h-51l-105 -120h48z" />
    <glyph glyph-name="ccircumflex" unicode="&#x109;" horiz-adv-x="534" 
d="M279 -8q74 0 129 44t74 118h-50q-16 -54 -57 -86t-96 -32q-72 0 -117.5 52.5t-45.5 136.5v74q0 84 45.5 136.5t117.5 52.5q55 0 95.5 -32t56.5 -86h51q-19 75 -74 118.5t-129 43.5q-23 0 -44 -4t-40 -12t-36 -20t-31.5 -26.5t-25.5 -32.5t-19 -39t-12 -44.5t-4 -48.5v-86
q0 -25 4 -48.5t12 -44.5t19.5 -39t25.5 -32.5t31 -26.5t36 -20t40 -12t44 -4zM195 614l83 86l82 -86h48l-105 120h-51l-105 -120h48z" />
    <glyph glyph-name="Cdotaccent" unicode="&#x10a;" horiz-adv-x="685" 
d="M637 475q-6 32 -17.5 60.5t-27 52t-35 43t-42 34.5t-47.5 25t-52.5 15t-56.5 5q-27 0 -52 -4.5t-49 -12.5t-45 -20.5t-40 -29t-35 -36.5t-28.5 -43.5t-21.5 -50.5t-13.5 -57.5t-4.5 -64.5v-82q0 -34 4.5 -64.5t13.5 -57.5t21.5 -50.5t28.5 -43.5t35 -36.5t40 -29
t45 -20.5t49 -12.5t52 -4.5q29 0 56.5 5t52.5 15t47.5 25t42 34.5t35 43t27 52t17.5 60.5h-50q-21 -91 -84 -139.5t-144 -48.5q-25 0 -48 4.5t-44.5 13.5t-40.5 22t-35.5 30t-29 38.5t-21.5 47t-14 54.5t-5 62v82q0 33 5 62t14 54.5t21.5 47t29 38.5t35.5 30t40.5 22
t44.5 13.5t48 4.5q81 0 144 -48.5t84 -139.5h50zM360 812q15 0 26 11.5t11 26.5q0 16 -11 27t-26 11t-26 -11t-11 -27q0 -15 11 -26.5t26 -11.5z" />
    <glyph glyph-name="cdotaccent" unicode="&#x10b;" horiz-adv-x="534" 
d="M279 -8q74 0 129 44t74 118h-50q-16 -54 -57 -86t-96 -32q-72 0 -117.5 52.5t-45.5 136.5v74q0 84 45.5 136.5t117.5 52.5q55 0 95.5 -32t56.5 -86h51q-19 75 -74 118.5t-129 43.5q-23 0 -44 -4t-40 -12t-36 -20t-31.5 -26.5t-25.5 -32.5t-19 -39t-12 -44.5t-4 -48.5v-86
q0 -25 4 -48.5t12 -44.5t19.5 -39t25.5 -32.5t31 -26.5t36 -20t40 -12t44 -4zM278 636q15 0 26 11.5t11 26.5q0 16 -11 27t-26 11t-26 -11t-11 -27q0 -15 11 -26.5t26 -11.5z" />
    <glyph glyph-name="Ccaron" unicode="&#x10c;" horiz-adv-x="685" 
d="M637 475q-6 32 -17.5 60.5t-27 52t-35 43t-42 34.5t-47.5 25t-52.5 15t-56.5 5q-27 0 -52 -4.5t-49 -12.5t-45 -20.5t-40 -29t-35 -36.5t-28.5 -43.5t-21.5 -50.5t-13.5 -57.5t-4.5 -64.5v-82q0 -34 4.5 -64.5t13.5 -57.5t21.5 -50.5t28.5 -43.5t35 -36.5t40 -29
t45 -20.5t49 -12.5t52 -4.5q29 0 56.5 5t52.5 15t47.5 25t42 34.5t35 43t27 52t17.5 60.5h-50q-21 -91 -84 -139.5t-144 -48.5q-25 0 -48 4.5t-44.5 13.5t-40.5 22t-35.5 30t-29 38.5t-21.5 47t-14 54.5t-5 62v82q0 33 5 62t14 54.5t21.5 47t29 38.5t35.5 30t40.5 22
t44.5 13.5t48 4.5q81 0 144 -48.5t84 -139.5h50zM444 909l-82 -86l-83 86h-48l105 -120h51l105 120h-48z" />
    <glyph glyph-name="ccaron" unicode="&#x10d;" horiz-adv-x="534" 
d="M279 -8q74 0 129 44t74 118h-50q-16 -54 -57 -86t-96 -32q-72 0 -117.5 52.5t-45.5 136.5v74q0 84 45.5 136.5t117.5 52.5q55 0 95.5 -32t56.5 -86h51q-19 75 -74 118.5t-129 43.5q-23 0 -44 -4t-40 -12t-36 -20t-31.5 -26.5t-25.5 -32.5t-19 -39t-12 -44.5t-4 -48.5v-86
q0 -25 4 -48.5t12 -44.5t19.5 -39t25.5 -32.5t31 -26.5t36 -20t40 -12t44 -4zM362 733l-82 -86l-83 86h-48l105 -120h51l105 120h-48z" />
    <glyph glyph-name="Dcaron" unicode="&#x10e;" horiz-adv-x="707" 
d="M637 309v80q0 143 -78 227t-221 84h-238v-700h238q144 0 221.5 83t77.5 226zM335 654q122 0 186.5 -71.5t64.5 -193.5v-80q0 -124 -64 -193.5t-187 -69.5h-184v608h184zM440 909l-82 -86l-83 86h-48l105 -120h51l105 120h-48z" />
    <glyph glyph-name="dcaron" unicode="&#x10f;" horiz-adv-x="668" 
d="M601 544h41l36 187h-56zM501 0v730h-49v-312q-23 52 -70.5 83t-109.5 31q-88 0 -146.5 -63t-58.5 -164v-86q0 -25 4 -48.5t11.5 -44t18.5 -38.5t24.5 -33t30 -26.5t35 -20t39 -12.5t42.5 -4q62 0 109.5 31t70.5 83v-106h49zM452 299v-74q0 -84 -46.5 -136.5t-121.5 -52.5
t-121.5 52.5t-46.5 136.5v74q0 84 46.5 136.5t121.5 52.5t121.5 -52.5t46.5 -136.5z" />
    <glyph glyph-name="Dcroat" unicode="&#x110;" horiz-adv-x="707" 
d="M0 328h100v-328h238q144 0 221.5 83t77.5 226v80q0 143 -78 227t-221 84h-238v-327h-100v-45zM335 654q122 0 186.5 -71.5t64.5 -193.5v-80q0 -124 -64 -193.5t-187 -69.5h-184v282h161v45h-161v281h184z" />
    <glyph glyph-name="dcroat" unicode="&#x111;" 
d="M501 0v605h80v44h-80v81h-49v-81h-158v-44h158v-187q-23 52 -70.5 83t-109.5 31q-88 0 -146.5 -63t-58.5 -164v-86q0 -25 4 -48.5t11.5 -44t18.5 -38.5t24.5 -33t30 -26.5t35 -20t39 -12.5t42.5 -4q62 0 109.5 31t70.5 83v-106h49zM452 299v-74q0 -84 -46.5 -136.5
t-121.5 -52.5t-121.5 52.5t-46.5 136.5v74q0 84 46.5 136.5t121.5 52.5t121.5 -52.5t46.5 -136.5z" />
    <glyph glyph-name="Emacron" unicode="&#x112;" horiz-adv-x="585" 
d="M100 0h425v46h-374v282h364v46h-364v280h374v46h-425v-700zM441 860h-239v-39h239v39z" />
    <glyph glyph-name="emacron" unicode="&#x113;" horiz-adv-x="542" 
d="M67 219q0 -25 4 -47.5t12.5 -43t20 -38.5t26 -33.5t31.5 -27.5t36.5 -20t41 -12.5t44.5 -4.5q59 0 105.5 24t83.5 73l-40 27q-30 -42 -66.5 -61t-82.5 -19q-70 0 -118 52t-48 133v27h364v62q0 24 -4 46.5t-11.5 42.5t-18 38t-24 32.5t-29.5 26t-34.5 20t-38.5 12.5t-42 4
q-23 0 -44 -4.5t-40.5 -12.5t-36.5 -20t-31 -27t-25 -33t-19 -38.5t-12 -43.5t-4 -48v-86zM117 303q0 81 46 133t115 52q66 0 110 -51t44 -129v-15h-315v10zM400 684h-239v-39h239v39z" />
    <glyph glyph-name="Ebreve" unicode="&#x114;" horiz-adv-x="585" 
d="M100 0h425v46h-374v282h364v46h-364v280h374v46h-425v-700zM322 836q-27 0 -53 15.5t-37 61.5l-39 -12q11 -51 47.5 -78.5t81.5 -27.5t81.5 27.5t47.5 78.5l-39 12q-11 -46 -37 -61.5t-53 -15.5z" />
    <glyph glyph-name="ebreve" unicode="&#x115;" horiz-adv-x="542" 
d="M67 219q0 -25 4 -47.5t12.5 -43t20 -38.5t26 -33.5t31.5 -27.5t36.5 -20t41 -12.5t44.5 -4.5q59 0 105.5 24t83.5 73l-40 27q-30 -42 -66.5 -61t-82.5 -19q-70 0 -118 52t-48 133v27h364v62q0 24 -4 46.5t-11.5 42.5t-18 38t-24 32.5t-29.5 26t-34.5 20t-38.5 12.5t-42 4
q-23 0 -44 -4.5t-40.5 -12.5t-36.5 -20t-31 -27t-25 -33t-19 -38.5t-12 -43.5t-4 -48v-86zM117 303q0 81 46 133t115 52q66 0 110 -51t44 -129v-15h-315v10zM281 660q-27 0 -53 15.5t-37 61.5l-39 -12q11 -51 47.5 -78.5t81.5 -27.5t81.5 27.5t47.5 78.5l-39 12
q-11 -46 -37 -61.5t-53 -15.5z" />
    <glyph glyph-name="Edotaccent" unicode="&#x116;" horiz-adv-x="585" 
d="M100 0h425v46h-374v282h364v46h-364v280h374v46h-425v-700zM322 812q15 0 26 11.5t11 26.5q0 16 -11 27t-26 11t-26 -11t-11 -27q0 -15 11 -26.5t26 -11.5z" />
    <glyph glyph-name="edotaccent" unicode="&#x117;" horiz-adv-x="542" 
d="M67 219q0 -25 4 -47.5t12.5 -43t20 -38.5t26 -33.5t31.5 -27.5t36.5 -20t41 -12.5t44.5 -4.5q59 0 105.5 24t83.5 73l-40 27q-30 -42 -66.5 -61t-82.5 -19q-70 0 -118 52t-48 133v27h364v62q0 24 -4 46.5t-11.5 42.5t-18 38t-24 32.5t-29.5 26t-34.5 20t-38.5 12.5t-42 4
q-23 0 -44 -4.5t-40.5 -12.5t-36.5 -20t-31 -27t-25 -33t-19 -38.5t-12 -43.5t-4 -48v-86zM117 303q0 81 46 133t115 52q66 0 110 -51t44 -129v-15h-315v10zM281 636q15 0 26 11.5t11 26.5q0 16 -11 27t-26 11t-26 -11t-11 -27q0 -15 11 -26.5t26 -11.5z" />
    <glyph glyph-name="Eogonek" unicode="&#x118;" horiz-adv-x="585" 
d="M100 0h379q-44 -44 -59.5 -76.5t-15.5 -63.5q0 -35 22 -58t67 -23q12 0 23 1.5t21 3.5l-5 35q-7 -2 -16.5 -3t-18.5 -1q-25 0 -39 14t-14 38q0 25 15.5 56t65.5 77v46h-374v282h364v46h-364v280h374v46h-425v-700z" />
    <glyph glyph-name="eogonek" unicode="&#x119;" horiz-adv-x="543" 
d="M67 219q0 -25 4 -47.5t12.5 -43t20 -38.5t26 -33.5t31.5 -27.5t36.5 -20t41 -12.5t44.5 -4.5h12q-40 -41 -53.5 -71.5t-13.5 -60.5q0 -35 22 -58t67 -23q12 0 23 1.5t21 3.5l-5 35q-7 -2 -16.5 -3t-18.5 -1q-25 0 -39 14t-14 38q0 25 15.5 56t65.5 77q36 10 67 32.5
t56 56.5l-40 27q-30 -42 -66.5 -61t-82.5 -19q-70 0 -118 52t-48 133v27h364v62q0 24 -4 46.5t-11.5 42.5t-18 38t-24 32.5t-29.5 26t-34.5 20t-38.5 12.5t-42 4q-23 0 -44 -4.5t-40.5 -12.5t-36.5 -20t-31 -27t-25 -33t-19 -38.5t-12 -43.5t-4 -48v-86zM117 303
q0 81 46 133t115 52q66 0 110 -51t44 -129v-15h-315v10z" />
    <glyph glyph-name="Ecaron" unicode="&#x11a;" horiz-adv-x="585" 
d="M100 0h425v46h-374v282h364v46h-364v280h374v46h-425v-700zM406 909l-82 -86l-83 86h-48l105 -120h51l105 120h-48z" />
    <glyph glyph-name="ecaron" unicode="&#x11b;" horiz-adv-x="542" 
d="M67 219q0 -25 4 -47.5t12.5 -43t20 -38.5t26 -33.5t31.5 -27.5t36.5 -20t41 -12.5t44.5 -4.5q59 0 105.5 24t83.5 73l-40 27q-30 -42 -66.5 -61t-82.5 -19q-70 0 -118 52t-48 133v27h364v62q0 24 -4 46.5t-11.5 42.5t-18 38t-24 32.5t-29.5 26t-34.5 20t-38.5 12.5t-42 4
q-23 0 -44 -4.5t-40.5 -12.5t-36.5 -20t-31 -27t-25 -33t-19 -38.5t-12 -43.5t-4 -48v-86zM117 303q0 81 46 133t115 52q66 0 110 -51t44 -129v-15h-315v10zM365 733l-82 -86l-83 86h-48l105 -120h51l105 120h-48z" />
    <glyph glyph-name="Gcircumflex" unicode="&#x11c;" horiz-adv-x="728" 
d="M70 309q0 -36 5.5 -68.5t16 -61.5t25.5 -54.5t34.5 -46.5t42.5 -37.5t50 -27.5t56.5 -17t62.5 -6q75 0 136 39t90 99v-128h49v349h-268v-46h219v-44q0 -23 -4 -44.5t-11 -40.5t-17 -35.5t-23 -30.5t-28 -25t-31.5 -19.5t-35 -14.5t-37.5 -9t-39 -3q-108 0 -175 75
t-67 197v82q0 122 66.5 197t174.5 75q75 0 136.5 -41t87.5 -116l47 15q-30 87 -104 138t-167 51q-33 0 -62.5 -6t-56.5 -17t-50 -27.5t-42.5 -37.5t-34 -46.5t-25 -54.5t-16 -61.5t-5.5 -68.5v-82zM282 790l83 86l82 -86h48l-105 120h-51l-105 -120h48z" />
    <glyph glyph-name="gcircumflex" unicode="&#x11d;" horiz-adv-x="601" 
d="M200 -212h123q84 0 130.5 46.5t46.5 129.5v560h-49v-105q-23 51 -70.5 82t-108.5 31q-88 0 -146.5 -63.5t-58.5 -165.5v-84q0 -25 4 -48.5t11.5 -44.5t18.5 -39t24.5 -32.5t30 -26.5t35 -20t39 -12t42.5 -4q61 0 108.5 30t70.5 82v-135q0 -68 -33.5 -102t-102.5 -34h-115
v-45zM451 299v-75q0 -85 -46 -136.5t-121 -51.5t-121.5 51.5t-46.5 136.5v75q0 84 46.5 136.5t121.5 52.5t121 -52.5t46 -136.5zM207 614l83 86l82 -86h48l-105 120h-51l-105 -120h48z" />
    <glyph glyph-name="Gbreve" unicode="&#x11e;" horiz-adv-x="728" 
d="M70 309q0 -36 5.5 -68.5t16 -61.5t25.5 -54.5t34.5 -46.5t42.5 -37.5t50 -27.5t56.5 -17t62.5 -6q75 0 136 39t90 99v-128h49v349h-268v-46h219v-44q0 -23 -4 -44.5t-11 -40.5t-17 -35.5t-23 -30.5t-28 -25t-31.5 -19.5t-35 -14.5t-37.5 -9t-39 -3q-108 0 -175 75
t-67 197v82q0 122 66.5 197t174.5 75q75 0 136.5 -41t87.5 -116l47 15q-30 87 -104 138t-167 51q-33 0 -62.5 -6t-56.5 -17t-50 -27.5t-42.5 -37.5t-34 -46.5t-25 -54.5t-16 -61.5t-5.5 -68.5v-82zM365 836q-27 0 -53 15.5t-37 61.5l-39 -12q11 -51 47.5 -78.5t81.5 -27.5
t81.5 27.5t47.5 78.5l-39 12q-11 -46 -37 -61.5t-53 -15.5z" />
    <glyph glyph-name="gbreve" unicode="&#x11f;" horiz-adv-x="601" 
d="M200 -212h123q84 0 130.5 46.5t46.5 129.5v560h-49v-105q-23 51 -70.5 82t-108.5 31q-88 0 -146.5 -63.5t-58.5 -165.5v-84q0 -25 4 -48.5t11.5 -44.5t18.5 -39t24.5 -32.5t30 -26.5t35 -20t39 -12t42.5 -4q61 0 108.5 30t70.5 82v-135q0 -68 -33.5 -102t-102.5 -34h-115
v-45zM451 299v-75q0 -85 -46 -136.5t-121 -51.5t-121.5 51.5t-46.5 136.5v75q0 84 46.5 136.5t121.5 52.5t121 -52.5t46 -136.5zM290 660q-27 0 -53 15.5t-37 61.5l-39 -12q11 -51 47.5 -78.5t81.5 -27.5t81.5 27.5t47.5 78.5l-39 12q-11 -46 -37 -61.5t-53 -15.5z" />
    <glyph glyph-name="Gdotaccent" unicode="&#x120;" horiz-adv-x="728" 
d="M70 309q0 -36 5.5 -68.5t16 -61.5t25.5 -54.5t34.5 -46.5t42.5 -37.5t50 -27.5t56.5 -17t62.5 -6q75 0 136 39t90 99v-128h49v349h-268v-46h219v-44q0 -23 -4 -44.5t-11 -40.5t-17 -35.5t-23 -30.5t-28 -25t-31.5 -19.5t-35 -14.5t-37.5 -9t-39 -3q-108 0 -175 75
t-67 197v82q0 122 66.5 197t174.5 75q75 0 136.5 -41t87.5 -116l47 15q-30 87 -104 138t-167 51q-33 0 -62.5 -6t-56.5 -17t-50 -27.5t-42.5 -37.5t-34 -46.5t-25 -54.5t-16 -61.5t-5.5 -68.5v-82zM365 812q15 0 26 11.5t11 26.5q0 16 -11 27t-26 11t-26 -11t-11 -27
q0 -15 11 -26.5t26 -11.5z" />
    <glyph glyph-name="gdotaccent" unicode="&#x121;" horiz-adv-x="601" 
d="M200 -212h123q84 0 130.5 46.5t46.5 129.5v560h-49v-105q-23 51 -70.5 82t-108.5 31q-88 0 -146.5 -63.5t-58.5 -165.5v-84q0 -25 4 -48.5t11.5 -44.5t18.5 -39t24.5 -32.5t30 -26.5t35 -20t39 -12t42.5 -4q61 0 108.5 30t70.5 82v-135q0 -68 -33.5 -102t-102.5 -34h-115
v-45zM451 299v-75q0 -85 -46 -136.5t-121 -51.5t-121.5 51.5t-46.5 136.5v75q0 84 46.5 136.5t121.5 52.5t121 -52.5t46 -136.5zM290 636q15 0 26 11.5t11 26.5q0 16 -11 27t-26 11t-26 -11t-11 -27q0 -15 11 -26.5t26 -11.5z" />
    <glyph glyph-name="uni0122" unicode="&#x122;" horiz-adv-x="728" 
d="M70 309q0 -36 5.5 -68.5t16 -61.5t25.5 -54.5t34.5 -46.5t42.5 -37.5t50 -27.5t56.5 -17t62.5 -6q75 0 136 39t90 99v-128h49v349h-268v-46h219v-44q0 -23 -4 -44.5t-11 -40.5t-17 -35.5t-23 -30.5t-28 -25t-31.5 -19.5t-35 -14.5t-37.5 -9t-39 -3q-108 0 -175 75
t-67 197v82q0 122 66.5 197t174.5 75q75 0 136.5 -41t87.5 -116l47 15q-30 87 -104 138t-167 51q-33 0 -62.5 -6t-56.5 -17t-50 -27.5t-42.5 -37.5t-34 -46.5t-25 -54.5t-16 -61.5t-5.5 -68.5v-82zM324 -210v-27q41 6 63.5 35.5t22.5 66.5q0 28 -12 43.5t-31 15.5
q-12 0 -22.5 -9.5t-10.5 -23.5q0 -6 1.5 -10.5t4.5 -8t6.5 -6.5t7 -5.5t7 -4.5t6.5 -4.5t4.5 -5t1.5 -6.5q0 -15 -14 -30.5t-35 -19.5z" />
    <glyph glyph-name="uni0123" unicode="&#x123;" horiz-adv-x="601" 
d="M337 772v27q-41 -6 -63.5 -35.5t-22.5 -66.5q0 -28 12 -43.5t31 -15.5q12 0 22.5 9.5t10.5 23.5q0 6 -1.5 10.5t-4.5 8t-6.5 6.5t-7 5.5t-7 4.5t-6.5 4.5t-4.5 5t-1.5 6.5q0 15 14 30.5t35 19.5zM200 -212h123q84 0 130.5 46.5t46.5 129.5v560h-49v-105q-23 51 -70.5 82
t-108.5 31q-88 0 -146.5 -63.5t-58.5 -165.5v-84q0 -25 4 -48.5t11.5 -44.5t18.5 -39t24.5 -32.5t30 -26.5t35 -20t39 -12t42.5 -4q61 0 108.5 30t70.5 82v-135q0 -68 -33.5 -102t-102.5 -34h-115v-45zM451 299v-75q0 -85 -46 -136.5t-121 -51.5t-121.5 51.5t-46.5 136.5v75
q0 84 46.5 136.5t121.5 52.5t121 -52.5t46 -136.5z" />
    <glyph glyph-name="Hcircumflex" unicode="&#x124;" horiz-adv-x="701" 
d="M151 0v328h399v-328h51v700h-51v-326h-399v326h-51v-700h51zM268 790l83 86l82 -86h48l-105 120h-51l-105 -120h48z" />
    <glyph glyph-name="hcircumflex" unicode="&#x125;" 
d="M500 343q0 20 -3.5 38.5t-10 35.5t-16 32t-21.5 28t-26.5 23t-31 17.5t-35.5 11t-39 3.5q-60 0 -106.5 -31t-65.5 -82v311h-49v-730h49v326q0 69 45.5 115t115.5 46q66 0 105.5 -43t39.5 -108v-336h49v343zM38 820l83 86l82 -86h48l-105 120h-51l-105 -120h48z" />
    <glyph glyph-name="Hbar" unicode="&#x126;" horiz-adv-x="701" 
d="M151 0v328h399v-328h51v511h85v45h-85v144h-51v-144h-399v144h-51v-144h-85v-45h85v-511h51zM151 374v137h399v-137h-399z" />
    <glyph glyph-name="hbar" unicode="&#x127;" 
d="M499 343q0 20 -3.5 38.5t-10 35.5t-16 32t-21.5 28t-26.5 23t-31 17.5t-35.5 11t-39 3.5q-60 0 -106.5 -31t-65.5 -82v186h158v44h-158v81h-49v-81h-80v-44h80v-605h49v326q0 69 45.5 115t115.5 46q66 0 105.5 -43t39.5 -108v-336h49v343z" />
    <glyph glyph-name="Itilde" unicode="&#x128;" horiz-adv-x="251" 
d="M151 0v700h-51v-700h51zM69 903q-28 0 -48 -26t-34 -72l35 -9q13 40 23 54t24 14q4 0 8.5 -2t9.5 -5t10.5 -7.5l11 -9t11.5 -10t12 -10t12.5 -9t13 -7.5t13 -5t12.5 -2q28 0 48 26t34 72l-35 9q-13 -40 -23 -54t-24 -14q-4 0 -9.5 2.5t-11 6t-11.5 8.5t-12.5 10.5
t-13.5 11.5t-14 11t-14 8.5t-14 6t-14 2.5z" />
    <glyph glyph-name="itilde" unicode="&#x129;" horiz-adv-x="241" 
d="M145 524h-49v-524h49v524zM63 727q-28 0 -48 -26t-34 -72l35 -9q13 40 23 54t24 14q4 0 8.5 -2t9.5 -5t10.5 -7.5l11 -9t11.5 -10t12 -10t12.5 -9t13 -7.5t13 -5t12.5 -2q28 0 48 26t34 72l-35 9q-13 -40 -23 -54t-24 -14q-4 0 -9.5 2.5t-11 6t-11.5 8.5t-12.5 10.5
t-13.5 11.5t-14 11t-14 8.5t-14 6t-14 2.5z" />
    <glyph glyph-name="Imacron" unicode="&#x12a;" horiz-adv-x="251" 
d="M151 0v700h-51v-700h51zM245 860h-239v-39h239v39z" />
    <glyph glyph-name="imacron" unicode="&#x12b;" horiz-adv-x="241" 
d="M145 524h-49v-524h49v524zM239 684h-239v-39h239v39z" />
    <glyph glyph-name="Ibreve" unicode="&#x12c;" horiz-adv-x="251" 
d="M151 0v700h-51v-700h51zM125 836q-27 0 -53 15.5t-37 61.5l-39 -12q11 -51 47.5 -78.5t81.5 -27.5t81.5 27.5t47.5 78.5l-39 12q-11 -46 -37 -61.5t-53 -15.5z" />
    <glyph glyph-name="ibreve" unicode="&#x12d;" horiz-adv-x="241" 
d="M145 524h-49v-524h49v524zM120 660q-27 0 -53 15.5t-37 61.5l-39 -12q11 -51 47.5 -78.5t81.5 -27.5t81.5 27.5t47.5 78.5l-39 12q-11 -46 -37 -61.5t-53 -15.5z" />
    <glyph glyph-name="Iogonek" unicode="&#x12e;" horiz-adv-x="251" 
d="M151 0v700h-51v-700h5q-44 -44 -59.5 -76.5t-15.5 -63.5q0 -35 22 -58t67 -23q12 0 23 1.5t21 3.5l-5 35q-7 -2 -16.5 -3t-18.5 -1q-25 0 -39 14t-14 38q0 25 15.5 56t65.5 77z" />
    <glyph glyph-name="iogonek" unicode="&#x12f;" horiz-adv-x="241" 
d="M121 643q15 0 27 12.5t12 27.5q0 16 -12 28t-27 12t-27 -12t-12 -28q0 -15 12 -27.5t27 -12.5zM145 0v524h-49v-524h3q-44 -44 -59.5 -76.5t-15.5 -63.5q0 -35 22 -58t67 -23q12 0 23 1.5t21 3.5l-5 35q-7 -2 -16.5 -3t-18.5 -1q-25 0 -39 14t-14 38q0 25 15.5 56
t65.5 77z" />
    <glyph glyph-name="Idotaccent" unicode="&#x130;" horiz-adv-x="251" 
d="M151 0v700h-51v-700h51zM126 812q15 0 26 11.5t11 26.5q0 16 -11 27t-26 11t-26 -11t-11 -27q0 -15 11 -26.5t26 -11.5z" />
    <glyph glyph-name="dotlessi" unicode="&#x131;" horiz-adv-x="241" 
d="M145 524h-49v-524h49v524z" />
    <glyph glyph-name="IJ" unicode="&#x132;" horiz-adv-x="739" 
d="M151 0v700h-51v-700h51zM279 44q31 -25 71.5 -38.5t84.5 -13.5q22 0 43.5 3.5t40.5 11t36.5 18.5t31.5 25t25.5 32t20 39t12.5 45t4 52v482h-51v-482q0 -88 -47 -133.5t-116 -45.5q-37 0 -70 11t-59 32z" />
    <glyph glyph-name="ij" unicode="&#x133;" horiz-adv-x="482" 
d="M121 643q15 0 27 12.5t12 27.5q0 16 -12 28t-27 12t-27 -12t-12 -28q0 -15 12 -27.5t27 -12.5zM145 524h-49v-524h49v524zM362 643q15 0 27 12.5t12 27.5q0 16 -12 28t-27 12t-27 -12t-12 -28q0 -15 12 -27.5t27 -12.5zM298 -212q40 0 64 21.5t24 58.5v656h-49v-651
q0 -19 -12 -29.5t-34 -10.5h-35v-45h42z" />
    <glyph glyph-name="Jcircumflex" unicode="&#x134;" horiz-adv-x="488" 
d="M28 44q31 -25 71.5 -38.5t84.5 -13.5q22 0 43.5 3.5t40.5 11t36.5 18.5t31.5 25t25.5 32t20 39t12.5 45t4 52v482h-51v-482q0 -88 -47 -133.5t-116 -45.5q-37 0 -70 11t-59 32zM291 790l83 86l82 -86h48l-105 120h-51l-105 -120h48z" />
    <glyph glyph-name="jcircumflex" unicode="&#x135;" horiz-adv-x="241" 
d="M57 -212q40 0 64 21.5t24 58.5v656h-49v-651q0 -19 -12 -29.5t-34 -10.5h-35v-45h42zM37 614l83 86l82 -86h48l-105 120h-51l-105 -120h48z" />
    <glyph glyph-name="uni0136" unicode="&#x136;" horiz-adv-x="578" 
d="M151 0v332l369 -332h70l-393 355l389 345h-67l-368 -328v328h-51v-700h51zM267 -210v-27q41 6 63.5 35.5t22.5 66.5q0 28 -12 43.5t-31 15.5q-12 0 -22.5 -9.5t-10.5 -23.5q0 -6 1.5 -10.5t4.5 -8t6.5 -6.5t7 -5.5t7 -4.5t6.5 -4.5t4.5 -5t1.5 -6.5q0 -15 -14 -30.5
t-35 -19.5z" />
    <glyph glyph-name="uni0137" unicode="&#x137;" horiz-adv-x="478" 
d="M484 524h-70l-269 -236v442h-49v-730h49v250l276 -250h71l-301 271zM228 -210v-27q41 6 63.5 35.5t22.5 66.5q0 28 -12 43.5t-31 15.5q-12 0 -22.5 -9.5t-10.5 -23.5q0 -6 1.5 -10.5t4.5 -8t6.5 -6.5t7 -5.5t7 -4.5t6.5 -4.5t4.5 -5t1.5 -6.5q0 -15 -14 -30.5t-35 -19.5z
" />
    <glyph glyph-name="kgreenlandic" unicode="&#x138;" horiz-adv-x="483" 
d="M145 524h-49v-524h49v250l274 -250h73l-301 270l293 254h-71l-268 -236v236z" />
    <glyph glyph-name="Lacute" unicode="&#x139;" horiz-adv-x="560" 
d="M525 46h-374v654h-51v-700h425v46zM187 909l-110 -120h51l125 120h-66z" />
    <glyph glyph-name="lacute" unicode="&#x13a;" horiz-adv-x="241" 
d="M145 0v730h-49v-730h49zM184 938l-110 -120h51l125 120h-66z" />
    <glyph glyph-name="uni013B" unicode="&#x13b;" horiz-adv-x="560" 
d="M525 46h-374v654h-51v-700h425v46zM273 -210v-27q41 6 63.5 35.5t22.5 66.5q0 28 -12 43.5t-31 15.5q-12 0 -22.5 -9.5t-10.5 -23.5q0 -6 1.5 -10.5t4.5 -8t6.5 -6.5t7 -5.5t7 -4.5t6.5 -4.5t4.5 -5t1.5 -6.5q0 -15 -14 -30.5t-35 -19.5z" />
    <glyph glyph-name="uni013C" unicode="&#x13c;" horiz-adv-x="241" 
d="M145 0v730h-49v-730h49zM76 -210v-27q41 6 63.5 35.5t22.5 66.5q0 28 -12 43.5t-31 15.5q-12 0 -22.5 -9.5t-10.5 -23.5q0 -6 1.5 -10.5t4.5 -8t6.5 -6.5t7 -5.5t7 -4.5t6.5 -4.5t4.5 -5t1.5 -6.5q0 -15 -14 -30.5t-35 -19.5z" />
    <glyph glyph-name="Lcaron" unicode="&#x13d;" horiz-adv-x="560" 
d="M525 46h-374v654h-51v-700h425v46zM361 513h41l36 187h-56z" />
    <glyph glyph-name="lcaron" unicode="&#x13e;" horiz-adv-x="310" 
d="M244 543h41l36 187h-56zM145 0v730h-49v-730h49z" />
    <glyph glyph-name="Ldot" unicode="&#x13f;" horiz-adv-x="560" 
d="M525 46h-374v654h-51v-700h425v46zM397 315q15 0 26 11.5t11 26.5q0 16 -11 27t-26 11t-26 -11t-11 -27q0 -15 11 -26.5t26 -11.5z" />
    <glyph glyph-name="ldot" unicode="&#x140;" horiz-adv-x="305" 
d="M145 0v730h-49v-730h49zM267 293q15 0 26 11.5t11 26.5q0 16 -11 27t-26 11t-26 -11t-11 -27q0 -15 11 -26.5t26 -11.5z" />
    <glyph glyph-name="Lslash" unicode="&#x141;" horiz-adv-x="570" 
d="M25 194l75 65v-259h425v46h-374v257l179 156v52l-179 -156v345h-51v-389l-75 -65v-52z" />
    <glyph glyph-name="lslash" unicode="&#x142;" horiz-adv-x="251" 
d="M145 0v366l90 80v50l-90 -79v313h-49v-356l-80 -71v-51l80 71v-323h49z" />
    <glyph glyph-name="Nacute" unicode="&#x143;" horiz-adv-x="731" 
d="M149 0l-2 631l426 -631h58v700h-49l2 -629l-425 629h-59v-700h49zM429 909l-110 -120h51l125 120h-66z" />
    <glyph glyph-name="nacute" unicode="&#x144;" 
d="M500 343q0 20 -3.5 38.5t-10 35.5t-16 32t-21.5 28t-26.5 23t-31 17.5t-35.5 11t-39 3.5q-60 0 -106.5 -31t-65.5 -82v105h-49v-524h49v326q0 69 45.5 115t115.5 46q66 0 105.5 -43t39.5 -108v-336h49v343zM361 733l-110 -120h51l125 120h-66z" />
    <glyph glyph-name="uni0145" unicode="&#x145;" horiz-adv-x="731" 
d="M149 0l-2 631l426 -631h58v700h-49l2 -629l-425 629h-59v-700h49zM321 -210v-27q41 6 63.5 35.5t22.5 66.5q0 28 -12 43.5t-31 15.5q-12 0 -22.5 -9.5t-10.5 -23.5q0 -6 1.5 -10.5t4.5 -8t6.5 -6.5t7 -5.5t7 -4.5t6.5 -4.5t4.5 -5t1.5 -6.5q0 -15 -14 -30.5t-35 -19.5z
" />
    <glyph glyph-name="uni0146" unicode="&#x146;" 
d="M500 343q0 20 -3.5 38.5t-10 35.5t-16 32t-21.5 28t-26.5 23t-31 17.5t-35.5 11t-39 3.5q-60 0 -106.5 -31t-65.5 -82v105h-49v-524h49v326q0 69 45.5 115t115.5 46q66 0 105.5 -43t39.5 -108v-336h49v343zM253 -210v-27q41 6 63.5 35.5t22.5 66.5q0 28 -12 43.5
t-31 15.5q-12 0 -22.5 -9.5t-10.5 -23.5q0 -6 1.5 -10.5t4.5 -8t6.5 -6.5t7 -5.5t7 -4.5t6.5 -4.5t4.5 -5t1.5 -6.5q0 -15 -14 -30.5t-35 -19.5z" />
    <glyph glyph-name="Ncaron" unicode="&#x147;" horiz-adv-x="731" 
d="M149 0l-2 631l426 -631h58v700h-49l2 -629l-425 629h-59v-700h49zM450 909l-82 -86l-83 86h-48l105 -120h51l105 120h-48z" />
    <glyph glyph-name="ncaron" unicode="&#x148;" 
d="M500 343q0 20 -3.5 38.5t-10 35.5t-16 32t-21.5 28t-26.5 23t-31 17.5t-35.5 11t-39 3.5q-60 0 -106.5 -31t-65.5 -82v105h-49v-524h49v326q0 69 45.5 115t115.5 46q66 0 105.5 -43t39.5 -108v-336h49v343zM382 733l-82 -86l-83 86h-48l105 -120h51l105 120h-48z" />
    <glyph glyph-name="Eng" unicode="&#x14a;" horiz-adv-x="731" 
d="M582 -129q0 -18 -11 -28t-32 -10h-33v-45h40q39 0 62 21t23 56v835h-49v-615l-425 615h-57v-700h49v627l433 -627v-129z" />
    <glyph glyph-name="eng" unicode="&#x14b;" 
d="M412 -212q40 0 64 21.5t24 58.5v475q0 20 -3.5 38.5t-10 35.5t-16 32t-21.5 28t-26.5 23t-31 17.5t-35.5 11t-39 3.5q-60 0 -106.5 -31t-65.5 -82v105h-49v-524h49v326q0 69 45.5 115t115.5 46q66 0 105.5 -43t39.5 -108v-463q0 -19 -11.5 -29.5t-33.5 -10.5h-35v-45h41z
" />
    <glyph glyph-name="Omacron" unicode="&#x14c;" horiz-adv-x="734" 
d="M70 391v-82q0 -36 5.5 -69t16 -62.5t26 -54.5t35 -46t43 -37t50.5 -27.5t57.5 -17t63.5 -5.5t63.5 5.5t57.5 17t50.5 27.5t43 37t35 46t26 54.5t16 62.5t5.5 69v82q0 36 -5.5 69t-16 62.5t-26 54.5t-35 46t-43 37t-50.5 27.5t-57.5 17t-63.5 5.5t-63.5 -5.5t-57.5 -17
t-50.5 -27.5t-43 -37t-35 -46t-26 -54.5t-16 -62.5t-5.5 -69zM121 386q0 132 68 204.5t178 72.5t178 -72.5t68 -204.5v-72q0 -132 -68 -204.5t-178 -72.5t-178 72.5t-68 204.5v72zM486 860h-239v-39h239v39z" />
    <glyph glyph-name="omacron" unicode="&#x14d;" horiz-adv-x="568" 
d="M501 219v86q0 25 -4.5 48.5t-12.5 44.5t-19.5 39t-26 32.5t-32 26.5t-37 20t-41 12t-44.5 4t-44.5 -4t-41 -12t-37 -20t-32 -26.5t-26 -32.5t-19.5 -39t-12.5 -44.5t-4.5 -48.5v-86q0 -25 4.5 -48.5t12.5 -44.5t19.5 -39t26 -32.5t32 -26.5t37 -20t41 -12t44.5 -4t44.5 4
t41 12t37 20t32 26.5t26 32.5t19.5 39t12.5 44.5t4.5 48.5zM452 299v-74q0 -84 -46.5 -136.5t-121.5 -52.5t-121.5 52.5t-46.5 136.5v74q0 84 46.5 136.5t121.5 52.5t121.5 -52.5t46.5 -136.5zM403 684h-239v-39h239v39z" />
    <glyph glyph-name="Obreve" unicode="&#x14e;" horiz-adv-x="734" 
d="M70 391v-82q0 -36 5.5 -69t16 -62.5t26 -54.5t35 -46t43 -37t50.5 -27.5t57.5 -17t63.5 -5.5t63.5 5.5t57.5 17t50.5 27.5t43 37t35 46t26 54.5t16 62.5t5.5 69v82q0 36 -5.5 69t-16 62.5t-26 54.5t-35 46t-43 37t-50.5 27.5t-57.5 17t-63.5 5.5t-63.5 -5.5t-57.5 -17
t-50.5 -27.5t-43 -37t-35 -46t-26 -54.5t-16 -62.5t-5.5 -69zM121 386q0 132 68 204.5t178 72.5t178 -72.5t68 -204.5v-72q0 -132 -68 -204.5t-178 -72.5t-178 72.5t-68 204.5v72zM367 836q-27 0 -53 15.5t-37 61.5l-39 -12q11 -51 47.5 -78.5t81.5 -27.5t81.5 27.5
t47.5 78.5l-39 12q-11 -46 -37 -61.5t-53 -15.5z" />
    <glyph glyph-name="obreve" unicode="&#x14f;" horiz-adv-x="568" 
d="M501 219v86q0 25 -4.5 48.5t-12.5 44.5t-19.5 39t-26 32.5t-32 26.5t-37 20t-41 12t-44.5 4t-44.5 -4t-41 -12t-37 -20t-32 -26.5t-26 -32.5t-19.5 -39t-12.5 -44.5t-4.5 -48.5v-86q0 -25 4.5 -48.5t12.5 -44.5t19.5 -39t26 -32.5t32 -26.5t37 -20t41 -12t44.5 -4t44.5 4
t41 12t37 20t32 26.5t26 32.5t19.5 39t12.5 44.5t4.5 48.5zM452 299v-74q0 -84 -46.5 -136.5t-121.5 -52.5t-121.5 52.5t-46.5 136.5v74q0 84 46.5 136.5t121.5 52.5t121.5 -52.5t46.5 -136.5zM284 660q-27 0 -53 15.5t-37 61.5l-39 -12q11 -51 47.5 -78.5t81.5 -27.5
t81.5 27.5t47.5 78.5l-39 12q-11 -46 -37 -61.5t-53 -15.5z" />
    <glyph glyph-name="Ohungarumlaut" unicode="&#x150;" horiz-adv-x="734" 
d="M70 391v-82q0 -36 5.5 -69t16 -62.5t26 -54.5t35 -46t43 -37t50.5 -27.5t57.5 -17t63.5 -5.5t63.5 5.5t57.5 17t50.5 27.5t43 37t35 46t26 54.5t16 62.5t5.5 69v82q0 36 -5.5 69t-16 62.5t-26 54.5t-35 46t-43 37t-50.5 27.5t-57.5 17t-63.5 5.5t-63.5 -5.5t-57.5 -17
t-50.5 -27.5t-43 -37t-35 -46t-26 -54.5t-16 -62.5t-5.5 -69zM121 386q0 132 68 204.5t178 72.5t178 -72.5t68 -204.5v-72q0 -132 -68 -204.5t-178 -72.5t-178 72.5t-68 204.5v72zM367 909l-113 -120h50l124 120h-61zM517 909l-114 -120h51l123 120h-60z" />
    <glyph glyph-name="ohungarumlaut" unicode="&#x151;" horiz-adv-x="568" 
d="M501 219v86q0 25 -4.5 48.5t-12.5 44.5t-19.5 39t-26 32.5t-32 26.5t-37 20t-41 12t-44.5 4t-44.5 -4t-41 -12t-37 -20t-32 -26.5t-26 -32.5t-19.5 -39t-12.5 -44.5t-4.5 -48.5v-86q0 -25 4.5 -48.5t12.5 -44.5t19.5 -39t26 -32.5t32 -26.5t37 -20t41 -12t44.5 -4t44.5 4
t41 12t37 20t32 26.5t26 32.5t19.5 39t12.5 44.5t4.5 48.5zM452 299v-74q0 -84 -46.5 -136.5t-121.5 -52.5t-121.5 52.5t-46.5 136.5v74q0 84 46.5 136.5t121.5 52.5t121.5 -52.5t46.5 -136.5zM284 733l-113 -120h50l124 120h-61zM434 733l-114 -120h51l123 120h-60z" />
    <glyph glyph-name="OE" unicode="&#x152;" horiz-adv-x="1021" 
d="M70 391v-80q0 -143 78 -227t221 -84h592v46h-374v282h364v46h-364v280h374v46h-592q-144 0 -221.5 -83t-77.5 -226zM372 46q-122 0 -186.5 71.5t-64.5 193.5v80q0 124 64 193.5t187 69.5h164v-608h-164z" />
    <glyph glyph-name="oe" unicode="&#x153;" horiz-adv-x="929" 
d="M858 89l-40 27q-30 -42 -67 -61t-83 -19q-70 0 -118.5 52t-48.5 133v27h366v62q0 24 -4 46.5t-11.5 42.5t-18 38t-24 32.5t-30 26t-34.5 20t-38 12.5t-42 4q-63 0 -113.5 -34.5t-74.5 -91.5q-25 58 -76.5 92t-116.5 34q-23 0 -45 -4t-41.5 -12t-36.5 -20t-32 -26.5
t-26.5 -32.5t-19.5 -39t-12 -44.5t-4 -48.5v-86q0 -25 4.5 -48.5t12.5 -44.5t19.5 -39t26 -32.5t32 -26.5t37 -20t41 -12t44.5 -4q65 0 116.5 34t76.5 93q25 -57 76 -92t115 -35q59 0 106 24t84 73zM452 299v-74q0 -84 -46.5 -136.5t-121.5 -52.5t-121 52.5t-46 136.5v74
q0 84 46 136.5t121 52.5t121.5 -52.5t46.5 -136.5zM501 303q0 81 47.5 133t116.5 52q65 0 109 -51t44 -129v-15h-317v10z" />
    <glyph glyph-name="Racute" unicode="&#x154;" horiz-adv-x="600" 
d="M151 0v311h174l193 -311h58l-195 315q73 13 119 66t46 123q0 20 -4 39.5t-11.5 37t-18.5 33t-24.5 29t-30 24t-35 18t-39.5 11.5t-43 4h-240v-700h51zM340 654q67 0 111 -44.5t44 -105.5t-44 -104.5t-111 -43.5h-189v298h189zM364 909l-110 -120h51l125 120h-66z" />
    <glyph glyph-name="racute" unicode="&#x155;" horiz-adv-x="357" 
d="M325 481v47h-46q-46 0 -83 -30t-51 -78v104h-49v-524h49v331q0 62 38.5 106t95.5 44h46zM271 733l-110 -120h51l125 120h-66z" />
    <glyph glyph-name="uni0156" unicode="&#x156;" horiz-adv-x="600" 
d="M151 0v311h174l193 -311h58l-195 315q73 13 119 66t46 123q0 20 -4 39.5t-11.5 37t-18.5 33t-24.5 29t-30 24t-35 18t-39.5 11.5t-43 4h-240v-700h51zM340 654q67 0 111 -44.5t44 -105.5t-44 -104.5t-111 -43.5h-189v298h189zM274 -210v-27q41 6 63.5 35.5t22.5 66.5
q0 28 -12 43.5t-31 15.5q-12 0 -22.5 -9.5t-10.5 -23.5q0 -6 1.5 -10.5t4.5 -8t6.5 -6.5t7 -5.5t7 -4.5t6.5 -4.5t4.5 -5t1.5 -6.5q0 -15 -14 -30.5t-35 -19.5z" />
    <glyph glyph-name="uni0157" unicode="&#x157;" horiz-adv-x="357" 
d="M325 481v47h-46q-46 0 -83 -30t-51 -78v104h-49v-524h49v331q0 62 38.5 106t95.5 44h46zM75 -210v-27q41 6 63.5 35.5t22.5 66.5q0 28 -12 43.5t-31 15.5q-12 0 -22.5 -9.5t-10.5 -23.5q0 -6 1.5 -10.5t4.5 -8t6.5 -6.5t7 -5.5t7 -4.5t6.5 -4.5t4.5 -5t1.5 -6.5
q0 -15 -14 -30.5t-35 -19.5z" />
    <glyph glyph-name="Rcaron" unicode="&#x158;" horiz-adv-x="600" 
d="M151 0v311h174l193 -311h58l-195 315q73 13 119 66t46 123q0 20 -4 39.5t-11.5 37t-18.5 33t-24.5 29t-30 24t-35 18t-39.5 11.5t-43 4h-240v-700h51zM340 654q67 0 111 -44.5t44 -105.5t-44 -104.5t-111 -43.5h-189v298h189zM385 909l-82 -86l-83 86h-48l105 -120h51
l105 120h-48z" />
    <glyph glyph-name="rcaron" unicode="&#x159;" horiz-adv-x="357" 
d="M325 481v47h-46q-46 0 -83 -30t-51 -78v104h-49v-524h49v331q0 62 38.5 106t95.5 44h46zM292 733l-82 -86l-83 86h-48l105 -120h51l105 120h-48z" />
    <glyph glyph-name="Sacute" unicode="&#x15a;" 
d="M54 204q11 -96 82 -154.5t176 -58.5q100 0 160.5 52.5t60.5 137.5q0 65 -42.5 109.5t-126.5 68.5l-125 36q-63 19 -94.5 51t-31.5 81q0 60 45.5 98t114.5 38q81 0 132 -44.5t61 -124.5h51q-10 97 -76.5 156t-165.5 59q-93 0 -153 -52t-60 -135q0 -61 40.5 -107t115.5 -67
l120 -34q75 -22 109 -54.5t34 -83.5q0 -64 -46.5 -101.5t-123.5 -37.5q-82 0 -137 44.5t-68 122.5h-52zM339 909l-110 -120h51l125 120h-66z" />
    <glyph glyph-name="sacute" unicode="&#x15b;" horiz-adv-x="473" 
d="M246 -9q77 0 125.5 40t48.5 104q0 50 -38.5 87t-106.5 56l-79 22q-43 12 -69.5 35t-26.5 61q0 39 31.5 65.5t86.5 26.5t97 -34.5t49 -83.5h50q-2 18 -8 34.5t-14.5 31.5t-19.5 27.5t-24.5 23.5t-28.5 19t-31.5 14t-34 9t-36.5 3q-75 0 -120.5 -40t-45.5 -103
q0 -50 35 -84t98 -51l79 -22q50 -14 79 -38t29 -65q0 -39 -34.5 -66.5t-89.5 -27.5q-65 0 -106.5 36t-49.5 85h-49q10 -69 65 -117t139 -48zM289 733l-110 -120h51l125 120h-66z" />
    <glyph glyph-name="Scircumflex" unicode="&#x15c;" 
d="M54 204q11 -96 82 -154.5t176 -58.5q100 0 160.5 52.5t60.5 137.5q0 65 -42.5 109.5t-126.5 68.5l-125 36q-63 19 -94.5 51t-31.5 81q0 60 45.5 98t114.5 38q81 0 132 -44.5t61 -124.5h51q-10 97 -76.5 156t-165.5 59q-93 0 -153 -52t-60 -135q0 -61 40.5 -107t115.5 -67
l120 -34q75 -22 109 -54.5t34 -83.5q0 -64 -46.5 -101.5t-123.5 -37.5q-82 0 -137 44.5t-68 122.5h-52zM193 790l83 86l82 -86h48l-105 120h-51l-105 -120h48z" />
    <glyph glyph-name="scircumflex" unicode="&#x15d;" horiz-adv-x="473" 
d="M246 -9q77 0 125.5 40t48.5 104q0 50 -38.5 87t-106.5 56l-79 22q-43 12 -69.5 35t-26.5 61q0 39 31.5 65.5t86.5 26.5t97 -34.5t49 -83.5h50q-2 18 -8 34.5t-14.5 31.5t-19.5 27.5t-24.5 23.5t-28.5 19t-31.5 14t-34 9t-36.5 3q-75 0 -120.5 -40t-45.5 -103
q0 -50 35 -84t98 -51l79 -22q50 -14 79 -38t29 -65q0 -39 -34.5 -66.5t-89.5 -27.5q-65 0 -106.5 36t-49.5 85h-49q10 -69 65 -117t139 -48zM143 614l83 86l82 -86h48l-105 120h-51l-105 -120h48z" />
    <glyph glyph-name="uni015E" unicode="&#x15e;" 
d="M54 204q10 -90 73.5 -147.5t159.5 -64.5l-23 -81h27q31 0 49 -14t18 -37q0 -22 -16 -36t-41 -14q-20 0 -37.5 9t-29.5 25l-30 -24q15 -21 41.5 -33.5t55.5 -12.5q42 0 69.5 24.5t27.5 61.5q0 36 -25 58t-65 23l14 50q96 2 153.5 54.5t57.5 135.5q0 65 -42.5 109
t-126.5 69l-125 36q-64 19 -95.5 52t-31.5 81q0 59 45.5 97t115.5 38q81 0 132 -44.5t61 -124.5h51q-10 97 -76.5 156t-165.5 59q-93 0 -153 -52t-60 -135q0 -61 41 -107t116 -67l119 -34q76 -22 110 -55.5t34 -85.5q0 -62 -46.5 -99t-124.5 -37q-82 0 -137 44.5t-68 122.5
h-52z" />
    <glyph glyph-name="uni015F" unicode="&#x15f;" horiz-adv-x="473" 
d="M334 -140q0 36 -25 58t-65 23l14 50q72 4 117 43t45 101q0 50 -38.5 87t-106.5 56l-79 22q-43 12 -69.5 35t-26.5 61q0 39 31.5 65.5t86.5 26.5t97 -34.5t49 -83.5h50q-2 18 -8 34.5t-14.5 31.5t-19.5 27.5t-24.5 23.5t-28.5 19t-31.5 14t-34 9t-36.5 3q-75 0 -120.5 -40
t-45.5 -103q0 -50 35 -84t98 -51l79 -22q50 -14 79 -38t29 -65q0 -39 -34.5 -66.5t-89.5 -27.5q-65 0 -106.5 36t-49.5 85h-49q9 -64 57.5 -110.5t123.5 -53.5l-23 -81h27q31 0 49 -14t18 -37q0 -22 -16 -36t-41 -14q-20 0 -37.5 9t-29.5 25l-30 -24q15 -21 41.5 -33.5
t55.5 -12.5q42 0 69.5 24.5t27.5 61.5z" />
    <glyph glyph-name="Scaron" unicode="&#x160;" 
d="M54 204q11 -96 82 -154.5t176 -58.5q100 0 160.5 52.5t60.5 137.5q0 65 -42.5 109.5t-126.5 68.5l-125 36q-63 19 -94.5 51t-31.5 81q0 60 45.5 98t114.5 38q81 0 132 -44.5t61 -124.5h51q-10 97 -76.5 156t-165.5 59q-93 0 -153 -52t-60 -135q0 -61 40.5 -107t115.5 -67
l120 -34q75 -22 109 -54.5t34 -83.5q0 -64 -46.5 -101.5t-123.5 -37.5q-82 0 -137 44.5t-68 122.5h-52zM360 909l-82 -86l-83 86h-48l105 -120h51l105 120h-48z" />
    <glyph glyph-name="scaron" unicode="&#x161;" horiz-adv-x="473" 
d="M246 -9q77 0 125.5 40t48.5 104q0 50 -38.5 87t-106.5 56l-79 22q-43 12 -69.5 35t-26.5 61q0 39 31.5 65.5t86.5 26.5t97 -34.5t49 -83.5h50q-2 18 -8 34.5t-14.5 31.5t-19.5 27.5t-24.5 23.5t-28.5 19t-31.5 14t-34 9t-36.5 3q-75 0 -120.5 -40t-45.5 -103
q0 -50 35 -84t98 -51l79 -22q50 -14 79 -38t29 -65q0 -39 -34.5 -66.5t-89.5 -27.5q-65 0 -106.5 36t-49.5 85h-49q10 -69 65 -117t139 -48zM310 733l-82 -86l-83 86h-48l105 -120h51l105 120h-48z" />
    <glyph glyph-name="uni0162" unicode="&#x162;" horiz-adv-x="609" 
d="M30 654h249v-654h10l-25 -89h27q31 0 49 -14t18 -37q0 -22 -16 -36t-41 -14q-20 0 -37.5 9t-29.5 25l-30 -24q15 -21 41.5 -33.5t55.5 -12.5q42 0 69.5 24.5t27.5 61.5q0 36 -25 58t-65 23l16 59h6v654h249v46h-549v-46z" />
    <glyph glyph-name="uni0163" unicode="&#x163;" horiz-adv-x="371" 
d="M37 479h108v-388q0 -34 18.5 -57.5t50.5 -30.5l-26 -92h27q31 0 49 -14t18 -37q0 -22 -16 -36t-41 -14q-20 0 -37.5 9t-29.5 25l-30 -24q15 -21 41.5 -33.5t55.5 -12.5q42 0 69.5 24.5t27.5 61.5q0 36 -25 58t-65 23l16 59h86v45h-84q-27 0 -41.5 13.5t-14.5 37.5v383
h140v45h-140v160h-49v-160h-108v-45z" />
    <glyph glyph-name="Tcaron" unicode="&#x164;" horiz-adv-x="609" 
d="M30 654h249v-654h51v654h249v46h-549v-46zM389 909l-82 -86l-83 86h-48l105 -120h51l105 120h-48z" />
    <glyph glyph-name="tcaron" unicode="&#x165;" horiz-adv-x="371" 
d="M266 604h38l36 167h-52zM244 0h90v45h-84q-27 0 -41.5 13.5t-14.5 37.5v383h140v45h-140v160h-49v-160h-108v-45h108v-388q0 -42 27 -66.5t72 -24.5z" />
    <glyph glyph-name="Tbar" unicode="&#x166;" horiz-adv-x="609" 
d="M124 331h155v-331h51v331h156v45h-156v278h249v46h-549v-46h249v-278h-155v-45z" />
    <glyph glyph-name="tbar" unicode="&#x167;" horiz-adv-x="381" 
d="M244 0h90v45h-84q-27 0 -41.5 13.5t-14.5 37.5v171h140v45h-140v167h140v45h-140v160h-49v-160h-108v-45h108v-167h-108v-45h108v-176q0 -42 27 -66.5t72 -24.5z" />
    <glyph glyph-name="Utilde" unicode="&#x168;" horiz-adv-x="701" 
d="M141 258v442h-51v-446q0 -26 4 -50.5t11.5 -46.5t18.5 -41.5t25 -36t30.5 -30.5t35 -24.5t39 -18t42.5 -11t45 -3.5q20 0 38 3t34.5 8.5t31.5 13t28 17t24.5 20.5t21 23t17.5 24t14 25v-126h51v700h-51v-442q0 -25 -4 -47.5t-12 -42.5t-19 -37.5t-25 -31.5t-30.5 -25.5
t-35 -19t-39 -11.5t-41.5 -4q-22 0 -42 4t-38.5 11.5t-34.5 19t-30 25.5t-24.5 31.5t-18 37.5t-11.5 42.5t-4 47.5zM289 903q-28 0 -48 -26t-34 -72l35 -9q13 40 23 54t24 14q4 0 8.5 -2t9.5 -5t10.5 -7.5l11 -9t11.5 -10t12 -10t12.5 -9t13 -7.5t13 -5t12.5 -2q28 0 48 26
t34 72l-35 9q-13 -40 -23 -54t-24 -14q-4 0 -9.5 2.5t-11 6t-11.5 8.5t-12.5 10.5t-13.5 11.5t-14 11t-14 8.5t-14 6t-14 2.5z" />
    <glyph glyph-name="utilde" unicode="&#x169;" 
d="M96 181q0 -20 3.5 -38.5t10 -35.5t16 -32t21.5 -28t26.5 -23t31.5 -17.5t35.5 -11t39.5 -3.5q59 0 105.5 31t65.5 82v-105h49v524h-49v-326q0 -69 -45.5 -115t-115.5 -46q-65 0 -105 43t-40 108v336h-49v-343zM241 727q-28 0 -48 -26t-34 -72l35 -9q13 40 23 54t24 14
q4 0 8.5 -2t9.5 -5t10.5 -7.5l11 -9t11.5 -10t12 -10t12.5 -9t13 -7.5t13 -5t12.5 -2q28 0 48 26t34 72l-35 9q-13 -40 -23 -54t-24 -14q-4 0 -9.5 2.5t-11 6t-11.5 8.5t-12.5 10.5t-13.5 11.5t-14 11t-14 8.5t-14 6t-14 2.5z" />
    <glyph glyph-name="Umacron" unicode="&#x16a;" horiz-adv-x="701" 
d="M141 258v442h-51v-446q0 -26 4 -50.5t11.5 -46.5t18.5 -41.5t25 -36t30.5 -30.5t35 -24.5t39 -18t42.5 -11t45 -3.5q20 0 38 3t34.5 8.5t31.5 13t28 17t24.5 20.5t21 23t17.5 24t14 25v-126h51v700h-51v-442q0 -25 -4 -47.5t-12 -42.5t-19 -37.5t-25 -31.5t-30.5 -25.5
t-35 -19t-39 -11.5t-41.5 -4q-22 0 -42 4t-38.5 11.5t-34.5 19t-30 25.5t-24.5 31.5t-18 37.5t-11.5 42.5t-4 47.5zM465 860h-239v-39h239v39z" />
    <glyph glyph-name="umacron" unicode="&#x16b;" 
d="M96 181q0 -20 3.5 -38.5t10 -35.5t16 -32t21.5 -28t26.5 -23t31.5 -17.5t35.5 -11t39.5 -3.5q59 0 105.5 31t65.5 82v-105h49v524h-49v-326q0 -69 -45.5 -115t-115.5 -46q-65 0 -105 43t-40 108v336h-49v-343zM417 684h-239v-39h239v39z" />
    <glyph glyph-name="Ubreve" unicode="&#x16c;" horiz-adv-x="701" 
d="M141 258v442h-51v-446q0 -26 4 -50.5t11.5 -46.5t18.5 -41.5t25 -36t30.5 -30.5t35 -24.5t39 -18t42.5 -11t45 -3.5q20 0 38 3t34.5 8.5t31.5 13t28 17t24.5 20.5t21 23t17.5 24t14 25v-126h51v700h-51v-442q0 -25 -4 -47.5t-12 -42.5t-19 -37.5t-25 -31.5t-30.5 -25.5
t-35 -19t-39 -11.5t-41.5 -4q-22 0 -42 4t-38.5 11.5t-34.5 19t-30 25.5t-24.5 31.5t-18 37.5t-11.5 42.5t-4 47.5zM346 836q-27 0 -53 15.5t-37 61.5l-39 -12q11 -51 47.5 -78.5t81.5 -27.5t81.5 27.5t47.5 78.5l-39 12q-11 -46 -37 -61.5t-53 -15.5z" />
    <glyph glyph-name="ubreve" unicode="&#x16d;" 
d="M96 181q0 -20 3.5 -38.5t10 -35.5t16 -32t21.5 -28t26.5 -23t31.5 -17.5t35.5 -11t39.5 -3.5q59 0 105.5 31t65.5 82v-105h49v524h-49v-326q0 -69 -45.5 -115t-115.5 -46q-65 0 -105 43t-40 108v336h-49v-343zM298 660q-27 0 -53 15.5t-37 61.5l-39 -12
q11 -51 47.5 -78.5t81.5 -27.5t81.5 27.5t47.5 78.5l-39 12q-11 -46 -37 -61.5t-53 -15.5z" />
    <glyph glyph-name="Uring" unicode="&#x16e;" horiz-adv-x="701" 
d="M141 258v442h-51v-446q0 -26 4 -50.5t11.5 -46.5t18.5 -41.5t25 -36t30.5 -30.5t35 -24.5t39 -18t42.5 -11t45 -3.5q20 0 38 3t34.5 8.5t31.5 13t28 17t24.5 20.5t21 23t17.5 24t14 25v-126h51v700h-51v-442q0 -25 -4 -47.5t-12 -42.5t-19 -37.5t-25 -31.5t-30.5 -25.5
t-35 -19t-39 -11.5t-41.5 -4q-22 0 -42 4t-38.5 11.5t-34.5 19t-30 25.5t-24.5 31.5t-18 37.5t-11.5 42.5t-4 47.5zM346 774q41 0 70 28.5t29 68.5t-29 68.5t-70 28.5t-70 -28.5t-29 -68.5t29 -68.5t70 -28.5zM346 806q-28 0 -46.5 19t-18.5 46t18.5 46t46.5 19t46.5 -19
t18.5 -46t-18.5 -46t-46.5 -19z" />
    <glyph glyph-name="uring" unicode="&#x16f;" 
d="M96 181q0 -20 3.5 -38.5t10 -35.5t16 -32t21.5 -28t26.5 -23t31.5 -17.5t35.5 -11t39.5 -3.5q59 0 105.5 31t65.5 82v-105h49v524h-49v-326q0 -69 -45.5 -115t-115.5 -46q-65 0 -105 43t-40 108v336h-49v-343zM298 598q41 0 70 28.5t29 68.5t-29 68.5t-70 28.5t-70 -28.5
t-29 -68.5t29 -68.5t70 -28.5zM298 630q-28 0 -46.5 19t-18.5 46t18.5 46t46.5 19t46.5 -19t18.5 -46t-18.5 -46t-46.5 -19z" />
    <glyph glyph-name="Uhungarumlaut" unicode="&#x170;" horiz-adv-x="701" 
d="M141 258v442h-51v-446q0 -26 4 -50.5t11.5 -46.5t18.5 -41.5t25 -36t30.5 -30.5t35 -24.5t39 -18t42.5 -11t45 -3.5q20 0 38 3t34.5 8.5t31.5 13t28 17t24.5 20.5t21 23t17.5 24t14 25v-126h51v700h-51v-442q0 -25 -4 -47.5t-12 -42.5t-19 -37.5t-25 -31.5t-30.5 -25.5
t-35 -19t-39 -11.5t-41.5 -4q-22 0 -42 4t-38.5 11.5t-34.5 19t-30 25.5t-24.5 31.5t-18 37.5t-11.5 42.5t-4 47.5zM346 909l-113 -120h50l124 120h-61zM496 909l-114 -120h51l123 120h-60z" />
    <glyph glyph-name="uhungarumlaut" unicode="&#x171;" 
d="M96 181q0 -20 3.5 -38.5t10 -35.5t16 -32t21.5 -28t26.5 -23t31.5 -17.5t35.5 -11t39.5 -3.5q59 0 105.5 31t65.5 82v-105h49v524h-49v-326q0 -69 -45.5 -115t-115.5 -46q-65 0 -105 43t-40 108v336h-49v-343zM298 733l-113 -120h50l124 120h-61zM448 733l-114 -120h51
l123 120h-60z" />
    <glyph glyph-name="Uogonek" unicode="&#x172;" horiz-adv-x="701" 
d="M141 258v442h-51v-446q0 -26 4 -50.5t11.5 -46.5t18.5 -41.5t25 -36t30.5 -30.5t35 -24.5t39 -18t42.5 -11t45 -3.5q20 0 38 3t34.5 8.5t31.5 13t28 17t24.5 20.5t21 23t17.5 24t14 25v-126h5q-44 -44 -59.5 -76.5t-15.5 -63.5q0 -35 22 -58t67 -23q12 0 23 1.5t21 3.5
l-5 35q-7 -2 -16.5 -3t-18.5 -1q-25 0 -39 14t-14 38q0 25 15.5 56t65.5 77v700h-51v-442q0 -25 -4 -47.5t-12 -42.5t-19 -37.5t-25 -31.5t-30.5 -25.5t-35 -19t-39 -11.5t-41.5 -4q-22 0 -42 4t-38.5 11.5t-34.5 19t-30 25.5t-24.5 31.5t-18 37.5t-11.5 42.5t-4 47.5z" />
    <glyph glyph-name="uogonek" unicode="&#x173;" 
d="M96 181q0 -20 3.5 -38.5t10 -35.5t16 -32t21.5 -28t26.5 -23t31.5 -17.5t35.5 -11t39.5 -3.5q59 0 105.5 31t65.5 82v-105h3q-44 -44 -59.5 -76.5t-15.5 -63.5q0 -35 22 -58t67 -23q12 0 23 1.5t21 3.5l-5 35q-7 -2 -16.5 -3t-18.5 -1q-25 0 -39 14t-14 38q0 25 15.5 56
t65.5 77v524h-49v-326q0 -69 -45.5 -115t-115.5 -46q-65 0 -105 43t-40 108v336h-49v-343z" />
    <glyph glyph-name="Wcircumflex" unicode="&#x174;" horiz-adv-x="926" 
d="M486 700h-44l-198 -615l-152 615h-52l178 -700h44l201 619l201 -619h44l178 700h-50l-151 -615zM380 790l83 86l82 -86h48l-105 120h-51l-105 -120h48z" />
    <glyph glyph-name="wcircumflex" unicode="&#x175;" horiz-adv-x="719" 
d="M339 524l-140 -442l-121 442h-51l148 -524h42l143 442l142 -442h42l148 524h-50l-121 -440l-139 440h-43zM276 614l83 86l82 -86h48l-105 120h-51l-105 -120h48z" />
    <glyph glyph-name="Ycircumflex" unicode="&#x176;" horiz-adv-x="591" 
d="M321 0v294l265 406h-56l-233 -359l-234 359h-58l265 -405v-295h51zM213 790l83 86l82 -86h48l-105 120h-51l-105 -120h48z" />
    <glyph glyph-name="ycircumflex" unicode="&#x177;" horiz-adv-x="479" 
d="M164 -116q-9 -22 -26.5 -36.5t-44.5 -14.5h-56v-45h63q45 0 70.5 26.5t40.5 64.5l262 645h-50l-181 -450l-185 450h-50l209 -510zM159 614l83 86l82 -86h48l-105 120h-51l-105 -120h48z" />
    <glyph glyph-name="Ydieresis" unicode="&#x178;" horiz-adv-x="591" 
d="M321 0v294l265 406h-56l-233 -359l-234 359h-58l265 -405v-295h51zM219 812q15 0 26 11.5t11 26.5q0 16 -11 27t-26 11t-26 -11t-11 -27q0 -15 11 -26.5t26 -11.5zM373 812q15 0 26 11.5t11 26.5q0 16 -11 27t-26 11t-26 -11t-11 -27q0 -15 11 -26.5t26 -11.5z" />
    <glyph glyph-name="Zacute" unicode="&#x179;" horiz-adv-x="536" 
d="M43 654h388l-394 -618v-36h458v46h-395l394 618v36h-451v-46zM326 909l-110 -120h51l125 120h-66z" />
    <glyph glyph-name="zacute" unicode="&#x17a;" horiz-adv-x="456" 
d="M41 479h306l-309 -443v-36h375v45h-314l308 443v36h-366v-45zM289 733l-110 -120h51l125 120h-66z" />
    <glyph glyph-name="Zdotaccent" unicode="&#x17b;" horiz-adv-x="536" 
d="M43 654h388l-394 -618v-36h458v46h-395l394 618v36h-451v-46zM263 812q15 0 26 11.5t11 26.5q0 16 -11 27t-26 11t-26 -11t-11 -27q0 -15 11 -26.5t26 -11.5z" />
    <glyph glyph-name="zdotaccent" unicode="&#x17c;" horiz-adv-x="456" 
d="M41 479h306l-309 -443v-36h375v45h-314l308 443v36h-366v-45zM226 636q15 0 26 11.5t11 26.5q0 16 -11 27t-26 11t-26 -11t-11 -27q0 -15 11 -26.5t26 -11.5z" />
    <glyph glyph-name="Zcaron" unicode="&#x17d;" horiz-adv-x="536" 
d="M43 654h388l-394 -618v-36h458v46h-395l394 618v36h-451v-46zM347 909l-82 -86l-83 86h-48l105 -120h51l105 120h-48z" />
    <glyph glyph-name="zcaron" unicode="&#x17e;" horiz-adv-x="456" 
d="M41 479h306l-309 -443v-36h375v45h-314l308 443v36h-366v-45zM310 733l-82 -86l-83 86h-48l105 -120h51l105 120h-48z" />
    <glyph glyph-name="florin" unicode="&#x192;" horiz-adv-x="370" 
d="M64 -110q-4 -24 -14.5 -40.5t-32.5 -16.5h-91v-45h98q41 0 61.5 26.5t27.5 69.5l89 595h131v45h-124l17 113q4 24 14.5 40.5t32.5 16.5h91v45h-98q-41 0 -61.5 -26.5t-27.5 -69.5l-18 -119h-122v-45h115z" />
    <glyph glyph-name="uni0218" unicode="&#x218;" 
d="M54 204q11 -96 82 -154.5t176 -58.5q100 0 160.5 52.5t60.5 137.5q0 65 -42.5 109.5t-126.5 68.5l-125 36q-63 19 -94.5 51t-31.5 81q0 60 45.5 98t114.5 38q81 0 132 -44.5t61 -124.5h51q-10 97 -76.5 156t-165.5 59q-93 0 -153 -52t-60 -135q0 -61 40.5 -107t115.5 -67
l120 -34q75 -22 109 -54.5t34 -83.5q0 -64 -46.5 -101.5t-123.5 -37.5q-82 0 -137 44.5t-68 122.5h-52zM260 -210v-27q41 6 63.5 35.5t22.5 66.5q0 28 -12 43.5t-31 15.5q-12 0 -22.5 -9.5t-10.5 -23.5q0 -6 1.5 -10.5t4.5 -8t6.5 -6.5t7 -5.5t7 -4.5t6.5 -4.5t4.5 -5
t1.5 -6.5q0 -15 -14 -30.5t-35 -19.5z" />
    <glyph glyph-name="uni0219" unicode="&#x219;" horiz-adv-x="473" 
d="M246 -9q77 0 125.5 40t48.5 104q0 50 -38.5 87t-106.5 56l-79 22q-43 12 -69.5 35t-26.5 61q0 39 31.5 65.5t86.5 26.5t97 -34.5t49 -83.5h50q-2 18 -8 34.5t-14.5 31.5t-19.5 27.5t-24.5 23.5t-28.5 19t-31.5 14t-34 9t-36.5 3q-75 0 -120.5 -40t-45.5 -103
q0 -50 35 -84t98 -51l79 -22q50 -14 79 -38t29 -65q0 -39 -34.5 -66.5t-89.5 -27.5q-65 0 -106.5 36t-49.5 85h-49q10 -69 65 -117t139 -48zM196 -210v-27q41 6 63.5 35.5t22.5 66.5q0 28 -12 43.5t-31 15.5q-12 0 -22.5 -9.5t-10.5 -23.5q0 -6 1.5 -10.5t4.5 -8t6.5 -6.5
t7 -5.5t7 -4.5t6.5 -4.5t4.5 -5t1.5 -6.5q0 -15 -14 -30.5t-35 -19.5z" />
    <glyph glyph-name="uni021A" unicode="&#x21a;" horiz-adv-x="609" 
d="M30 654h249v-654h51v654h249v46h-549v-46zM260 -210v-27q41 6 63.5 35.5t22.5 66.5q0 28 -12 43.5t-31 15.5q-12 0 -22.5 -9.5t-10.5 -23.5q0 -6 1.5 -10.5t4.5 -8t6.5 -6.5t7 -5.5t7 -4.5t6.5 -4.5t4.5 -5t1.5 -6.5q0 -15 -14 -30.5t-35 -19.5z" />
    <glyph glyph-name="uni021B" unicode="&#x21b;" horiz-adv-x="371" 
d="M244 0h90v45h-84q-27 0 -41.5 13.5t-14.5 37.5v383h140v45h-140v160h-49v-160h-108v-45h108v-388q0 -42 27 -66.5t72 -24.5zM184 -210v-27q41 6 63.5 35.5t22.5 66.5q0 28 -12 43.5t-31 15.5q-12 0 -22.5 -9.5t-10.5 -23.5q0 -6 1.5 -10.5t4.5 -8t6.5 -6.5t7 -5.5t7 -4.5
t6.5 -4.5t4.5 -5t1.5 -6.5q0 -15 -14 -30.5t-35 -19.5z" />
    <glyph glyph-name="uni0237" unicode="&#x237;" horiz-adv-x="241" 
d="M57 -212q40 0 64 21.5t24 58.5v656h-49v-651q0 -19 -12 -29.5t-34 -10.5h-35v-45h42z" />
    <glyph glyph-name="circumflex" unicode="&#x2c6;" horiz-adv-x="500" 
d="M169 585l83 86l82 -86h48l-105 120h-51l-105 -120h48z" />
    <glyph glyph-name="caron" unicode="&#x2c7;" horiz-adv-x="500" 
d="M334 705l-82 -86l-83 86h-48l105 -120h51l105 120h-48z" />
    <glyph glyph-name="breve" unicode="&#x2d8;" horiz-adv-x="500" 
d="M250 632q-27 0 -53 15.5t-37 61.5l-39 -12q11 -51 47.5 -78.5t81.5 -27.5t81.5 27.5t47.5 78.5l-39 12q-11 -46 -37 -61.5t-53 -15.5z" />
    <glyph glyph-name="dotaccent" unicode="&#x2d9;" horiz-adv-x="239" 
d="M117 608q15 0 26 11.5t11 26.5q0 16 -11 27t-26 11t-26 -11t-11 -27q0 -15 11 -26.5t26 -11.5z" />
    <glyph glyph-name="ring" unicode="&#x2da;" horiz-adv-x="500" 
d="M250 570q41 0 70 28.5t29 68.5t-29 68.5t-70 28.5t-70 -28.5t-29 -68.5t29 -68.5t70 -28.5zM250 602q-28 0 -46.5 19t-18.5 46t18.5 46t46.5 19t46.5 -19t18.5 -46t-18.5 -46t-46.5 -19z" />
    <glyph glyph-name="ogonek" unicode="&#x2db;" horiz-adv-x="500" 
d="M304 0l-28 18q-55 -52 -74 -88t-19 -70q0 -35 22 -58t67 -23q12 0 23 1.5t21 3.5l-5 35q-7 -2 -16.5 -3t-18.5 -1q-25 0 -39 14t-14 38q0 25 15.5 56t65.5 77z" />
    <glyph glyph-name="tilde" unicode="&#x2dc;" horiz-adv-x="500" 
d="M184 699q-28 0 -48 -26t-34 -72l35 -9q13 40 23 54t24 14q4 0 8.5 -2t9.5 -5t10.5 -7.5l11 -9t11.5 -10t12 -10t12.5 -9t13 -7.5t13 -5t12.5 -2q28 0 48 26t34 72l-35 9q-13 -40 -23 -54t-24 -14q-4 0 -9.5 2.5t-11 6t-11.5 8.5t-12.5 10.5t-13.5 11.5t-14 11t-14 8.5
t-14 6t-14 2.5z" />
    <glyph glyph-name="hungarumlaut" unicode="&#x2dd;" horiz-adv-x="500" 
d="M241 705l-113 -120h50l124 120h-61zM391 705l-114 -120h51l123 120h-60z" />
    <glyph glyph-name="uni09F3" unicode="&#x9f3;" horiz-adv-x="580" 
d="M160 147v271h72v45h-72v170q0 31 -20.5 49t-54.5 18h-55v-45h48q16 0 24.5 -7.5t8.5 -20.5v-164h-81v-45h81v-284q0 -13 2 -26t7 -25.5t12 -24t16.5 -21.5t22 -18.5t28 -14.5t33.5 -9t39 -3q27 0 52 4.5t48 13t44 20t39.5 27t34 33.5t28 38t21 42.5t13 46.5t4.5 49
q0 23 -3.5 44t-10 41t-16 37.5t-21.5 32t-26 26.5t-30 20t-33 12.5t-36 4.5q-26 0 -46.5 -7t-39.5 -20l25 -37q13 9 29 14.5t32 5.5q52 0 89.5 -50.5t37.5 -123.5q0 -21 -4 -41.5t-11 -39t-17.5 -36t-23.5 -32.5t-28 -27.5t-32.5 -22.5t-36.5 -17t-39.5 -10.5t-42.5 -3.5
q-54 0 -82.5 27.5t-28.5 83.5z" />
    <glyph glyph-name="Wgrave" unicode="&#x1e80;" horiz-adv-x="926" 
d="M486 700h-44l-198 -615l-152 615h-52l178 -700h44l201 619l201 -619h44l178 700h-50l-151 -615zM397 909h-66l123 -120h53z" />
    <glyph glyph-name="wgrave" unicode="&#x1e81;" horiz-adv-x="719" 
d="M339 524l-140 -442l-121 442h-51l148 -524h42l143 442l142 -442h42l148 524h-50l-121 -440l-139 440h-43zM293 733h-66l123 -120h53z" />
    <glyph glyph-name="Wacute" unicode="&#x1e82;" horiz-adv-x="926" 
d="M486 700h-44l-198 -615l-152 615h-52l178 -700h44l201 619l201 -619h44l178 700h-50l-151 -615zM526 909l-110 -120h51l125 120h-66z" />
    <glyph glyph-name="wacute" unicode="&#x1e83;" horiz-adv-x="719" 
d="M339 524l-140 -442l-121 442h-51l148 -524h42l143 442l142 -442h42l148 524h-50l-121 -440l-139 440h-43zM422 733l-110 -120h51l125 120h-66z" />
    <glyph glyph-name="Wdieresis" unicode="&#x1e84;" horiz-adv-x="926" 
d="M486 700h-44l-198 -615l-152 615h-52l178 -700h44l201 619l201 -619h44l178 700h-50l-151 -615zM386 812q15 0 26 11.5t11 26.5q0 16 -11 27t-26 11t-26 -11t-11 -27q0 -15 11 -26.5t26 -11.5zM540 812q15 0 26 11.5t11 26.5q0 16 -11 27t-26 11t-26 -11t-11 -27
q0 -15 11 -26.5t26 -11.5z" />
    <glyph glyph-name="wdieresis" unicode="&#x1e85;" horiz-adv-x="719" 
d="M339 524l-140 -442l-121 442h-51l148 -524h42l143 442l142 -442h42l148 524h-50l-121 -440l-139 440h-43zM282 636q15 0 26 11.5t11 26.5q0 16 -11 27t-26 11t-26 -11t-11 -27q0 -15 11 -26.5t26 -11.5zM436 636q15 0 26 11.5t11 26.5q0 16 -11 27t-26 11t-26 -11
t-11 -27q0 -15 11 -26.5t26 -11.5z" />
    <glyph glyph-name="Ygrave" unicode="&#x1ef2;" horiz-adv-x="591" 
d="M321 0v294l265 406h-56l-233 -359l-234 359h-58l265 -405v-295h51zM230 909h-66l123 -120h53z" />
    <glyph glyph-name="ygrave" unicode="&#x1ef3;" horiz-adv-x="479" 
d="M164 -116q-9 -22 -26.5 -36.5t-44.5 -14.5h-56v-45h63q45 0 70.5 26.5t40.5 64.5l262 645h-50l-181 -450l-185 450h-50l209 -510zM176 733h-66l123 -120h53z" />
    <glyph glyph-name="uni2002" unicode="&#x2002;" horiz-adv-x="500" 
 />
    <glyph glyph-name="uni2003" unicode="&#x2003;" horiz-adv-x="1000" 
 />
    <glyph glyph-name="uni2009" unicode="&#x2009;" horiz-adv-x="175" 
 />
    <glyph glyph-name="uni200A" unicode="&#x200a;" horiz-adv-x="100" 
 />
    <glyph glyph-name="uni200B" unicode="&#x200b;" horiz-adv-x="0" 
 />
    <glyph glyph-name="endash" unicode="&#x2013;" horiz-adv-x="612" 
d="M75 276h462v45h-462v-45z" />
    <glyph glyph-name="emdash" unicode="&#x2014;" horiz-adv-x="812" 
d="M75 276h662v45h-662v-45z" />
    <glyph glyph-name="uni2015" unicode="&#x2015;" horiz-adv-x="1012" 
d="M75 276h862v45h-862v-45z" />
    <glyph glyph-name="quoteleft" unicode="&#x2018;" horiz-adv-x="199" 
d="M139 694v31q-49 -8 -75 -48.5t-26 -89.5q0 -32 13 -48.5t33 -16.5q13 0 24.5 10.5t11.5 26.5q0 6 -1.5 10.5t-4 8.5t-6 7t-7 5.5t-7.5 4.5t-7.5 4.5t-6 5t-4 5.5t-1.5 7q0 22 18 47t46 30z" />
    <glyph glyph-name="quoteright" unicode="&#x2019;" horiz-adv-x="199" 
d="M60 551v-31q49 8 75 48.5t26 89.5q0 32 -13 48.5t-33 16.5q-13 0 -24.5 -10.5t-11.5 -26.5q0 -6 1.5 -10.5t4 -8.5t6 -7t7 -5.5t7.5 -4.5t7.5 -4.5t6 -5t4 -5.5t1.5 -7q0 -22 -18 -47t-46 -30z" />
    <glyph glyph-name="quotesinglbase" unicode="&#x201a;" horiz-adv-x="199" 
d="M39 -105v-31q49 8 75 48.5t26 89.5q0 32 -13 48.5t-33 16.5q-13 0 -24.5 -10.5t-11.5 -26.5q0 -6 1.5 -10.5t4 -8.5t6 -7t7 -5.5t7.5 -4.5t7.5 -4.5t6 -5t4 -5.5t1.5 -7q0 -22 -18 -47t-46 -30z" />
    <glyph glyph-name="quotedblleft" unicode="&#x201c;" horiz-adv-x="339" 
d="M139 694v31q-49 -8 -75 -48.5t-26 -89.5q0 -32 13 -48.5t33 -16.5q13 0 24.5 10.5t11.5 26.5q0 6 -1.5 10.5t-4 8.5t-6 7t-7 5.5t-7.5 4.5t-7.5 4.5t-6 5t-4 5.5t-1.5 7q0 22 18 47t46 30zM279 694v31q-49 -8 -75 -48.5t-26 -89.5q0 -32 13 -48.5t33 -16.5
q13 0 24.5 10.5t11.5 26.5q0 6 -1.5 10.5t-4 8.5t-6 7t-7 5.5t-7.5 4.5t-7.5 4.5t-6 5t-4 5.5t-1.5 7q0 22 18 47t46 30z" />
    <glyph glyph-name="quotedblright" unicode="&#x201d;" horiz-adv-x="339" 
d="M200 551v-31q49 8 75 48.5t26 89.5q0 32 -13 48.5t-33 16.5q-13 0 -24.5 -10.5t-11.5 -26.5q0 -6 1.5 -10.5t4 -8.5t6 -7t7 -5.5t7.5 -4.5t7.5 -4.5t6 -5t4 -5.5t1.5 -7q0 -22 -18 -47t-46 -30zM60 551v-31q49 8 75 48.5t26 89.5q0 32 -13 48.5t-33 16.5
q-13 0 -24.5 -10.5t-11.5 -26.5q0 -6 1.5 -10.5t4 -8.5t6 -7t7 -5.5t7.5 -4.5t7.5 -4.5t6 -5t4 -5.5t1.5 -7q0 -22 -18 -47t-46 -30z" />
    <glyph glyph-name="quotedblbase" unicode="&#x201e;" horiz-adv-x="339" 
d="M179 -105v-31q49 8 75 48.5t26 89.5q0 32 -13 48.5t-33 16.5q-13 0 -24.5 -10.5t-11.5 -26.5q0 -6 1.5 -10.5t4 -8.5t6 -7t7 -5.5t7.5 -4.5t7.5 -4.5t6 -5t4 -5.5t1.5 -7q0 -22 -18 -47t-46 -30zM39 -105v-31q49 8 75 48.5t26 89.5q0 32 -13 48.5t-33 16.5
q-13 0 -24.5 -10.5t-11.5 -26.5q0 -6 1.5 -10.5t4 -8.5t6 -7t7 -5.5t7.5 -4.5t7.5 -4.5t6 -5t4 -5.5t1.5 -7q0 -22 -18 -47t-46 -30z" />
    <glyph glyph-name="dagger" unicode="&#x2020;" horiz-adv-x="386" 
d="M169 0h48v453h129v43h-129v204h-48v-204h-128v-43h128v-453z" />
    <glyph glyph-name="daggerdbl" unicode="&#x2021;" horiz-adv-x="386" 
d="M169 0h48v204h129v43h-129v206h129v43h-129v204h-48v-204h-128v-43h128v-206h-128v-43h128v-204z" />
    <glyph glyph-name="bullet" unicode="&#x2022;" horiz-adv-x="225" 
d="M113 390q-32 0 -55 -24t-23 -55q0 -33 23 -56.5t55 -23.5q31 0 54 23.5t23 56.5q0 31 -23 55t-54 24z" />
    <glyph glyph-name="ellipsis" unicode="&#x2026;" horiz-adv-x="567" 
d="M95 68q-15 0 -26.5 -12t-11.5 -27q0 -16 11.5 -27.5t26.5 -11.5t26.5 11.5t11.5 27.5q0 15 -11.5 27t-26.5 12zM284 68q-15 0 -26.5 -12t-11.5 -27q0 -16 11.5 -27.5t26.5 -11.5t26.5 11.5t11.5 27.5q0 15 -11.5 27t-26.5 12zM473 68q-15 0 -26.5 -12t-11.5 -27
q0 -16 11.5 -27.5t26.5 -11.5t26.5 11.5t11.5 27.5q0 15 -11.5 27t-26.5 12z" />
    <glyph glyph-name="guilsinglleft" unicode="&#x2039;" horiz-adv-x="370" 
d="M332 524h-60l-246 -262l246 -262h63l-243 263z" />
    <glyph glyph-name="guilsinglright" unicode="&#x203a;" horiz-adv-x="370" 
d="M38 0h60l246 262l-246 262h-63l243 -263z" />
    <glyph glyph-name="fraction" unicode="&#x2044;" horiz-adv-x="561" 
d="M97 0l388 700h-48l-387 -700h47z" />
    <glyph glyph-name="uni2070" unicode="&#x2070;" horiz-adv-x="355" 
d="M41 459q0 -68 37.5 -109t98.5 -41t99 41t38 109v98q0 68 -38 108.5t-99 40.5t-98.5 -40.5t-37.5 -108.5v-98zM270 461q0 -52 -25 -82t-68 -30q-42 0 -67 30t-25 82v94q0 51 25 81.5t67 30.5q43 0 68 -30t25 -82v-94z" />
    <glyph glyph-name="uni2074" unicode="&#x2074;" horiz-adv-x="333" 
d="M212 315h45v101h51v38h-51v246h-57l-178 -251v-33h190v-101zM72 454l140 201v-201h-140z" />
    <glyph glyph-name="uni2075" unicode="&#x2075;" horiz-adv-x="318" 
d="M161 556q-21 0 -40.5 -7t-35.5 -22l6 134h167v39h-205l-9 -205l36 -5q15 13 33.5 20.5t40.5 7.5q37 0 61 -23.5t24 -60.5t-24.5 -62t-61.5 -25q-30 0 -53 15.5t-36 41.5l-36 -20q16 -34 49 -54.5t78 -20.5q55 0 91.5 36.5t36.5 89.5q0 51 -34 86t-88 35z" />
    <glyph glyph-name="uni2076" unicode="&#x2076;" horiz-adv-x="339" 
d="M178 667q25 0 46 -14t34 -39l35 20q-16 33 -46.5 52.5t-69.5 19.5q-63 0 -100.5 -49.5t-37.5 -136.5v-32q0 -81 38 -130t101 -49q54 0 89.5 37t35.5 94q0 51 -34.5 86.5t-85.5 35.5q-34 0 -62.5 -20t-38.5 -55v27q0 77 26.5 115t69.5 38zM176 348q-37 0 -61 25.5
t-24 62.5q0 39 24 64t61 25t61 -25t24 -64q0 -38 -24 -63t-61 -25z" />
    <glyph glyph-name="uni2077" unicode="&#x2077;" horiz-adv-x="301" 
d="M280 667v33h-258v-39h209l-183 -346h51z" />
    <glyph glyph-name="uni2078" unicode="&#x2078;" horiz-adv-x="330" 
d="M165 309q55 0 91 30.5t36 78.5q0 35 -21.5 61t-55.5 35q29 10 47 33.5t18 54.5q0 44 -32.5 73.5t-82.5 29.5t-82.5 -29.5t-32.5 -73.5q0 -31 18 -54.5t46 -33.5q-34 -9 -55.5 -35t-21.5 -61q0 -48 36.5 -78.5t91.5 -30.5zM165 531q-31 0 -51.5 19t-20.5 49
q0 31 20.5 49.5t51.5 18.5t51 -18.5t20 -49.5q0 -30 -20 -49t-51 -19zM165 494q36 0 59.5 -20.5t23.5 -53.5t-23 -53.5t-60 -20.5t-60.5 20.5t-23.5 53.5t23.5 53.5t60.5 20.5z" />
    <glyph glyph-name="uni2079" unicode="&#x2079;" horiz-adv-x="339" 
d="M161 348q-25 0 -46.5 14t-33.5 39l-36 -20q17 -33 47 -52.5t70 -19.5q63 0 100.5 49.5t37.5 136.5v32q0 81 -38.5 130t-100.5 49q-54 0 -89.5 -37t-35.5 -94q0 -51 34.5 -86.5t85.5 -35.5q34 0 62.5 20.5t38.5 57.5v-30q0 -77 -26.5 -115t-69.5 -38zM163 667
q36 0 60 -25.5t24 -62.5q0 -39 -24 -64t-60 -25q-37 0 -61 25t-24 64q0 38 24 63t61 25z" />
    <glyph glyph-name="uni2080" unicode="&#x2080;" horiz-adv-x="355" 
d="M41 144q0 -68 37.5 -109t98.5 -41t99 41t38 109v98q0 68 -38 108.5t-99 40.5t-98.5 -40.5t-37.5 -108.5v-98zM270 146q0 -52 -25 -82t-68 -30q-42 0 -67 30t-25 82v94q0 51 25 81.5t67 30.5q43 0 68 -30t25 -82v-94z" />
    <glyph glyph-name="uni2081" unicode="&#x2081;" horiz-adv-x="259" 
d="M230 39h-77v346h-117v-39h72v-307h-77v-39h199v39z" />
    <glyph glyph-name="uni2082" unicode="&#x2082;" horiz-adv-x="297" 
d="M263 281q0 46 -33.5 77.5t-86.5 31.5q-41 0 -72.5 -20t-47.5 -54l35 -19q13 25 34.5 40t49.5 15q33 0 55 -21t22 -53q0 -27 -12.5 -48.5t-35.5 -46.5l-140 -154v-29h236v39h-174l112 123q29 31 43.5 58t14.5 61z" />
    <glyph glyph-name="uni2083" unicode="&#x2083;" horiz-adv-x="312" 
d="M146 390q-43 0 -74 -20t-47 -53l37 -18q11 24 32.5 38.5t49.5 14.5q32 0 54 -19.5t22 -50.5q0 -28 -19 -47t-47 -19h-43v-38h47q32 0 52.5 -20t20.5 -51q0 -32 -22.5 -53.5t-58.5 -21.5q-31 0 -55 15.5t-37 41.5l-37 -20q16 -34 50 -54.5t80 -20.5q54 0 89.5 32t35.5 78
q0 34 -20.5 60.5t-52.5 36.5q27 10 43.5 32.5t16.5 52.5q0 44 -33.5 74t-83.5 30z" />
    <glyph glyph-name="uni2084" unicode="&#x2084;" horiz-adv-x="333" 
d="M212 0h45v101h51v38h-51v246h-57l-178 -251v-33h190v-101zM72 139l140 201v-201h-140z" />
    <glyph glyph-name="uni2085" unicode="&#x2085;" horiz-adv-x="318" 
d="M161 241q-21 0 -40.5 -7t-35.5 -22l6 134h167v39h-205l-9 -205l36 -5q15 13 33.5 20.5t40.5 7.5q37 0 61 -23.5t24 -60.5t-24.5 -62t-61.5 -25q-30 0 -53 15.5t-36 41.5l-36 -20q16 -34 49 -54.5t78 -20.5q55 0 91.5 36.5t36.5 89.5q0 51 -34 86t-88 35z" />
    <glyph glyph-name="uni2086" unicode="&#x2086;" horiz-adv-x="339" 
d="M178 352q25 0 46 -14t34 -39l35 20q-16 33 -46.5 52.5t-69.5 19.5q-63 0 -100.5 -49.5t-37.5 -136.5v-32q0 -81 38 -130t101 -49q54 0 89.5 37t35.5 94q0 51 -34.5 86.5t-85.5 35.5q-34 0 -62.5 -20t-38.5 -55v27q0 77 26.5 115t69.5 38zM176 33q-37 0 -61 25.5t-24 62.5
q0 39 24 64t61 25t61 -25t24 -64q0 -38 -24 -63t-61 -25z" />
    <glyph glyph-name="uni2087" unicode="&#x2087;" horiz-adv-x="301" 
d="M280 352v33h-258v-39h209l-183 -346h51z" />
    <glyph glyph-name="uni2088" unicode="&#x2088;" horiz-adv-x="330" 
d="M165 -6q55 0 91 30.5t36 78.5q0 35 -21.5 61t-55.5 35q29 10 47 33.5t18 54.5q0 44 -32.5 73.5t-82.5 29.5t-82.5 -29.5t-32.5 -73.5q0 -31 18 -54.5t46 -33.5q-34 -9 -55.5 -35t-21.5 -61q0 -48 36.5 -78.5t91.5 -30.5zM165 216q-31 0 -51.5 19t-20.5 49q0 31 20.5 49.5
t51.5 18.5t51 -18.5t20 -49.5q0 -30 -20 -49t-51 -19zM165 179q36 0 59.5 -20.5t23.5 -53.5t-23 -53.5t-60 -20.5t-60.5 20.5t-23.5 53.5t23.5 53.5t60.5 20.5z" />
    <glyph glyph-name="uni2089" unicode="&#x2089;" horiz-adv-x="339" 
d="M161 33q-25 0 -46.5 14t-33.5 39l-36 -20q17 -33 47 -52.5t70 -19.5q63 0 100.5 49.5t37.5 136.5v32q0 81 -38.5 130t-100.5 49q-54 0 -89.5 -37t-35.5 -94q0 -51 34.5 -86.5t85.5 -35.5q34 0 62.5 20.5t38.5 57.5v-30q0 -77 -26.5 -115t-69.5 -38zM163 352
q36 0 60 -25.5t24 -62.5q0 -39 -24 -64t-60 -25q-37 0 -61 25t-24 64q0 38 24 63t61 25z" />
    <glyph glyph-name="uni20A9" unicode="&#x20a9;" horiz-adv-x="936" 
d="M32 306v-43h124l67 -263h42l86 263h234l86 -263h42l67 263h124v43h-113l23 91h90v43h-79l66 260h-51l-63 -260h-203l-85 260h-40l-85 -260h-203l-63 260h-53l66 -260h-79v-43h90l23 -91h-113zM409 440l59 180l59 -180h-118zM194 306l-22 91h178l-30 -91h-126zM365 306
l30 91h146l30 -91h-206zM618 306l-30 91h178l-22 -91h-126zM204 263h102l-59 -177zM632 263h102l-43 -177z" />
    <glyph glyph-name="Euro" unicode="&#x20ac;" horiz-adv-x="693" 
d="M372 306h-216v91h248l15 43h-260q13 108 74.5 165.5t145.5 57.5q76 0 134 -48.5t79 -139.5h50q-22 113 -94.5 174t-168.5 61q-26 0 -51 -4.5t-47.5 -13.5t-43.5 -22t-39 -30.5t-33 -38.5t-26.5 -46t-19.5 -54t-11 -61h-96v-43h93v-91h-93v-43h95q3 -33 10.5 -62t19.5 -54
t27 -46.5t33 -39t39 -31t44 -22.5t48 -13.5t51 -4.5q96 0 168.5 61t94.5 174h-50q-21 -91 -79 -139.5t-134 -48.5q-84 0 -146.5 58t-74.5 168h200z" />
    <glyph glyph-name="uni20B9" unicode="&#x20b9;" horiz-adv-x="539" 
d="M467 0l-353 311h107q81 0 137.5 48t66.5 118h76v46h-75q-4 40 -24 74t-51 57h150v46h-462v-46h182q62 0 104.5 -38.5t49.5 -92.5h-336v-46h335q-10 -51 -51.5 -86t-101.5 -35h-182v-38l359 -318h69z" />
    <glyph glyph-name="trademark" unicode="&#x2122;" horiz-adv-x="660" 
d="M319 700v-279h38l-1 218l89 -218h28l90 220l-2 -220h39v279h-51l-89 -222l-91 222h-50zM30 700v-34h99v-245h40v245h99v34h-238z" />
    <glyph glyph-name="uni2190" unicode="&#x2190;" horiz-adv-x="1001" 
d="M115 350l274 -375h57l-257 351h733v48h-733l257 351h-57z" />
    <glyph glyph-name="uni2191" unicode="&#x2191;" horiz-adv-x="1000" 
d="M500 724l-375 -274v-57l351 257v-733h48v733l351 -257v57z" />
    <glyph glyph-name="uni2192" unicode="&#x2192;" horiz-adv-x="1001" 
d="M555 725l257 -351h-733v-48h733l-257 -351h57l274 375l-274 375h-57z" />
    <glyph glyph-name="uni2193" unicode="&#x2193;" horiz-adv-x="1000" 
d="M875 224l-351 -257v733h-48v-733l-351 257v-57l375 -274l375 274v57z" />
    <glyph glyph-name="minus" unicode="&#x2212;" horiz-adv-x="549" 
d="M474 380h-399v-44h399v44z" />
    <glyph glyph-name="approxequal" unicode="&#x2248;" horiz-adv-x="549" 
d="M169 438q11 0 23 -2t23 -5t23 -6.5t23 -8t23 -9t23.5 -8t23 -6.5t23 -5t22.5 -2q25 0 47.5 7t50.5 24v43q-28 -16 -48.5 -24.5t-44.5 -8.5q-12 0 -23.5 2t-23 5t-23.5 7t-23.5 8t-23 8.5t-23 8.5t-23 7t-23 5t-22.5 2q-25 0 -47.5 -7.5t-50.5 -24.5v-43q27 16 48 24.5
t46 8.5zM169 285q11 0 23 -2t23 -5t23 -6.5t23 -8t23 -9t23.5 -8t23 -6.5t23 -5t22.5 -2q25 0 47.5 7t50.5 24v44q-28 -16 -48.5 -25t-44.5 -9q-12 0 -23.5 2t-23 5t-23.5 7t-23.5 8t-23 8.5t-23 8.5t-23 7t-23 5t-22.5 2q-25 0 -47.5 -7.5t-50.5 -23.5v-44q27 16 48 24.5
t46 8.5z" />
    <glyph glyph-name="notequal" unicode="&#x2260;" horiz-adv-x="549" 
d="M76 144h52l95 117h251v42h-217l87 108h130v42h-96l96 118h-52l-96 -118h-251v-42h217l-87 -108h-130v-42h96z" />
    <glyph glyph-name="lessequal" unicode="&#x2264;" horiz-adv-x="525" 
d="M445 500v52l-391 -184v-48l391 -184v53l-334 154zM54 228v-53l391 -184v53z" />
    <glyph glyph-name="greaterequal" unicode="&#x2265;" horiz-adv-x="525" 
d="M80 500l334 -157l-334 -154v-53l391 184v48l-391 184v-52zM471 228l-391 -184v-53l391 184v53z" />
    <glyph glyph-name="uni25A0" unicode="&#x25a0;" horiz-adv-x="850" 
d="M775 700h-700v-700h700v700z" />
    <glyph glyph-name="uni25CF" unicode="&#x25cf;" horiz-adv-x="819" 
d="M769 351q0 30 -4.5 58t-13.5 55t-22 51.5t-29.5 47t-36 42t-42 36t-47 29.5t-51.5 22t-55 13.5t-58 4.5t-58.5 -4.5t-55 -13.5t-51.5 -22t-47.5 -29.5t-42 -36t-36 -42t-29.5 -47t-22 -51.5t-13.5 -55t-4.5 -58t4.5 -58.5t13.5 -55t22 -51.5t29.5 -47.5t36 -42t42 -36
t47.5 -29.5t51.5 -22t55 -13.5t58.5 -4.5t58 4.5t55 13.5t51.5 22t47 29.5t42 36t36 42t29.5 47.5t22 51.5t13.5 55t4.5 58.5z" />
    <glyph glyph-name="check" unicode="&#x2713;" horiz-adv-x="1002" 
d="M918 600l-542 -541l-292 291v-67l292 -291l542 541v67z" />
    <glyph glyph-name="close" unicode="&#x2715;" horiz-adv-x="1002" 
d="M853 669l-33 33l-317 -317l-317 317l-33 -33l317 -316l-317 -317l33 -33l317 317l317 -317l33 33l-317 317z" />
    <glyph glyph-name="fi" unicode="&#xfb01;" horiz-adv-x="591" 
d="M37 479h109v-479h49v479h251v-479h49v524h-300v113q0 27 13 42t38 15h219v45h-226q-43 0 -68 -26t-25 -70v-119h-109v-45z" />
    <glyph glyph-name="fl" unicode="&#xfb02;" horiz-adv-x="591" 
d="M37 479h109v-479h49v479h139v45h-139v113q0 27 13 42t38 15h200v-694h49v739h-256q-43 0 -68 -26t-25 -70v-119h-109v-45z" />
    <glyph glyph-name="Uber" horiz-adv-x="2119" 
d="M154 268v432h-105v-438q0 -31 5 -59t15 -53.5t24 -47t32 -39.5t39 -32t45 -23.5t50.5 -14.5t54.5 -5q54 0 102 20t83 57v-65h104v700h-105v-432q0 -83 -50 -134.5t-122 -51.5q-73 0 -122.5 51t-49.5 135zM681 0h100v64q34 -35 81.5 -55.5t100.5 -20.5q25 0 48.5 4.5
t45.5 12.5t42 19.5t37.5 26t32 32t26 37t20 41.5t12.5 45.5t4 47.5q0 25 -4 48.5t-12.5 45t-20 41.5t-26 37.5t-32 32t-37.5 26t-42 19.5t-45.5 12.5t-48.5 4.5q-53 0 -100 -20.5t-81 -55.5v255h-101v-700zM780 254q0 19 3.5 36t10.5 33t16.5 30.5t21.5 26.5t26 21.5
t29.5 16t33 10t35.5 3.5t35 -3.5t33 -10t30 -16t25.5 -21.5t21 -26.5t16.5 -30.5t10.5 -33t3.5 -36q0 -18 -3.5 -35.5t-10.5 -33.5t-16.5 -30t-21 -26t-25.5 -21.5t-30 -16.5t-33 -10.5t-35 -3.5t-35.5 3.5t-33.5 10.5t-30 16.5t-26 21.5t-21.5 26t-16 30t-10 33.5
t-3.5 35.5zM1271 255q0 -25 4 -49t12.5 -46t20 -41.5t26 -37t32.5 -32t38 -25.5t42 -19t46 -12t50 -4q69 0 125.5 29t94.5 80l-73 54q-28 -38 -65.5 -56.5t-81.5 -18.5q-64 0 -111.5 41.5t-57.5 103.5h415v33q0 25 -4 49t-11.5 46t-18 41.5t-24.5 36.5t-30.5 31.5t-35 25.5
t-40 19t-44 12t-47.5 4t-48.5 -4.5t-45 -12.5t-41 -19.5t-36.5 -26.5t-31 -32.5t-25 -37t-19 -41t-12 -44.5t-4 -47zM1531 432q56 0 99 -36t56 -94h-311q13 58 56.5 94t99.5 36zM2101 420v94h-35q-42 0 -72.5 -18t-49.5 -49v63h-100v-510h101v290q0 59 32.5 94.5t81.5 35.5
h42z" />
    <glyph glyph-name="idotaccent" horiz-adv-x="241" 
d="M121 643q15 0 27 12.5t12 27.5q0 16 -12 28t-27 12t-27 -12t-12 -28q0 -15 12 -27.5t27 -12.5zM145 524h-49v-524h49v524z" />
    <glyph glyph-name="cordinal" horiz-adv-x="387" 
d="M203 325q54 0 93.5 32t52.5 86h-45q-10 -37 -37 -58t-64 -21q-49 0 -78.5 35t-29.5 92v48q0 57 29.5 92t78.5 35q37 0 63.5 -21.5t37.5 -58.5h45q-13 55 -52.5 87t-93.5 32q-66 0 -109 -45t-43 -117v-56q0 -73 43.5 -117.5t108.5 -44.5z" />
    <glyph glyph-name="a.school" 
d="M501 0v524h-49v-106q-23 52 -70.5 83t-109.5 31q-88 0 -146.5 -63t-58.5 -164v-86q0 -25 4 -48.5t11.5 -44t18.5 -38.5t24.5 -33t30 -26.5t35 -20t39 -12.5t42.5 -4q62 0 109.5 31t70.5 83v-106h49zM452 299v-74q0 -84 -46.5 -136.5t-121.5 -52.5t-121 52.5t-46 136.5v74
q0 84 46 136.5t121 52.5t121.5 -52.5t46.5 -136.5z" />
    <glyph glyph-name="aacute.school" 
d="M501 0v524h-49v-106q-23 52 -70.5 83t-109.5 31q-88 0 -146.5 -63t-58.5 -164v-86q0 -25 4 -48.5t11.5 -44t18.5 -38.5t24.5 -33t30 -26.5t35 -20t39 -12.5t42.5 -4q62 0 109.5 31t70.5 83v-106h49zM452 299v-74q0 -84 -46.5 -136.5t-121.5 -52.5t-121 52.5t-46 136.5v74
q0 84 46 136.5t121 52.5t121.5 -52.5t46.5 -136.5zM348 733l-110 -120h51l125 120h-66z" />
    <glyph glyph-name="abreve.school" 
d="M501 0v524h-49v-106q-23 52 -70.5 83t-109.5 31q-88 0 -146.5 -63t-58.5 -164v-86q0 -25 4 -48.5t11.5 -44t18.5 -38.5t24.5 -33t30 -26.5t35 -20t39 -12.5t42.5 -4q62 0 109.5 31t70.5 83v-106h49zM452 299v-74q0 -84 -46.5 -136.5t-121.5 -52.5t-121 52.5t-46 136.5v74
q0 84 46 136.5t121 52.5t121.5 -52.5t46.5 -136.5zM285 660q-27 0 -53 15.5t-37 61.5l-39 -12q11 -51 47.5 -78.5t81.5 -27.5t81.5 27.5t47.5 78.5l-39 12q-11 -46 -37 -61.5t-53 -15.5z" />
    <glyph glyph-name="acircumflex.school" 
d="M501 0v524h-49v-106q-23 52 -70.5 83t-109.5 31q-88 0 -146.5 -63t-58.5 -164v-86q0 -25 4 -48.5t11.5 -44t18.5 -38.5t24.5 -33t30 -26.5t35 -20t39 -12.5t42.5 -4q62 0 109.5 31t70.5 83v-106h49zM452 299v-74q0 -84 -46.5 -136.5t-121.5 -52.5t-121 52.5t-46 136.5v74
q0 84 46 136.5t121 52.5t121.5 -52.5t46.5 -136.5zM202 614l83 86l82 -86h48l-105 120h-51l-105 -120h48z" />
    <glyph glyph-name="adieresis.school" 
d="M501 0v524h-49v-106q-23 52 -70.5 83t-109.5 31q-88 0 -146.5 -63t-58.5 -164v-86q0 -25 4 -48.5t11.5 -44t18.5 -38.5t24.5 -33t30 -26.5t35 -20t39 -12.5t42.5 -4q62 0 109.5 31t70.5 83v-106h49zM452 299v-74q0 -84 -46.5 -136.5t-121.5 -52.5t-121 52.5t-46 136.5v74
q0 84 46 136.5t121 52.5t121.5 -52.5t46.5 -136.5zM208 636q15 0 26 11.5t11 26.5q0 16 -11 27t-26 11t-26 -11t-11 -27q0 -15 11 -26.5t26 -11.5zM362 636q15 0 26 11.5t11 26.5q0 16 -11 27t-26 11t-26 -11t-11 -27q0 -15 11 -26.5t26 -11.5z" />
    <glyph glyph-name="agrave.school" 
d="M501 0v524h-49v-106q-23 52 -70.5 83t-109.5 31q-88 0 -146.5 -63t-58.5 -164v-86q0 -25 4 -48.5t11.5 -44t18.5 -38.5t24.5 -33t30 -26.5t35 -20t39 -12.5t42.5 -4q62 0 109.5 31t70.5 83v-106h49zM452 299v-74q0 -84 -46.5 -136.5t-121.5 -52.5t-121 52.5t-46 136.5v74
q0 84 46 136.5t121 52.5t121.5 -52.5t46.5 -136.5zM219 733h-66l123 -120h53z" />
    <glyph glyph-name="amacron.school" 
d="M501 0v524h-49v-106q-23 52 -70.5 83t-109.5 31q-88 0 -146.5 -63t-58.5 -164v-86q0 -25 4 -48.5t11.5 -44t18.5 -38.5t24.5 -33t30 -26.5t35 -20t39 -12.5t42.5 -4q62 0 109.5 31t70.5 83v-106h49zM452 299v-74q0 -84 -46.5 -136.5t-121.5 -52.5t-121 52.5t-46 136.5v74
q0 84 46 136.5t121 52.5t121.5 -52.5t46.5 -136.5zM404 684h-239v-39h239v39z" />
    <glyph glyph-name="aogonek.school" 
d="M501 0v524h-49v-106q-23 52 -70.5 83t-109.5 31q-88 0 -146.5 -63t-58.5 -164v-86q0 -25 4 -48.5t11.5 -44t18.5 -38.5t24.5 -33t30 -26.5t35 -20t39 -12.5t42.5 -4q62 0 109.5 31t70.5 83v-106h3q-44 -44 -59.5 -76.5t-15.5 -63.5q0 -35 22 -58t67 -23q12 0 23 1.5
t21 3.5l-5 35q-7 -2 -16.5 -3t-18.5 -1q-25 0 -39 14t-14 38q0 25 15.5 56t65.5 77zM452 299v-74q0 -84 -46.5 -136.5t-121.5 -52.5t-121 52.5t-46 136.5v74q0 84 46 136.5t121 52.5t121.5 -52.5t46.5 -136.5z" />
    <glyph glyph-name="aring.school" 
d="M501 0v524h-49v-106q-23 52 -70.5 83t-109.5 31q-88 0 -146.5 -63t-58.5 -164v-86q0 -25 4 -48.5t11.5 -44t18.5 -38.5t24.5 -33t30 -26.5t35 -20t39 -12.5t42.5 -4q62 0 109.5 31t70.5 83v-106h49zM452 299v-74q0 -84 -46.5 -136.5t-121.5 -52.5t-121 52.5t-46 136.5v74
q0 84 46 136.5t121 52.5t121.5 -52.5t46.5 -136.5zM285 598q41 0 70 28.5t29 68.5t-29 68.5t-70 28.5t-70 -28.5t-29 -68.5t29 -68.5t70 -28.5zM285 630q-28 0 -46.5 19t-18.5 46t18.5 46t46.5 19t46.5 -19t18.5 -46t-18.5 -46t-46.5 -19z" />
    <glyph glyph-name="atilde.school" 
d="M501 0v524h-49v-106q-23 52 -70.5 83t-109.5 31q-88 0 -146.5 -63t-58.5 -164v-86q0 -25 4 -48.5t11.5 -44t18.5 -38.5t24.5 -33t30 -26.5t35 -20t39 -12.5t42.5 -4q62 0 109.5 31t70.5 83v-106h49zM452 299v-74q0 -84 -46.5 -136.5t-121.5 -52.5t-121 52.5t-46 136.5v74
q0 84 46 136.5t121 52.5t121.5 -52.5t46.5 -136.5zM228 727q-28 0 -48 -26t-34 -72l35 -9q13 40 23 54t24 14q4 0 8.5 -2t9.5 -5t10.5 -7.5l11 -9t11.5 -10t12 -10t12.5 -9t13 -7.5t13 -5t12.5 -2q28 0 48 26t34 72l-35 9q-13 -40 -23 -54t-24 -14q-4 0 -9.5 2.5t-11 6
t-11.5 8.5t-12.5 10.5t-13.5 11.5t-14 11t-14 8.5t-14 6t-14 2.5z" />
    <glyph glyph-name="caronSlovak" horiz-adv-x="167" 
d="M31 513h41l36 187h-56z" />
    <glyph glyph-name="uni00200326" horiz-adv-x="195" 
d="M46 -210v-27q41 6 63.5 35.5t22.5 66.5q0 28 -12 43.5t-31 15.5q-12 0 -22.5 -9.5t-10.5 -23.5q0 -6 1.5 -10.5t4.5 -8t6.5 -6.5t7 -5.5t7 -4.5t6.5 -4.5t4.5 -5t1.5 -6.5q0 -15 -14 -30.5t-35 -19.5z" />
    <glyph glyph-name="colon.alt" horiz-adv-x="199" 
d="M95 205q-15 0 -26.5 -12t-11.5 -27q0 -16 11.5 -27.5t26.5 -11.5t26.5 11.5t11.5 27.5q0 15 -11.5 27t-26.5 12zM95 542q-15 0 -26.5 -12t-11.5 -27q0 -16 11.5 -27.5t26.5 -11.5t26.5 11.5t11.5 27.5q0 15 -11.5 27t-26.5 12z" />
    <glyph glyph-name="reversequoteleft" horiz-adv-x="199" 
d="M139 561q-28 5 -46 30t-18 49q0 4 1.5 6.5t4 5t6 4.5t7.5 4t7.5 4.5t7 5.5t6 7t4 8.5t1.5 10.5q0 16 -11.5 26.5t-24.5 10.5q-20 0 -33 -16.5t-13 -48.5q0 -49 26 -90t75 -48v31z" />
    <glyph glyph-name="reversequotedblleft" horiz-adv-x="339" 
d="M139 561q-28 5 -46 30t-18 49q0 4 1.5 6.5t4 5t6 4.5t7.5 4t7.5 4.5t7 5.5t6 7t4 8.5t1.5 10.5q0 16 -11.5 26.5t-24.5 10.5q-20 0 -33 -16.5t-13 -48.5q0 -49 26 -90t75 -48v31zM279 561q-28 5 -46 30t-18 49q0 4 1.5 6.5t4 5t6 4.5l7 4t7.5 4.5t7.5 5.5t6 7t4 8.5
t1.5 10.5q0 16 -11.5 26.5t-24.5 10.5q-20 0 -33 -16.5t-13 -48.5q0 -49 26 -90t75 -48v31z" />
    <glyph glyph-name="at.cap" horiz-adv-x="834" 
d="M403 172q43 0 78 19.5t57 51.5q12 -30 37 -44.5t59 -14.5q14 0 27 3t25.5 9.5t24 15.5t21 21t17.5 26.5t13.5 31.5t8.5 36.5t3 40.5q0 34 -5.5 65t-16 59.5t-26 53.5t-34.5 47t-42.5 40.5t-50 32.5t-55.5 24t-61 15t-66 5q-30 0 -58 -4.5t-55 -13.5t-51.5 -22
t-46.5 -29.5t-41.5 -36t-36 -42t-29 -47.5t-21.5 -52t-13.5 -55.5t-4.5 -58.5t4.5 -58.5t13.5 -55.5t21.5 -51.5t29 -47t36 -42t41.5 -36t46.5 -29t51.5 -21.5t55 -13.5t58 -4.5q70 0 132 21t111 60l-29 33q-42 -34 -97.5 -53t-116.5 -19q-26 0 -50.5 4t-48 12t-45 19
t-41 25.5t-36 31.5t-30.5 37t-25.5 41.5t-19 45.5t-11.5 49t-4 52t4 52t11.5 49t19 46t25.5 42t30.5 37t36 31.5t41 26t45 19.5t48 12t50.5 4q29 0 57 -4.5t53.5 -13t48.5 -21t43 -28.5t37 -35.5t30 -42t22 -47.5t14 -52.5t5 -57.5q0 -59 -26 -99.5t-66 -40.5q-28 0 -43 17
t-15 42v224h-47v-55q-22 28 -55 44.5t-72 16.5q-70 0 -120 -50t-50 -121q0 -72 49.5 -122t120.5 -50zM406 215q-52 0 -88.5 37.5t-36.5 91.5q0 53 36.5 90.5t88.5 37.5q51 0 88 -37.5t37 -90.5t-37 -91t-88 -38z" />
    <glyph glyph-name="dollar.alt" horiz-adv-x="517" 
d="M282 -63v80q85 2 137.5 49.5t52.5 126.5q0 60 -39.5 101t-111.5 64l-112 36q-60 19 -88.5 49t-28.5 75q0 54 41 89t104 35q75 0 122.5 -41t57.5 -116h49q-8 80 -58 132t-126 64v79h-47v-75q-82 0 -137 -47t-55 -126q0 -56 37.5 -98.5t109.5 -64.5l106 -33
q67 -21 96.5 -52t29.5 -79q0 -57 -40 -91.5t-111 -34.5q-75 0 -124.5 42t-62.5 114h-50q10 -81 65 -133.5t136 -62.5v-82h47z" />
    <glyph glyph-name="NTD" horiz-adv-x="1718" 
d="M1497 -58v74q79 0 130 43.5t51 118.5q0 56 -37 93t-106 58l-38 12v245q52 -10 85 -46.5t41 -93.5h45q-8 74 -54 122.5t-117 58.5v71h-43v-68q-76 0 -127.5 -43.5t-51.5 -116.5q0 -52 36 -91t104 -60l39 -12v-249q-55 9 -91 46t-46 94h-46q9 -75 59 -122.5t124 -57.5v-76
h43zM145 0l-2 579l392 -579h53v643h-45l2 -579l-391 579h-54v-643h45zM708 601h228v-601h47v601h229v42h-504v-42zM1432 360q-57 19 -84.5 46t-27.5 69q0 49 38 81t96 33v-236zM1512 290q63 -19 91.5 -47t28.5 -72q0 -51 -36 -82.5t-99 -33.5v240z" />
    <glyph glyph-name=".ttfautohint" horiz-adv-x="850" 
d="M0 0z" />
    </font>
</defs>
</svg>
