<?xml version="1.0" standalone="no"?>
<!DOCTYPE svg PUBLIC "-//W3C//DTD SVG 1.1//EN" "http://www.w3.org/Graphics/SVG/1.1/DTD/svg11.dtd" >
<svg xmlns="http://www.w3.org/2000/svg" xmlns:xlink="http://www.w3.org/1999/xlink" version="1.1">
<metadata>
Created by FontForge 20201107 at Tue Mar 22 23:55:24 2022
 By 
(c) 2018 Uber Technologies, Inc. All rights reserved.
</metadata>
<defs>
<font id="UberMoveText-Bold" horiz-adv-x="623" >
  <font-face 
    font-family="Uber Move Text"
    font-weight="700"
    font-stretch="normal"
    units-per-em="1000"
    panose-1="2 1 8 3 3 2 1 6 3 3"
    ascent="800"
    descent="-200"
    x-height="532"
    cap-height="700"
    bbox="-90 -295 2101 980"
    underline-thickness="50"
    underline-position="-125"
    unicode-range="U+000D-FB02"
  />
<missing-glyph horiz-adv-x="514" 
d="M60 -100h394v850h-394v-850z" />
    <glyph glyph-name=".notdef" horiz-adv-x="514" 
d="M60 -100h394v850h-394v-850z" />
    <glyph glyph-name="uni0000" horiz-adv-x="218" 
 />
    <glyph glyph-name="uni0000" horiz-adv-x="218" 
 />
    <glyph glyph-name="uni000D" unicode="&#xd;" horiz-adv-x="218" 
 />
    <glyph glyph-name="space" unicode=" " horiz-adv-x="218" 
 />
    <glyph glyph-name="exclam" unicode="!" horiz-adv-x="243" 
d="M179 202l10 528h-134l10 -528h114zM122 138q-31 0 -52.5 -21t-21.5 -52t21.5 -52t52.5 -21t52 21t21 52t-21 52t-52 21z" />
    <glyph glyph-name="quotedbl" unicode="&#x22;" horiz-adv-x="409" 
d="M63 459h105l9 273h-123zM242 459h105l9 273h-123z" />
    <glyph glyph-name="numbersign" unicode="#" horiz-adv-x="692" 
d="M61 0h119l56 196h132l-56 -196h119l56 196h133v96h-106l34 116h122v96h-95l56 196h-119l-56 -196h-132l56 196h-119l-56 -196h-134v-96h107l-34 -116h-123v-96h96zM263 292l34 116h132l-34 -116h-132z" />
    <glyph glyph-name="dollar" unicode="$" horiz-adv-x="610" 
d="M352 -65v77q101 7 156.5 62.5t55.5 130.5t-43 121t-136 70l-33 8v163q28 -12 46 -35t25 -54h130q-11 79 -65 134t-136 71v82h-94v-77q-22 -2 -42.5 -7t-39.5 -12.5t-35.5 -18t-30.5 -23t-25 -27t-18.5 -31t-11.5 -35t-4 -38.5q0 -75 44.5 -121.5t133.5 -69.5l29 -8v-166
q-34 12 -54.5 36.5t-24.5 59.5h-129q6 -81 63 -137.5t145 -72.5v-82h94zM181 501q0 31 21.5 50.5t55.5 25.5v-154q-34 8 -55.5 27.5t-21.5 50.5zM352 278q38 -9 60.5 -31t22.5 -50q0 -29 -21 -49t-62 -25v155z" />
    <glyph glyph-name="percent" unicode="%" horiz-adv-x="896" 
d="M208 356q18 0 35.5 3.5t33 10.5t29.5 16.5t26 21.5t21.5 26.5t16.5 30.5t10.5 33.5t3.5 36.5q0 17 -3.5 34t-10 32.5t-16 29.5t-21.5 26t-26 22t-30 17t-33 10.5t-36 3.5t-36.5 -3.5t-34 -10.5t-30.5 -17t-26 -22t-21.5 -26t-16 -29.5t-10 -32.5t-3.5 -34
q0 -75 51.5 -127t126.5 -52zM310 0l376 700h-101l-376 -700h101zM208 442q-37 0 -63.5 27.5t-26.5 65.5q0 35 26.5 62t63.5 27q36 0 62.5 -27t26.5 -62q0 -38 -26 -65.5t-63 -27.5zM688 344q-18 0 -35.5 -3.5t-33 -10.5t-29.5 -16.5t-26 -21.5t-21.5 -26.5t-16.5 -30.5
t-10.5 -33.5t-3.5 -36.5q0 -17 3.5 -34t10 -32.5t16 -29.5t21.5 -26t26 -22t30 -17t33 -10.5t36 -3.5t36.5 3.5t34 10.5t30.5 17t26 22t21.5 26t16 29.5t10 32.5t3.5 34q0 75 -51.5 127t-126.5 52zM688 258q37 0 63.5 -27.5t26.5 -65.5q0 -35 -26.5 -62t-63.5 -27
q-36 0 -62.5 27t-26.5 62q0 38 26 65.5t63 27.5z" />
    <glyph glyph-name="ampersand" unicode="&#x26;" horiz-adv-x="689" 
d="M471 54q28 -29 55.5 -41.5t64.5 -12.5h71v120h-43q-14 0 -27 5.5t-26 19.5l-25 26l116 169l-102 61l-96 -144l-94 98l1 1q69 36 102.5 80t33.5 101q0 76 -56 125t-143 49q-90 0 -147 -52.5t-57 -133.5q0 -36 16 -72.5t48 -73.5q-72 -38 -105 -84.5t-33 -110.5
q0 -22 4.5 -41.5t13.5 -37.5t21.5 -34t28.5 -29t35 -23.5t41 -17.5t46.5 -11t50.5 -4q57 0 105.5 19.5t88.5 59.5zM282 442q-25 27 -37 48.5t-12 40.5q0 30 19 49t50 19q29 0 48.5 -19.5t19.5 -48.5q0 -28 -16.5 -48.5t-56.5 -39.5l-11 -5zM164 190q0 32 18.5 56.5
t61.5 46.5l138 -145q-23 -22 -51.5 -33t-59.5 -11q-46 0 -76.5 24.5t-30.5 61.5z" />
    <glyph glyph-name="quotesingle" unicode="'" horiz-adv-x="230" 
d="M63 459h105l9 273h-123z" />
    <glyph glyph-name="parenleft" unicode="(" horiz-adv-x="406" 
d="M174 333q0 131 56.5 231.5t152.5 151.5l-64 91q-36 -19 -68 -43t-59.5 -52.5t-50 -61.5t-39.5 -69.5t-28.5 -76.5t-17.5 -83t-6 -88t6 -88t17.5 -83t28.5 -76.5t39.5 -69.5t50 -61.5t59.5 -52.5t68 -43l64 91q-96 51 -152.5 151.5t-56.5 231.5z" />
    <glyph glyph-name="parenright" unicode=")" horiz-adv-x="406" 
d="M232 333q0 -131 -56.5 -231.5t-152.5 -151.5l64 -91q36 19 68 43t59.5 52.5t50 61.5t39.5 69.5t28.5 76.5t17.5 83t6 88t-6 88t-17.5 83t-28.5 76.5t-39.5 69.5t-50 61.5t-59.5 52.5t-68 43l-64 -91q96 -51 152.5 -151.5t56.5 -231.5z" />
    <glyph glyph-name="asterisk" unicode="*" horiz-adv-x="446" 
d="M369 370l44 72l-112 67l112 68l-44 71l-105 -66l1 118h-83l1 -118l-106 66l-43 -71l111 -68l-111 -67l43 -72l106 66l-1 -118h83l-1 118z" />
    <glyph glyph-name="plus" unicode="+" horiz-adv-x="553" 
d="M329 130v177h176v104h-176v173h-104v-173h-177v-104h177v-177h104z" />
    <glyph glyph-name="comma" unicode="," horiz-adv-x="260" 
d="M53 -118v-65q75 13 119 70t44 141q0 53 -24 84.5t-64 31.5q-30 0 -51.5 -21.5t-21.5 -50.5q0 -9 1.5 -16.5t5 -14t7.5 -12t9 -10t10 -8t10 -7.5t10 -7.5t9 -7t7.5 -8t5 -9t1.5 -10.5q0 -25 -24 -49.5t-54 -30.5z" />
    <glyph glyph-name="hyphen" unicode="-" horiz-adv-x="445" 
d="M48 240h349v118h-349v-118z" />
    <glyph glyph-name="period" unicode="." horiz-adv-x="260" 
d="M130 147q-32 0 -55 -22.5t-23 -55.5q0 -32 23 -54.5t55 -22.5t54.5 22.5t22.5 54.5q0 33 -22.5 55.5t-54.5 22.5z" />
    <glyph glyph-name="slash" unicode="/" horiz-adv-x="439" 
d="M135 0l304 700h-134l-304 -700h134z" />
    <glyph glyph-name="zero" unicode="0" horiz-adv-x="642" 
d="M56 259q0 -31 5 -59.5t14.5 -53.5t23 -46.5t31 -39t38 -31t45 -23t51.5 -14.5t56 -5q30 0 57 5t51 14.5t45 23t38.5 31t31 39t23 46.5t14.5 53.5t5 59.5v184q0 31 -5 59t-14.5 53t-23 46.5t-31 39t-38.5 31t-45 22.5t-51 14t-57 5q-29 0 -56 -5t-51.5 -14t-45 -23
t-38 -31.5t-31 -38.5t-23 -46t-14.5 -53t-5 -59v-184zM453 264q0 -77 -36 -118.5t-97 -41.5q-60 0 -96 41.5t-36 118.5v174q0 75 36 117t96 42q61 0 97 -41.5t36 -117.5v-174z" />
    <glyph glyph-name="one" unicode="1" horiz-adv-x="506" 
d="M470 116h-151v584h-259v-116h126v-468h-150v-116h434v116z" />
    <glyph glyph-name="two" unicode="2" horiz-adv-x="562" 
d="M508 502q0 22 -4.5 43t-12.5 40t-20.5 36t-28 31t-34 25t-40.5 19t-46 12t-51 4q-85 0 -148 -39t-100 -109l105 -59q25 46 59.5 69.5t77.5 23.5q47 0 78.5 -29.5t31.5 -76.5q0 -36 -16 -67t-56 -73l-254 -266v-86h469v116l-281 -3l163 171q62 64 85 114t23 104z" />
    <glyph glyph-name="three" unicode="3" horiz-adv-x="594" 
d="M291 713q-92 0 -156 -38.5t-96 -103.5l109 -56q20 39 52.5 61.5t77.5 22.5q48 0 78.5 -26.5t30.5 -67.5q0 -40 -27 -66.5t-70 -26.5h-91v-109h102q48 0 78 -28.5t30 -68.5q0 -45 -34 -75t-89 -30q-50 0 -87.5 23t-59.5 64l-108 -59q33 -65 99 -103.5t161 -38.5
q28 0 53.5 4t48.5 12.5t42.5 19.5t36.5 25.5t30 31.5t22 36t13.5 40t4.5 43q0 58 -35.5 104t-92.5 66q47 21 76 60.5t29 89.5q0 20 -4.5 39.5t-13 36.5t-20.5 32.5t-27.5 28.5t-33.5 23.5t-38.5 18t-43.5 11.5t-47 4z" />
    <glyph glyph-name="four" unicode="4" horiz-adv-x="629" 
d="M374 0h133v171h81v112h-81v417h-174l-297 -429v-100h338v-171zM175 283l199 293v-293h-199z" />
    <glyph glyph-name="five" unicode="5" horiz-adv-x="591" 
d="M317 452q-38 0 -70.5 -11.5t-62.5 -39.5l7 183h299v116h-413l-16 -387l108 -16q25 23 50.5 34.5t61.5 11.5q60 0 93.5 -34t33.5 -83q0 -53 -35.5 -89t-92.5 -36q-47 0 -81 23t-56 65l-107 -60q32 -65 96.5 -103.5t156.5 -38.5q25 0 48 4t44 11.5t39.5 18t34.5 24
t29.5 29.5t23.5 34.5t17.5 38.5t11 41.5t3.5 44.5t-4 44.5t-12 41t-19.5 37t-26 32.5t-32.5 27t-38 20t-43 12.5t-48 4.5z" />
    <glyph glyph-name="six" unicode="6" horiz-adv-x="620" 
d="M327 599q40 0 72 -20.5t57 -60.5l106 61q-37 61 -95.5 96.5t-140.5 35.5q-124 0 -197.5 -89.5t-73.5 -253.5v-50q0 -38 5 -72t14.5 -64t23 -56t31.5 -47.5t39.5 -38t46.5 -28t53 -17.5t59 -6q26 0 50 4.5t46 13.5t41.5 22t36 29.5t29 36t21.5 42.5t14 48.5t5 53.5
q0 20 -3.5 39.5t-10 37.5t-16 35t-21.5 31.5t-26 27.5t-30.5 23t-34.5 17t-37.5 10.5t-40.5 3.5q-46 0 -94.5 -24.5t-70.5 -84.5v30q0 107 42 160.5t100 53.5zM321 101q-53 0 -88.5 36.5t-35.5 90.5q0 55 36 91t88 36q53 0 89 -36t36 -91q0 -54 -36 -90.5t-89 -36.5z" />
    <glyph glyph-name="seven" unicode="7" horiz-adv-x="576" 
d="M540 600v100h-504v-116h358l-309 -584h155z" />
    <glyph glyph-name="eight" unicode="8" horiz-adv-x="620" 
d="M310 -12q28 0 53.5 4t48.5 11.5t43 18.5t37 25t30.5 30.5t22.5 35.5t14 40t5 44q0 60 -37.5 104t-95.5 62q49 20 79.5 60.5t30.5 93.5q0 21 -4.5 40t-13 36.5t-20.5 33t-27.5 28.5t-34 23.5t-39.5 18t-44 11.5t-48 4t-48.5 -3.5t-44.5 -11t-39 -18t-33.5 -23.5
t-27.5 -28.5t-20.5 -33.5t-13 -37t-4.5 -40q0 -53 30.5 -93.5t80.5 -59.5q-59 -18 -96.5 -62.5t-37.5 -104.5q0 -23 5 -44t14 -40t22.5 -35.5t30.5 -30.5t37.5 -25t43.5 -18.5t48.5 -11.5t52.5 -4zM310 412q-43 0 -72.5 27t-29.5 67q0 41 29.5 68t72.5 27q44 0 73 -27
t29 -68q0 -40 -29.5 -67t-72.5 -27zM310 307q51 0 86.5 -30t35.5 -76q0 -44 -35 -73t-87 -29t-87 29t-35 73q0 46 35 76t87 30z" />
    <glyph glyph-name="nine" unicode="9" horiz-adv-x="620" 
d="M293 101q-40 0 -72 20.5t-57 60.5l-106 -61q37 -61 95.5 -96.5t140.5 -35.5q124 0 197.5 89.5t73.5 253.5v50q0 38 -5 72t-14.5 64t-23 56t-31.5 47.5t-39.5 38t-46.5 28t-53 17.5t-59 6q-26 0 -50 -4.5t-46 -13.5t-41.5 -22t-36 -29.5t-29 -36t-21.5 -42.5t-14 -48.5
t-5 -53.5q0 -20 3.5 -39.5t10 -37.5t16 -35t21.5 -31.5t26 -27.5t30.5 -23t34.5 -17t37.5 -10.5t40.5 -3.5q46 0 94.5 24.5t70.5 84.5v-30q0 -107 -42 -160.5t-100 -53.5zM299 599q53 0 88.5 -36.5t35.5 -90.5q0 -55 -36 -91t-88 -36q-53 0 -89 36t-36 91q0 54 36 90.5
t89 36.5z" />
    <glyph glyph-name="colon" unicode=":" horiz-adv-x="259" 
d="M130 147q-32 0 -55 -22.5t-23 -55.5q0 -32 23 -54.5t55 -22.5t54.5 22.5t22.5 54.5q0 33 -22.5 55.5t-54.5 22.5zM130 536q-32 0 -55 -22.5t-23 -55.5q0 -32 23 -54.5t55 -22.5t54.5 22.5t22.5 54.5q0 33 -22.5 55.5t-54.5 22.5z" />
    <glyph glyph-name="semicolon" unicode=";" horiz-adv-x="260" 
d="M53 -118v-65q75 13 119 70t44 141q0 53 -24 84.5t-64 31.5q-30 0 -51.5 -21.5t-21.5 -50.5q0 -9 1.5 -16.5t5 -14t7.5 -12t9 -10t10 -8t10 -7.5t10 -7.5t9 -7t7.5 -8t5 -9t1.5 -10.5q0 -25 -24 -49.5t-54 -30.5zM135 536q-32 0 -55 -22.5t-23 -55.5q0 -32 23 -54.5
t55 -22.5t54.5 22.5t22.5 54.5q0 33 -22.5 55.5t-54.5 22.5z" />
    <glyph glyph-name="less" unicode="&#x3c;" horiz-adv-x="414" 
d="M399 532h-141l-247 -265l247 -267h144l-243 268z" />
    <glyph glyph-name="equal" unicode="=" horiz-adv-x="550" 
d="M502 488h-454v-93h454v93zM502 313h-454v-93h454v93z" />
    <glyph glyph-name="greater" unicode="&#x3e;" horiz-adv-x="414" 
d="M15 0h141l247 265l-247 267h-144l243 -268z" />
    <glyph glyph-name="question" unicode="?" horiz-adv-x="514" 
d="M477 502q0 20 -3.5 38.5t-10.5 36t-17 33.5t-23 29.5t-28.5 25t-33 21t-37 15.5t-40.5 9.5t-43 3.5q-78 0 -133 -31.5t-95 -82.5l96 -70q22 30 55 48t73 18q44 0 75.5 -29t31.5 -73q0 -40 -31 -68.5t-75 -28.5h-57l5 -197h104l4 95q20 2 38 8t34.5 14.5t31.5 20t27 25.5
t21.5 30t16.5 33.5t10.5 36.5t3.5 39zM238 138q-31 0 -52.5 -21t-21.5 -52t21.5 -52t52.5 -21t52 21t21 52t-21 52t-52 21z" />
    <glyph glyph-name="at" unicode="@" horiz-adv-x="843" 
d="M405 67q37 0 69 15t56 41q17 -25 45 -38t66 -13q15 0 29.5 3t28 9.5t25.5 16t22.5 22t19 28t14.5 34t9.5 40t3.5 45.5q0 29 -4.5 56t-13 53t-21 49.5t-29 45t-36 40t-42.5 34t-48.5 27.5t-54 20.5t-59 13t-63.5 4.5q-31 0 -60.5 -4.5t-57.5 -13.5t-53.5 -22t-48.5 -29.5
t-43.5 -36t-37.5 -42.5t-30 -48t-22 -52t-14 -56t-5 -59t4.5 -59t14 -56t22.5 -52.5t29.5 -48t36.5 -42t43 -36t48 -29.5t53 -22t57 -13.5t60 -4.5q70 0 133 24t111 66l-49 49q-40 -34 -91.5 -54t-109.5 -20q-27 0 -53 4.5t-49.5 13.5t-45 22t-40.5 29.5t-35 35.5
t-28.5 41.5t-21 46.5t-13 50.5t-4.5 54.5t4.5 54.5t13.5 50.5t21.5 46.5t28.5 41.5t35.5 35.5t41 29.5t45.5 22t50 13.5t54 4.5q31 0 59 -4.5t53.5 -12.5t48 -20t42 -27.5t35.5 -33.5t28.5 -39t21 -44t13 -48t4.5 -51q0 -57 -19.5 -90.5t-49.5 -33.5q-25 0 -39 14.5
t-14 34.5v219h-95v-24q-21 16 -46 24.5t-53 8.5q-19 0 -36.5 -3.5t-34 -10.5t-31 -16.5t-26.5 -21.5t-21.5 -26t-16.5 -30t-10.5 -33.5t-3.5 -36.5q0 -18 3.5 -35t10.5 -33t16.5 -30t21.5 -26t26.5 -21.5t31 -16.5t34 -10.5t36.5 -3.5zM412 152q-37 0 -64.5 27t-27.5 64
q0 39 27.5 65.5t64.5 26.5q38 0 65 -26.5t27 -65.5q0 -37 -27 -64t-65 -27z" />
    <glyph glyph-name="A" unicode="A" horiz-adv-x="687" 
d="M431 700h-174l-260 -700h143l59 169h282l59 -169h150zM242 290l98 281l99 -281h-197z" />
    <glyph glyph-name="B" unicode="B" horiz-adv-x="657" 
d="M77 0h324q22 0 43 4t40.5 11.5t36.5 18t31.5 24t25.5 29t19.5 33.5t12.5 37t4 40q0 59 -38 104.5t-98 64.5q43 23 69 61.5t26 84.5q0 20 -4 38.5t-12 35.5t-19 32t-25.5 27.5t-31 22.5t-35 17.5t-39 11t-42.5 3.5h-288v-700zM352 584q37 0 59 -24.5t22 -61.5
q0 -35 -22 -60.5t-59 -25.5h-136v172h136zM378 116h-162v184h162q43 0 69.5 -27t26.5 -65q0 -40 -26.5 -66t-69.5 -26z" />
    <glyph glyph-name="C" unicode="C" horiz-adv-x="705" 
d="M667 439q-3 31 -11 59.5t-20.5 53.5t-28.5 46.5t-35.5 39.5t-42.5 32t-49 23.5t-54 14.5t-59 5t-60 -4.5t-55 -14t-49.5 -22.5t-43.5 -30.5t-37 -38t-30 -45t-22 -51.5t-13.5 -57t-4.5 -62v-75q0 -33 4.5 -63t13.5 -57t22 -51t30 -45t37 -38t43.5 -30.5t49.5 -23t55 -14
t60 -4.5q30 0 57.5 5t53.5 14.5t49 23t42.5 31.5t36 40t29 47t21 53.5t11.5 59.5h-135q-11 -70 -56 -109t-109 -39q-77 0 -125.5 54t-48.5 151v65q0 96 48 150t126 54q64 0 109 -39t56 -109h135z" />
    <glyph glyph-name="D" unicode="D" horiz-adv-x="721" 
d="M669 313v75q0 31 -4.5 59.5t-13.5 54.5t-22.5 49.5t-30 43.5t-37 36.5t-44 29t-49.5 21.5t-55 13.5t-60 4.5h-276v-700h276q31 0 60 4.5t55 13.5t49.5 21.5t44 29.5t37 37t30 43t22.5 49t13.5 55t4.5 60zM345 579q81 0 132 -52.5t51 -148.5v-55q0 -97 -51.5 -149.5
t-131.5 -52.5h-129v458h129z" />
    <glyph glyph-name="E" unicode="E" horiz-adv-x="609" 
d="M77 0h479v121h-340v170h330v119h-330v169h340v121h-479v-700z" />
    <glyph glyph-name="F" unicode="F" horiz-adv-x="609" 
d="M216 0v291h330v119h-330v169h340v121h-479v-700h139z" />
    <glyph glyph-name="G" unicode="G" horiz-adv-x="746" 
d="M52 317q0 -37 5.5 -71t15.5 -64t25 -56t34 -47.5t42 -38.5t50 -28.5t57 -17.5t63 -6q54 0 108.5 26.5t91.5 83.5v-98h130v387h-315v-116h185v-12q0 -62 -45.5 -106t-126.5 -44q-79 0 -129 54t-50 154v64q0 97 49 151t130 54q58 0 104 -31.5t72 -84.5l121 58
q-41 87 -117.5 136t-185.5 49q-35 0 -67 -6t-61 -18t-53.5 -28.5t-45.5 -38t-37 -47.5t-27 -56t-17 -63t-6 -70v-69z" />
    <glyph glyph-name="H" unicode="H" horiz-adv-x="744" 
d="M216 0v290h312v-290h139v700h-139v-289h-312v289h-139v-700h139z" />
    <glyph glyph-name="I" unicode="I" horiz-adv-x="293" 
d="M216 0v700h-139v-700h139z" />
    <glyph glyph-name="J" unicode="J" horiz-adv-x="530" 
d="M2 55q37 -37 89 -54t113 -17q28 0 53.5 4.5t49 13.5t44 21.5t38 29t31.5 36.5t23.5 43t14.5 49t5 54v465h-139v-450q0 -64 -36 -102.5t-89 -38.5q-33 0 -62.5 13t-49.5 34z" />
    <glyph glyph-name="K" unicode="K" horiz-adv-x="671" 
d="M216 0v300l283 -300h194l-355 361l345 339h-181l-286 -292v292h-139v-700h139z" />
    <glyph glyph-name="L" unicode="L" horiz-adv-x="594" 
d="M556 121h-340v579h-139v-700h479v121z" />
    <glyph glyph-name="M" unicode="M" horiz-adv-x="922" 
d="M206 0v552l190 -552h128l190 552v-552h133v700h-208l-177 -521l-177 521h-210v-700h131z" />
    <glyph glyph-name="N" unicode="N" horiz-adv-x="764" 
d="M206 0l1 501l332 -501h148v700h-129l-1 -501l-332 501h-148v-700h129z" />
    <glyph glyph-name="O" unicode="O" horiz-adv-x="752" 
d="M52 388v-75q0 -33 5 -63t14 -57t22.5 -51t30.5 -45t38 -38t45 -30.5t51 -23t56.5 -14t61.5 -4.5t61.5 4.5t56.5 14t51 23t45 30.5t38 38t30.5 45t22.5 51t14 57t5 63v75q0 32 -5 62t-14 57t-22.5 51.5t-30.5 45t-38 38t-45 30.5t-51 22.5t-56.5 14t-61.5 4.5t-61.5 -4.5
t-56.5 -14t-51 -22.5t-45 -30.5t-38 -38t-30.5 -45t-22.5 -51.5t-14 -57t-5 -62zM193 383q0 96 51 150t132 54t132 -54t51 -150v-65q0 -97 -51.5 -151t-131.5 -54q-81 0 -132 54t-51 151v65z" />
    <glyph glyph-name="P" unicode="P" horiz-adv-x="648" 
d="M77 0h139v259h176q21 0 40.5 3.5t38 10t35 16t31 21.5t26.5 26.5t22 30.5t16.5 34t10 37.5t3.5 40.5t-3.5 40.5t-10 37.5t-16.5 34.5t-22 31t-26.5 26.5t-31 21.5t-35 16t-38 10t-40.5 3.5h-315v-700zM379 579q43 0 69.5 -29t26.5 -73q0 -43 -26.5 -72.5t-69.5 -29.5
h-163v204h163z" />
    <glyph glyph-name="Q" unicode="Q" horiz-adv-x="752" 
d="M52 388v-75q0 -32 5 -62t14 -57.5t22.5 -51.5t30.5 -45t38 -38t45 -30.5t51 -22.5t56.5 -14t61.5 -5q35 0 68 6t62 17l59 -72l100 81l-51 62q40 43 63 102t23 130v75q0 32 -5 62t-14 57t-22.5 51t-30.5 45t-38 38t-45 30.5t-51 22.5t-56.5 14t-61.5 5t-61.5 -5t-56.5 -14
t-51 -22.5t-45 -30.5t-38 -38t-30.5 -45t-22.5 -51t-14 -57t-5 -62zM193 383q0 93 49.5 148.5t133.5 55.5t133.5 -55.5t49.5 -148.5v-65q0 -39 -9 -71.5t-25 -57.5l-84 101l-100 -81l76 -92q-10 -2 -20.5 -3t-20.5 -1q-84 0 -133.5 56t-49.5 149v65z" />
    <glyph glyph-name="R" unicode="R" horiz-adv-x="660" 
d="M216 0v277h117l155 -277h158l-174 294q56 24 91.5 75t35.5 116q0 23 -4 44t-12.5 40.5t-19.5 36.5t-25.5 31.5t-31.5 26t-36.5 20t-40.5 12.5t-43 4h-309v-700h139zM363 579q43 0 69.5 -27t26.5 -67t-26.5 -67t-69.5 -27h-147v188h147z" />
    <glyph glyph-name="S" unicode="S" horiz-adv-x="620" 
d="M35 219q2 -26 9 -49.5t18 -44.5t26 -39t34 -33.5t41 -27t47 -20t52.5 -12.5t56.5 -4q30 0 56.5 4t50.5 12t44.5 19.5t37.5 25.5t30.5 31t22.5 36t13.5 40t4.5 43q0 78 -44.5 127t-143.5 72l-128 30q-39 9 -61.5 29.5t-22.5 52.5q0 40 31.5 62.5t77.5 22.5q57 0 92 -29.5
t46 -79.5h136q-14 99 -88 161.5t-185 62.5q-26 0 -50.5 -4t-47 -11t-42.5 -17.5t-36.5 -24.5t-30 -30.5t-22.5 -35.5t-14 -41t-5 -46q0 -78 46.5 -128t140.5 -72l129 -30q45 -10 64.5 -33t19.5 -49q0 -37 -30.5 -61t-90.5 -24q-66 0 -104.5 31t-45.5 84h-135z" />
    <glyph glyph-name="T" unicode="T" horiz-adv-x="645" 
d="M18 579h235v-579h139v579h235v121h-609v-121z" />
    <glyph glyph-name="U" unicode="U" horiz-adv-x="726" 
d="M206 275v425h-139v-435q0 -31 5 -59.5t14.5 -54t23.5 -47.5t31.5 -40.5t38 -32.5t44 -24t49.5 -15t54 -5q56 0 103.5 23.5t80.5 64.5v-75h138v700h-139v-425q0 -74 -43.5 -120t-108.5 -46q-64 0 -108 44t-44 122z" />
    <glyph glyph-name="V" unicode="V" horiz-adv-x="687" 
d="M256 0h174l260 700h-143l-200 -564l-200 564h-150z" />
    <glyph glyph-name="W" unicode="W" horiz-adv-x="980" 
d="M555 700h-123l-155 -504l-126 504h-145l192 -700h140l152 495l152 -495h140l192 700h-138l-126 -504z" />
    <glyph glyph-name="X" unicode="X" horiz-adv-x="666" 
d="M-10 0h165l174 250l175 -250h171l-264 358l252 342h-164l-165 -234l-164 234h-171l252 -343z" />
    <glyph glyph-name="Y" unicode="Y" horiz-adv-x="675" 
d="M407 0v280l275 420h-162l-181 -283l-180 283h-166l275 -419v-281h139z" />
    <glyph glyph-name="Z" unicode="Z" horiz-adv-x="604" 
d="M45 579h338l-352 -489v-90h533v121h-354l350 486v93h-515v-121z" />
    <glyph glyph-name="bracketleft" unicode="[" horiz-adv-x="377" 
d="M53 -125h289v103h-172v709h172v103h-289v-915z" />
    <glyph glyph-name="backslash" unicode="\" horiz-adv-x="439" 
d="M438 0l-304 700h-134l304 -700h134z" />
    <glyph glyph-name="bracketright" unicode="]" horiz-adv-x="377" 
d="M324 790h-289v-103h172v-709h-172v-103h289v915z" />
    <glyph glyph-name="asciicircum" unicode="^" horiz-adv-x="532" 
d="M24 350h113l129 249l129 -249h113l-183 350h-118z" />
    <glyph glyph-name="underscore" unicode="_" horiz-adv-x="494" 
d="M495 -80h-496v-94h496v94z" />
    <glyph glyph-name="grave" unicode="`" horiz-adv-x="500" 
d="M260 743h-147l139 -148h128z" />
    <glyph glyph-name="a" unicode="a" horiz-adv-x="573" 
d="M30 151q0 -69 51.5 -115.5t129.5 -46.5q49 0 89.5 23.5t62.5 63.5q12 -35 41.5 -55.5t72.5 -20.5h64v116h-27q-15 0 -23 8t-8 23v207q0 86 -55.5 137.5t-148.5 51.5q-58 0 -110 -17t-100 -52l57 -99q34 23 68 35t68 12q43 0 66.5 -21.5t23.5 -61.5v-20l-145 -11
q-84 -7 -130.5 -46.5t-46.5 -110.5zM160 155q0 25 16 39.5t50 17.5l126 11v-31q0 -41 -32.5 -69.5t-77.5 -28.5q-37 0 -59.5 16.5t-22.5 44.5z" />
    <glyph glyph-name="b" unicode="b" horiz-adv-x="625" 
d="M71 0h134v69q26 -39 65.5 -60.5t89.5 -21.5q24 0 45.5 4.5t41.5 13t37.5 21t32 28.5t26 35.5t19.5 42t12 48t4 53.5v66q0 28 -4 53.5t-12 48t-19.5 42t-26 35.5t-32 28.5t-37.5 21t-41.5 13t-45.5 4.5q-49 0 -88.5 -20.5t-66.5 -57.5v273h-134v-740zM205 290
q0 63 32 100.5t89 37.5t88.5 -37.5t31.5 -100.5v-48q0 -63 -31.5 -100.5t-88.5 -37.5t-89 37.5t-32 100.5v48z" />
    <glyph glyph-name="c" unicode="c" horiz-adv-x="554" 
d="M291 -13q93 0 157.5 56.5t77.5 149.5h-130q-10 -42 -36.5 -65.5t-68.5 -23.5q-54 0 -83 37.5t-29 100.5v48q0 63 29 100.5t83 37.5q42 0 68.5 -24t36.5 -66h130q-13 95 -76 151t-159 56q-27 0 -52 -4.5t-47 -13t-41.5 -21.5t-35.5 -29.5t-28.5 -36t-21.5 -42.5t-13.5 -49
t-4.5 -55v-56q0 -29 4.5 -55t13.5 -49t21.5 -42.5t28.5 -36t35.5 -29.5t41.5 -21.5t47 -13t52 -4.5z" />
    <glyph glyph-name="d" unicode="d" horiz-adv-x="625" 
d="M554 0v740h-134v-273q-27 37 -66.5 57.5t-88.5 20.5q-24 0 -45.5 -4.5t-41.5 -13t-37.5 -21t-32 -28.5t-26 -35.5t-19.5 -42t-12 -48t-4 -53.5v-66q0 -28 4 -53.5t12 -48t19.5 -42t26 -35.5t32 -28.5t37.5 -21t41.5 -13t45.5 -4.5q50 0 89.5 21.5t65.5 60.5v-69h134z
M420 290v-48q0 -63 -32 -100.5t-89 -37.5t-88.5 37.5t-31.5 100.5v48q0 63 31.5 100.5t88.5 37.5t89 -37.5t32 -100.5z" />
    <glyph glyph-name="e" unicode="e" horiz-adv-x="558" 
d="M47 240q0 -114 69 -183t179 -69q68 0 119.5 23.5t89.5 65.5l-81 80q-27 -27 -57.5 -40.5t-66.5 -13.5q-53 0 -85 31.5t-36 88.5h337v71q0 28 -4 53.5t-12 48.5t-20 42.5t-27 36.5t-32.5 30t-38 22t-43.5 13.5t-48 4.5q-109 0 -176 -70t-67 -183v-52zM179 324
q6 51 33.5 78t71.5 27t71.5 -27.5t31.5 -77.5h-208z" />
    <glyph glyph-name="f" unicode="f" horiz-adv-x="420" 
d="M21 416h107v-416h134v416h136v116h-136v72q0 20 10 30t26 10h100v116h-127q-70 0 -106.5 -38t-36.5 -93v-97h-107v-116z" />
    <glyph glyph-name="g" unicode="g" horiz-adv-x="615" 
d="M187 -221h170q84 0 136 51.5t52 133.5v568h-134v-65q-26 37 -65 57.5t-86 20.5q-95 0 -154.5 -68.5t-59.5 -177.5v-58q0 -109 59.5 -177.5t154.5 -68.5q48 0 86.5 21.5t64.5 59.5v-97q0 -40 -24 -63.5t-64 -23.5h-136v-113zM411 290v-44q0 -65 -31.5 -99.5t-85.5 -34.5
t-85 34.5t-31 99.5v44q0 64 31 101t85 37t85.5 -37t31.5 -101z" />
    <glyph glyph-name="h" unicode="h" 
d="M552 346q0 21 -3.5 40.5t-10 37.5t-16 34t-22 29.5t-27.5 24t-32.5 18t-37 11.5t-40.5 4q-50 0 -92 -27t-66 -73v295h-134v-740h134v315q0 47 30 78.5t77 31.5q48 0 77 -32t29 -78v-315h134v346z" />
    <glyph glyph-name="i" unicode="i" horiz-adv-x="276" 
d="M138 603q31 0 53 22t22 53q0 32 -22 54t-53 22t-54 -22t-23 -54q0 -31 23 -53t54 -22zM205 532h-134v-532h134v532z" />
    <glyph glyph-name="j" unicode="j" horiz-adv-x="276" 
d="M138 603q31 0 53 22t22 53q0 32 -22 54t-53 22t-54 -22t-23 -54q0 -31 23 -53t54 -22zM69 -221q66 0 101 37.5t35 90.5v625h-134v-599q0 -21 -11 -31t-29 -10h-32v-113h70z" />
    <glyph glyph-name="k" unicode="k" horiz-adv-x="560" 
d="M551 532h-155l-191 -227v435h-134v-740h134v242l199 -242h170l-242 281z" />
    <glyph glyph-name="l" unicode="l" horiz-adv-x="276" 
d="M205 0v740h-134v-740h134z" />
    <glyph glyph-name="m" unicode="m" horiz-adv-x="950" 
d="M205 316q0 46 28.5 77.5t73.5 31.5t73 -32t28 -77v-316h134v316q0 46 28.5 77.5t73.5 31.5t73 -32t28 -77v-316h134v347q0 21 -3.5 40.5t-10 37.5t-16 33.5t-21.5 29t-26.5 24t-31.5 18t-36 11.5t-40 4q-56 0 -100.5 -32.5t-65.5 -87.5q-19 53 -64 86.5t-107 33.5
q-48 0 -88.5 -26.5t-63.5 -72.5v86h-134v-532h134v316z" />
    <glyph glyph-name="n" unicode="n" 
d="M552 346q0 21 -3.5 40.5t-10 37.5t-16 34t-22 29.5t-27.5 24t-32.5 18t-37 11.5t-40.5 4q-50 0 -92 -27t-66 -73v87h-134v-532h134v315q0 47 30 78.5t77 31.5q48 0 77 -32t29 -78v-315h134v346z" />
    <glyph glyph-name="o" unicode="o" horiz-adv-x="589" 
d="M542 238v56q0 29 -4.5 55t-13.5 49t-22 43t-29.5 36.5t-36 29t-42 21t-48 13t-52.5 4.5t-52.5 -4.5t-48 -13t-42 -21.5t-36 -29.5t-29 -36t-21.5 -42.5t-13.5 -49t-4.5 -55v-56q0 -29 4.5 -55t13.5 -49t22 -42.5t29.5 -36t36 -29.5t42 -21.5t47.5 -13t52 -4.5t52.5 4.5
t48 13t42 21t36 29t29.5 36.5t22 43t13.5 49t4.5 55zM410 290v-48q0 -63 -30.5 -100.5t-85.5 -37.5t-85 37.5t-30 100.5v48q0 63 30 100.5t85 37.5t85.5 -37.5t30.5 -100.5z" />
    <glyph glyph-name="p" unicode="p" horiz-adv-x="624" 
d="M71 532v-753h134v285q27 -37 66.5 -57t87.5 -20q24 0 45.5 4.5t41.5 13t37.5 21t32 28.5t26 35.5t19.5 42t12 48t4 53.5v66q0 28 -4 53.5t-12 48t-19.5 42t-26 35.5t-32 28.5t-37.5 21t-41.5 13t-45.5 4.5q-49 0 -88.5 -21t-65.5 -60v68h-134zM205 221v90q5 54 36.5 85.5
t83.5 31.5q57 0 88.5 -37.5t31.5 -100.5v-48q0 -63 -31.5 -100.5t-88.5 -37.5q-52 0 -83.5 31.5t-36.5 85.5z" />
    <glyph glyph-name="q" unicode="q" horiz-adv-x="625" 
d="M554 532h-134v-65q-27 37 -66.5 57.5t-88.5 20.5q-24 0 -45.5 -4.5t-41.5 -13t-37.5 -21t-32 -28.5t-26 -35.5t-19.5 -42t-12 -48t-4 -53.5v-66q0 -28 4 -53.5t12 -48t19.5 -42t26 -35.5t32 -28.5t37.5 -21t41.5 -13t45.5 -4.5q50 0 89.5 21.5t65.5 60.5v-290h134v753z
M420 290v-48q0 -63 -32 -100.5t-89 -37.5t-88.5 37.5t-31.5 100.5v48q0 63 31.5 100.5t88.5 37.5t89 -37.5t32 -100.5z" />
    <glyph glyph-name="r" unicode="r" horiz-adv-x="411" 
d="M386 405v132h-41q-54 0 -89.5 -30t-51.5 -79v104h-133v-532h134v275q0 61 36.5 95.5t85.5 34.5h59z" />
    <glyph glyph-name="s" unicode="s" horiz-adv-x="520" 
d="M278 -12q90 0 147.5 46.5t57.5 121.5q0 60 -36.5 99t-108.5 56l-102 24q-31 7 -46.5 21t-15.5 33q0 23 17.5 37.5t47.5 14.5q39 0 67.5 -21.5t37.5 -56.5h128q-13 82 -76 132t-156 50q-87 0 -142 -46.5t-55 -121.5q0 -60 36.5 -99.5t110.5 -56.5l110 -26q24 -6 38 -19
t14 -30q0 -25 -20 -39.5t-54 -14.5q-47 0 -77.5 20t-39.5 56h-127q16 -83 82 -131.5t162 -48.5z" />
    <glyph glyph-name="t" unicode="t" horiz-adv-x="425" 
d="M272 0h132v116h-92q-22 0 -35.5 10t-13.5 30v260h141v116h-141v154h-134v-154h-107v-116h107v-285q0 -55 36.5 -93t106.5 -38z" />
    <glyph glyph-name="u" unicode="u" 
d="M71 186q0 -21 3.5 -40.5t10 -37.5t16.5 -34t22.5 -29.5t27.5 -24t32.5 -18t37 -11.5t40.5 -4q50 0 91.5 26.5t65.5 73.5v-87h134v532h-134v-315q0 -47 -30 -78.5t-77 -31.5t-76.5 32t-29.5 78v315h-134v-346z" />
    <glyph glyph-name="v" unicode="v" horiz-adv-x="550" 
d="M207 0h136l206 532h-139l-133 -365l-133 365h-143z" />
    <glyph glyph-name="w" unicode="w" horiz-adv-x="788" 
d="M341 532l-110 -338l-88 338h-136l149 -532h124l114 352l114 -352h124l149 532h-131l-88 -338l-110 338h-111z" />
    <glyph glyph-name="x" unicode="x" horiz-adv-x="527" 
d="M-7 0h148l119 171l120 -171h154l-200 270l195 262h-149l-116 -165l-115 165h-153l194 -264z" />
    <glyph glyph-name="y" unicode="y" horiz-adv-x="560" 
d="M207 -42q-13 -36 -30.5 -51t-47.5 -15h-55v-113h77q62 0 100.5 24.5t66.5 96.5l241 632h-141l-133 -361l-139 361h-145l219 -540z" />
    <glyph glyph-name="z" unicode="z" horiz-adv-x="509" 
d="M47 416h254l-259 -319v-97h425v116h-262l255 316v100h-413v-116z" />
    <glyph glyph-name="braceleft" unicode="{" horiz-adv-x="451" 
d="M290 142q33 68 7 122.5t-98 68.5q72 12 98.5 67t-7.5 124l-30 62q-22 44 -3.5 78.5t63.5 34.5q25 0 45 -3.5t45 -12.5l19 96q-31 11 -59.5 16t-63.5 5q-28 0 -52.5 -5t-44.5 -14t-35.5 -22t-26 -29t-16 -35.5t-6 -41.5t5 -45.5t17.5 -49.5l38 -83q16 -36 -5 -64t-64 -28
h-90v-100h95q40 0 60 -28.5t4 -63.5l-38 -83q-12 -26 -17.5 -49.5t-5 -45.5t6 -41.5t16 -35.5t26 -29t35.5 -22t44.5 -14t52.5 -5q35 0 63.5 5t59.5 16l-19 96q-25 -9 -45 -12.5t-45 -3.5q-45 0 -63.5 34.5t3.5 78.5z" />
    <glyph glyph-name="bar" unicode="|" horiz-adv-x="274" 
d="M204 -221v921h-134v-921h134z" />
    <glyph glyph-name="braceright" unicode="}" horiz-adv-x="451" 
d="M166 524q-33 -68 -7 -122.5t98 -68.5q-72 -12 -98.5 -67t7.5 -124l30 -62q22 -44 3.5 -78.5t-63.5 -34.5q-25 0 -45 3.5t-45 12.5l-19 -96q31 -11 59.5 -16t63.5 -5q28 0 52.5 5t44.5 14t35.5 22t26 29t16 35.5t6 41.5t-5 45.5t-17.5 49.5l-38 83q-16 36 5 64t64 28h90
v100h-95q-40 0 -60 28.5t-4 63.5l38 83q12 26 17.5 49.5t5 45.5t-6 41.5t-16 35.5t-26 29t-35.5 22t-44.5 14t-52.5 5q-35 0 -63.5 -5t-59.5 -16l19 -96q25 9 45 12.5t45 3.5q45 0 63.5 -34.5t-3.5 -78.5z" />
    <glyph glyph-name="asciitilde" unicode="~" horiz-adv-x="556" 
d="M151 300q8 32 19.5 47t27.5 15q7 0 15.5 -2t18 -5.5t20 -8t21.5 -9.5t22.5 -10.5t23 -10t22.5 -8t22 -5.5t22 -2q51 0 84.5 35.5t49.5 106.5l-100 24q-8 -32 -19.5 -47t-27.5 -15q-7 0 -15.5 2t-18 5.5t-19.5 8t-21 10t-22.5 10.5t-23 9.5t-23 8t-22.5 5.5t-22 2
q-50 0 -84 -35.5t-50 -106.5z" />
    <glyph glyph-name="uni00A0" unicode="&#xa0;" horiz-adv-x="218" 
 />
    <glyph glyph-name="exclamdown" unicode="&#xa1;" horiz-adv-x="243" 
d="M64 498l-10 -528h134l-10 528h-114zM121 562q31 0 52.5 21t21.5 52t-21.5 52t-52.5 21t-52 -21t-21 -52t21 -52t52 -21z" />
    <glyph glyph-name="cent" unicode="&#xa2;" horiz-adv-x="559" 
d="M342 630h-94v-88q-90 -13 -145.5 -79.5t-55.5 -168.5v-56q0 -102 55.5 -168.5t145.5 -79.5v-105h94v107q73 14 123 67.5t61 133.5h-130q-6 -28 -20 -47.5t-34 -29.5v300q20 -10 34 -30t20 -48h130q-11 81 -60 135t-124 67v90zM179 242v48q0 49 17.5 83t51.5 47v-308
q-34 13 -51.5 47t-17.5 83z" />
    <glyph glyph-name="sterling" unicode="&#xa3;" horiz-adv-x="601" 
d="M420 381h-170l-20 61q-22 67 3 112.5t85 45.5q47 0 78 -25.5t42 -74.5h131q-15 95 -83 153t-166 58q-29 0 -54.5 -4.5t-48.5 -13.5t-42 -22t-34.5 -29t-26.5 -35.5t-18 -41t-8.5 -45t1.5 -48.5t12 -51l13 -40h-72v-99h105l6 -19q19 -59 -6 -103t-77 -44h-30v-116h529v116
h-317q28 30 37.5 73.5t-5.5 92.5h136v99z" />
    <glyph glyph-name="yen" unicode="&#xa5;" horiz-adv-x="695" 
d="M120 201v-86h158v-115h139v115h158v86h-158v58h158v86h-115l232 355h-165l-178 -278l-177 278h-169l233 -355h-116v-86h158v-58h-158z" />
    <glyph glyph-name="section" unicode="&#xa7;" horiz-adv-x="579" 
d="M510 48q0 31 -10 54t-29 41q41 19 65.5 56.5t24.5 88.5q0 66 -37.5 104t-108.5 64l-154 56q-31 11 -46 23t-15 30q0 21 18.5 33.5t49.5 12.5t62 -17t41 -57h127q-3 21 -10.5 41t-18.5 37.5t-25.5 33t-33 27.5t-40.5 21t-47 13.5t-54 4.5q-87 0 -143.5 -44.5t-56.5 -119.5
q0 -31 10.5 -55.5t29.5 -42.5q-41 -19 -66 -57t-25 -89q0 -66 37 -104.5t109 -63.5l165 -56q22 -7 36 -19.5t14 -29.5q0 -22 -19.5 -34.5t-52.5 -12.5q-41 0 -72.5 17t-41.5 55h-127q15 -75 76.5 -125.5t164.5 -50.5q94 0 148.5 48t54.5 117zM369 342q35 -13 50.5 -32
t15.5 -46q0 -29 -25.5 -51t-64.5 -9l-135 49q-35 13 -50.5 32t-15.5 46q0 29 25.5 51.5t64.5 8.5z" />
    <glyph glyph-name="dieresis" unicode="&#xa8;" horiz-adv-x="559" 
d="M173 588q31 0 53 22t22 53q0 32 -22 54t-53 22t-54 -22t-23 -54q0 -31 23 -53t54 -22zM388 588q31 0 53 22t22 53q0 32 -22 54t-53 22t-54 -22t-23 -54q0 -31 23 -53t54 -22z" />
    <glyph glyph-name="copyright" unicode="&#xa9;" horiz-adv-x="838" 
d="M419 -13q31 0 60.5 4.5t57.5 13.5t53 22t48 29.5t43 36t36.5 42.5t29.5 48t22.5 52t14 56t4.5 59t-4.5 59t-14 56t-22.5 52t-29.5 48t-36.5 42.5t-43 36t-48 29.5t-53 22t-57.5 13.5t-60.5 4.5t-60.5 -4.5t-57.5 -13.5t-53 -22t-48 -29.5t-43 -36t-36.5 -42.5t-29.5 -48
t-22.5 -52t-14 -56t-4.5 -59t4.5 -59t14 -56t22.5 -52.5t29.5 -48t36.5 -42t43 -36t48 -29.5t53 -22t57.5 -13.5t60.5 -4.5zM419 52q-25 0 -48.5 4t-45.5 11t-42.5 17.5t-39 24t-34.5 29.5t-29.5 34.5t-24.5 39.5t-18 43t-11 46t-4 49t4 49t11 46t18 43t24.5 39.5t29.5 34.5
t34.5 29.5t39 24t42.5 17.5t45.5 11t48.5 4t48.5 -4t45.5 -11t42.5 -17.5t39 -24t34.5 -29.5t29.5 -34.5t24.5 -39.5t18 -43t11 -46t4 -49t-4 -49t-11 -46t-18 -43t-24.5 -39.5t-29.5 -34.5t-34.5 -29.5t-39 -24t-42.5 -17.5t-45.5 -11t-48.5 -4zM324 351q0 46 31 77t74 31
q28 0 51 -12.5t38 -33.5l67 49q-28 35 -65.5 57t-90.5 22q-21 0 -40.5 -4t-37.5 -11t-34 -17t-29 -23t-23.5 -28t-18 -32.5t-11.5 -36t-4 -38.5t4 -38.5t11.5 -35.5t18 -32t23.5 -28t29 -23t34 -17t37.5 -11t40.5 -4q53 0 90.5 22t65.5 57l-67 48q-15 -20 -38 -32.5
t-51 -12.5q-43 0 -74 31.5t-31 75.5z" />
    <glyph glyph-name="ordfeminine" unicode="&#xaa;" horiz-adv-x="431" 
d="M28 430q0 -49 36 -82.5t92 -33.5q34 0 62 16.5t44 45.5q10 -24 32 -38t53 -14h51v95h-19q-10 0 -15.5 5.5t-5.5 15.5v127q0 63 -40 100.5t-106 37.5q-44 0 -85 -13t-71 -35l44 -81q25 14 48.5 21t45.5 7q28 0 42.5 -13t14.5 -36v-8l-96 -8q-62 -5 -94.5 -32.5
t-32.5 -76.5zM134 432q0 13 8.5 22t28.5 11l80 8v-14q0 -25 -20.5 -43t-47.5 -18q-22 0 -35.5 9t-13.5 25z" />
    <glyph glyph-name="guillemotleft" unicode="&#xab;" horiz-adv-x="676" 
d="M399 532h-141l-247 -265l247 -267h144l-243 268zM661 532h-141l-247 -265l247 -267h144l-243 268z" />
    <glyph glyph-name="registered" unicode="&#xae;" horiz-adv-x="472" 
d="M235 302q19 0 37 3.5t34.5 9.5t31.5 15t28.5 20t24.5 24.5t20 28.5t15 32t9.5 35t3.5 37t-3.5 37t-9.5 35t-15 32t-20 28.5t-24.5 24.5t-28.5 20t-31.5 15t-34.5 9.5t-37 3.5t-37 -3.5t-34.5 -9.5t-31.5 -15t-28.5 -20t-24.5 -24.5t-20 -28.5t-15 -32t-9.5 -35t-3.5 -37
t3.5 -37t9.5 -35t15 -32t20 -28.5t24.5 -24.5t28.5 -20t31.5 -15t34.5 -9.5t37 -3.5zM235 350q-65 0 -109.5 45.5t-44.5 111.5q0 65 44.5 111t109.5 46t110 -46t45 -111q0 -66 -45 -111.5t-110 -45.5zM162 415h49v73h17l39 -73h53l-47 82q15 7 23.5 19.5t8.5 28.5
q0 25 -16.5 41.5t-44.5 16.5h-82v-188zM235 566q12 0 18 -5.5t6 -15.5q0 -9 -6 -15.5t-19 -6.5h-23v43h24z" />
    <glyph glyph-name="macron" unicode="&#xaf;" horiz-adv-x="500" 
d="M389 702h-268v-87h268v87z" />
    <glyph glyph-name="degree" unicode="&#xb0;" horiz-adv-x="361" 
d="M181 420q59 0 101.5 43t42.5 104q0 57 -42 100t-102 43q-62 0 -104 -43t-42 -100q0 -61 42.5 -104t103.5 -43zM181 494q-29 0 -50 21.5t-21 51.5q0 28 21 48.5t50 20.5q28 0 48.5 -20.5t20.5 -48.5q0 -30 -20.5 -51.5t-48.5 -21.5z" />
    <glyph glyph-name="plusminus" unicode="&#xb1;" horiz-adv-x="553" 
d="M329 194v162h176v103h-176v158h-104v-158h-177v-103h177v-162h104zM505 103h-457v-103h457v103z" />
    <glyph glyph-name="twosuperior" unicode="&#xb2;" horiz-adv-x="332" 
d="M297 588q0 51 -37.5 85t-98.5 34q-50 0 -87 -22t-59 -63l71 -41q14 25 31 37t39 12t36 -13.5t14 -35.5q0 -15 -6.5 -29.5t-27.5 -36.5l-139 -142v-58h271v79l-143 -3l76 77q37 37 48.5 64.5t11.5 55.5z" />
    <glyph glyph-name="threesuperior" unicode="&#xb3;" horiz-adv-x="352" 
d="M176 707q-54 0 -92 -22t-57 -59l74 -38q11 20 27 31t38 11q23 0 37 -11.5t14 -29.5t-13 -30t-33 -12h-55v-73h62q23 0 37 -13t14 -29q0 -20 -16 -34t-43 -14q-25 0 -43.5 11t-30.5 31l-74 -40q19 -37 57 -58.5t94 -21.5q65 0 106 35.5t41 85.5q0 31 -19.5 55.5
t-50.5 36.5q26 12 41.5 33t15.5 47q0 46 -37.5 76.5t-93.5 31.5z" />
    <glyph glyph-name="acute" unicode="&#xb4;" horiz-adv-x="500" 
d="M248 743l-120 -148h128l139 148h-147z" />
    <glyph glyph-name="paragraph" unicode="&#xb6;" horiz-adv-x="633" 
d="M38 487q0 -22 4 -43t12.5 -40t19.5 -36t25.5 -31.5t31.5 -26t36.5 -19.5t40.5 -12t43 -4h41v-275h104v275h56v-275h104v700h-305q-22 0 -43 -4t-40.5 -12t-36.5 -19.5t-31.5 -26t-25.5 -31.5t-19.5 -36t-12.5 -40t-4 -44z" />
    <glyph glyph-name="periodcentered" unicode="&#xb7;" horiz-adv-x="259" 
d="M130 379q-32 0 -55 -22.5t-23 -55.5q0 -32 23 -54.5t55 -22.5t54.5 22.5t22.5 54.5q0 33 -22.5 55.5t-54.5 22.5z" />
    <glyph glyph-name="cedilla" unicode="&#xb8;" horiz-adv-x="500" 
d="M384 -133q0 34 -23 57t-61 28l19 55h-72l-33 -104h44q19 0 32.5 -9.5t13.5 -25.5q0 -14 -12 -25t-33 -11q-18 0 -33.5 7.5t-28.5 22.5l-53 -44q18 -24 50 -37.5t71 -13.5q50 0 84.5 28.5t34.5 71.5z" />
    <glyph glyph-name="onesuperior" unicode="&#xb9;" horiz-adv-x="306" 
d="M284 394h-87v306h-158v-79h68v-227h-86v-79h263v79z" />
    <glyph glyph-name="ordmasculine" unicode="&#xba;" horiz-adv-x="426" 
d="M392 494v34q0 83 -50 131.5t-130 48.5q-79 0 -128.5 -49t-49.5 -131v-34q0 -82 50 -131t128 -49q80 0 130 48.5t50 131.5zM284 525v-28q0 -41 -18.5 -64t-53.5 -23t-52.5 23t-17.5 64v28q0 40 17.5 63.5t52.5 23.5t53.5 -23.5t18.5 -63.5z" />
    <glyph glyph-name="guillemotright" unicode="&#xbb;" horiz-adv-x="676" 
d="M277 0h141l247 265l-247 267h-144l243 -268zM15 0h141l247 265l-247 267h-144l243 -268z" />
    <glyph glyph-name="onequarter" unicode="&#xbc;" horiz-adv-x="771" 
d="M284 394h-87v306h-158v-79h68v-227h-86v-79h263v79zM631 0h90v90h41v75h-41v220h-119l-155 -227v-68h184v-90zM540 165l91 137v-137h-91zM267 0l376 700h-102l-375 -700h101z" />
    <glyph glyph-name="onehalf" unicode="&#xbd;" horiz-adv-x="809" 
d="M284 394h-87v306h-158v-79h68v-227h-86v-79h263v79zM774 273q0 51 -37.5 85t-98.5 34q-50 0 -87 -22t-59 -63l71 -41q14 25 31 37t39 12t36 -13.5t14 -35.5q0 -15 -6.5 -29.5t-27.5 -36.5l-139 -142v-58h271v79l-143 -3l76 77q37 37 48.5 64.5t11.5 55.5zM262 0l376 700
h-102l-375 -700h101z" />
    <glyph glyph-name="threequarters" unicode="&#xbe;" horiz-adv-x="740" 
d="M176 707q-54 0 -92 -22t-57 -59l74 -38q11 20 27 31t38 11q23 0 37 -11.5t14 -29.5t-13 -30t-33 -12h-55v-73h62q23 0 37 -13t14 -29q0 -20 -16 -34t-43 -14q-25 0 -43.5 11t-30.5 31l-74 -40q19 -37 57 -58.5t94 -21.5q65 0 106 35.5t41 85.5q0 31 -19.5 55.5
t-50.5 36.5q26 12 41.5 33t15.5 47q0 46 -37.5 76.5t-93.5 31.5zM638 0h90v90h41v75h-41v220h-119l-155 -227v-68h184v-90zM547 165l91 137v-137h-91zM275 0l376 700h-102l-375 -700h101z" />
    <glyph glyph-name="questiondown" unicode="&#xbf;" horiz-adv-x="514" 
d="M37 203q0 -20 3.5 -38.5t10.5 -36t17 -33.5t23 -29.5t28.5 -25t33 -21t37 -15.5t40.5 -9.5t43 -3.5q78 0 133 31.5t95 82.5l-96 70q-22 -30 -55 -48t-73 -18q-44 0 -75.5 29t-31.5 73q0 40 31 68.5t75 28.5h57l-5 197h-104l-4 -95q-20 -2 -38 -8t-34.5 -14.5t-31.5 -20
t-27 -25.5t-21.5 -30t-16.5 -33.5t-10.5 -36.5t-3.5 -39zM276 567q31 0 52.5 21t21.5 52t-21.5 52t-52.5 21t-52 -21t-21 -52t21 -52t52 -21z" />
    <glyph glyph-name="Agrave" unicode="&#xc0;" horiz-adv-x="687" 
d="M431 700h-174l-260 -700h143l59 169h282l59 -169h150zM242 290l98 281l99 -281h-197zM312 925h-147l139 -148h128z" />
    <glyph glyph-name="Aacute" unicode="&#xc1;" horiz-adv-x="687" 
d="M431 700h-174l-260 -700h143l59 169h282l59 -169h150zM242 290l98 281l99 -281h-197zM377 925l-120 -148h128l139 148h-147z" />
    <glyph glyph-name="Acircumflex" unicode="&#xc2;" horiz-adv-x="687" 
d="M431 700h-174l-260 -700h143l59 169h282l59 -169h150zM242 290l98 281l99 -281h-197zM277 777l67 79l67 -79h118l-118 148h-132l-119 -148h117z" />
    <glyph glyph-name="Atilde" unicode="&#xc3;" horiz-adv-x="687" 
d="M431 700h-174l-260 -700h143l59 169h282l59 -169h150zM242 290l98 281l99 -281h-197zM275 910q-40 0 -69 -29.5t-43 -92.5l84 -17q7 31 17 42t22 11q5 0 10.5 -1.5t11.5 -4.5l13 -6.5t14.5 -7t15 -7.5t15.5 -7.5t15.5 -6.5t15.5 -4.5t15 -1.5q40 0 69 29.5t43 91.5
l-84 18q-7 -31 -17 -42t-22 -11q-5 0 -10.5 1.5t-11.5 4.5l-13 6.5t-14.5 7t-15 7.5t-15.5 7.5t-15.5 6.5t-15.5 4.5t-15 1.5z" />
    <glyph glyph-name="Adieresis" unicode="&#xc4;" horiz-adv-x="687" 
d="M431 700h-174l-260 -700h143l59 169h282l59 -169h150zM242 290l98 281l99 -281h-197zM237 770q31 0 53 22t22 53q0 32 -22 54t-53 22t-54 -22t-23 -54q0 -31 23 -53t54 -22zM452 770q31 0 53 22t22 53q0 32 -22 54t-53 22t-54 -22t-23 -54q0 -31 23 -53t54 -22z" />
    <glyph glyph-name="Aring" unicode="&#xc5;" horiz-adv-x="687" 
d="M431 700h-174l-260 -700h143l59 169h282l59 -169h150zM242 290l98 281l99 -281h-197zM344 754q48 0 82 33.5t34 80.5q0 46 -34 79t-82 33t-82 -33t-34 -79q0 -48 33.5 -81t82.5 -33zM344 813q-23 0 -39 16t-16 39q0 22 16 37.5t39 15.5t39 -15.5t16 -37.5t-16 -38.5
t-39 -16.5z" />
    <glyph glyph-name="AE" unicode="&#xc6;" horiz-adv-x="1032" 
d="M979 121h-330v171h320v119h-320v168h330v121h-534l-445 -700h161l96 160h253v-160h469v121zM330 281l180 299v-299h-180z" />
    <glyph glyph-name="Ccedilla" unicode="&#xc7;" horiz-adv-x="705" 
d="M667 439q-3 31 -11 59.5t-20.5 53.5t-28.5 46.5t-35.5 39.5t-42.5 32t-49 23.5t-54 14.5t-59 5t-60 -4.5t-55 -14t-49.5 -22.5t-43.5 -30.5t-37 -38t-30 -45t-22 -51.5t-13.5 -57t-4.5 -62v-75q0 -34 5 -65.5t15 -60t24.5 -53.5t33.5 -46.5t41 -38.5t48 -29.5t54.5 -20.5
t60.5 -11l-27 -85h44q19 0 32.5 -9.5t13.5 -25.5q0 -14 -12 -25t-33 -11q-18 0 -33.5 7.5t-28.5 22.5l-53 -44q18 -24 50 -37.5t71 -13.5q50 0 84.5 28.5t34.5 71.5q0 34 -23 57t-61 28l13 37q104 12 176 85t85 187h-135q-11 -70 -56 -109t-109 -39q-77 0 -125.5 54
t-48.5 151v65q0 96 48 150t126 54q64 0 109 -39t56 -109h135z" />
    <glyph glyph-name="Egrave" unicode="&#xc8;" horiz-adv-x="609" 
d="M77 0h479v121h-340v170h330v119h-330v169h340v121h-479v-700zM291 925h-147l139 -148h128z" />
    <glyph glyph-name="Eacute" unicode="&#xc9;" horiz-adv-x="609" 
d="M77 0h479v121h-340v170h330v119h-330v169h340v121h-479v-700zM356 925l-120 -148h128l139 148h-147z" />
    <glyph glyph-name="Ecircumflex" unicode="&#xca;" horiz-adv-x="609" 
d="M77 0h479v121h-340v170h330v119h-330v169h340v121h-479v-700zM256 777l67 79l67 -79h118l-118 148h-132l-119 -148h117z" />
    <glyph glyph-name="Edieresis" unicode="&#xcb;" horiz-adv-x="609" 
d="M77 0h479v121h-340v170h330v119h-330v169h340v121h-479v-700zM217 770q31 0 53 22t22 53q0 32 -22 54t-53 22t-54 -22t-23 -54q0 -31 23 -53t54 -22zM432 770q31 0 53 22t22 53q0 32 -22 54t-53 22t-54 -22t-23 -54q0 -31 23 -53t54 -22z" />
    <glyph glyph-name="Igrave" unicode="&#xcc;" horiz-adv-x="293" 
d="M216 0v700h-139v-700h139zM114 925h-147l139 -148h128z" />
    <glyph glyph-name="Iacute" unicode="&#xcd;" horiz-adv-x="293" 
d="M216 0v700h-139v-700h139zM179 925l-120 -148h128l139 148h-147z" />
    <glyph glyph-name="Icircumflex" unicode="&#xce;" horiz-adv-x="293" 
d="M216 0v700h-139v-700h139zM79 777l67 79l67 -79h118l-118 148h-132l-119 -148h117z" />
    <glyph glyph-name="Idieresis" unicode="&#xcf;" horiz-adv-x="293" 
d="M216 0v700h-139v-700h139zM40 770q31 0 53 22t22 53q0 32 -22 54t-53 22t-54 -22t-23 -54q0 -31 23 -53t54 -22zM255 770q31 0 53 22t22 53q0 32 -22 54t-53 22t-54 -22t-23 -54q0 -31 23 -53t54 -22z" />
    <glyph glyph-name="Eth" unicode="&#xd0;" horiz-adv-x="741" 
d="M8 291h89v-291h276q31 0 60 4.5t55 13.5t49.5 21.5t44 29.5t37 37t30 43t22.5 49t13.5 55t4.5 60v75q0 31 -4.5 59.5t-13.5 54.5t-22.5 49.5t-30 43.5t-37 36.5t-44 29t-49.5 21.5t-55 13.5t-60 4.5h-276v-291h-89v-118zM365 579q81 0 132 -52.5t51 -148.5v-55
q0 -97 -51.5 -149.5t-131.5 -52.5h-129v170h131v118h-131v170h129z" />
    <glyph glyph-name="Ntilde" unicode="&#xd1;" horiz-adv-x="764" 
d="M206 0l1 501l332 -501h148v700h-129l-1 -501l-332 501h-148v-700h129zM313 910q-40 0 -69 -29.5t-43 -92.5l84 -17q7 31 17 42t22 11q5 0 10.5 -1.5t11.5 -4.5l13 -6.5t14.5 -7t15 -7.5t15.5 -7.5t15.5 -6.5t15.5 -4.5t15 -1.5q40 0 69 29.5t43 91.5l-84 18
q-7 -31 -17 -42t-22 -11q-5 0 -10.5 1.5t-11.5 4.5l-13 6.5t-14.5 7t-15 7.5t-15.5 7.5t-15.5 6.5t-15.5 4.5t-15 1.5z" />
    <glyph glyph-name="Ograve" unicode="&#xd2;" horiz-adv-x="752" 
d="M52 388v-75q0 -33 5 -63t14 -57t22.5 -51t30.5 -45t38 -38t45 -30.5t51 -23t56.5 -14t61.5 -4.5t61.5 4.5t56.5 14t51 23t45 30.5t38 38t30.5 45t22.5 51t14 57t5 63v75q0 32 -5 62t-14 57t-22.5 51.5t-30.5 45t-38 38t-45 30.5t-51 22.5t-56.5 14t-61.5 4.5t-61.5 -4.5
t-56.5 -14t-51 -22.5t-45 -30.5t-38 -38t-30.5 -45t-22.5 -51.5t-14 -57t-5 -62zM193 383q0 96 51 150t132 54t132 -54t51 -150v-65q0 -97 -51.5 -151t-131.5 -54q-81 0 -132 54t-51 151v65zM344 925h-147l139 -148h128z" />
    <glyph glyph-name="Oacute" unicode="&#xd3;" horiz-adv-x="752" 
d="M52 388v-75q0 -33 5 -63t14 -57t22.5 -51t30.5 -45t38 -38t45 -30.5t51 -23t56.5 -14t61.5 -4.5t61.5 4.5t56.5 14t51 23t45 30.5t38 38t30.5 45t22.5 51t14 57t5 63v75q0 32 -5 62t-14 57t-22.5 51.5t-30.5 45t-38 38t-45 30.5t-51 22.5t-56.5 14t-61.5 4.5t-61.5 -4.5
t-56.5 -14t-51 -22.5t-45 -30.5t-38 -38t-30.5 -45t-22.5 -51.5t-14 -57t-5 -62zM193 383q0 96 51 150t132 54t132 -54t51 -150v-65q0 -97 -51.5 -151t-131.5 -54q-81 0 -132 54t-51 151v65zM409 925l-120 -148h128l139 148h-147z" />
    <glyph glyph-name="Ocircumflex" unicode="&#xd4;" horiz-adv-x="752" 
d="M52 388v-75q0 -33 5 -63t14 -57t22.5 -51t30.5 -45t38 -38t45 -30.5t51 -23t56.5 -14t61.5 -4.5t61.5 4.5t56.5 14t51 23t45 30.5t38 38t30.5 45t22.5 51t14 57t5 63v75q0 32 -5 62t-14 57t-22.5 51.5t-30.5 45t-38 38t-45 30.5t-51 22.5t-56.5 14t-61.5 4.5t-61.5 -4.5
t-56.5 -14t-51 -22.5t-45 -30.5t-38 -38t-30.5 -45t-22.5 -51.5t-14 -57t-5 -62zM193 383q0 96 51 150t132 54t132 -54t51 -150v-65q0 -97 -51.5 -151t-131.5 -54q-81 0 -132 54t-51 151v65zM309 777l67 79l67 -79h118l-118 148h-132l-119 -148h117z" />
    <glyph glyph-name="Otilde" unicode="&#xd5;" horiz-adv-x="752" 
d="M52 388v-75q0 -33 5 -63t14 -57t22.5 -51t30.5 -45t38 -38t45 -30.5t51 -23t56.5 -14t61.5 -4.5t61.5 4.5t56.5 14t51 23t45 30.5t38 38t30.5 45t22.5 51t14 57t5 63v75q0 32 -5 62t-14 57t-22.5 51.5t-30.5 45t-38 38t-45 30.5t-51 22.5t-56.5 14t-61.5 4.5t-61.5 -4.5
t-56.5 -14t-51 -22.5t-45 -30.5t-38 -38t-30.5 -45t-22.5 -51.5t-14 -57t-5 -62zM193 383q0 96 51 150t132 54t132 -54t51 -150v-65q0 -97 -51.5 -151t-131.5 -54q-81 0 -132 54t-51 151v65zM307 910q-40 0 -69 -29.5t-43 -92.5l84 -17q7 31 17 42t22 11q5 0 10.5 -1.5
t11.5 -4.5l13 -6.5t14.5 -7t15 -7.5t15.5 -7.5t15.5 -6.5t15.5 -4.5t15 -1.5q40 0 69 29.5t43 91.5l-84 18q-7 -31 -17 -42t-22 -11q-5 0 -10.5 1.5t-11.5 4.5l-13 6.5t-14.5 7t-15 7.5t-15.5 7.5t-15.5 6.5t-15.5 4.5t-15 1.5z" />
    <glyph glyph-name="Odieresis" unicode="&#xd6;" horiz-adv-x="752" 
d="M52 388v-75q0 -33 5 -63t14 -57t22.5 -51t30.5 -45t38 -38t45 -30.5t51 -23t56.5 -14t61.5 -4.5t61.5 4.5t56.5 14t51 23t45 30.5t38 38t30.5 45t22.5 51t14 57t5 63v75q0 32 -5 62t-14 57t-22.5 51.5t-30.5 45t-38 38t-45 30.5t-51 22.5t-56.5 14t-61.5 4.5t-61.5 -4.5
t-56.5 -14t-51 -22.5t-45 -30.5t-38 -38t-30.5 -45t-22.5 -51.5t-14 -57t-5 -62zM193 383q0 96 51 150t132 54t132 -54t51 -150v-65q0 -97 -51.5 -151t-131.5 -54q-81 0 -132 54t-51 151v65zM270 770q31 0 53 22t22 53q0 32 -22 54t-53 22t-54 -22t-23 -54q0 -31 23 -53
t54 -22zM485 770q31 0 53 22t22 53q0 32 -22 54t-53 22t-54 -22t-23 -54q0 -31 23 -53t54 -22z" />
    <glyph glyph-name="multiply" unicode="&#xd7;" horiz-adv-x="525" 
d="M114 143l148 150l148 -151l67 67l-149 151l148 150l-65 65l-148 -150l-148 151l-67 -67l149 -151l-148 -150z" />
    <glyph glyph-name="Oslash" unicode="&#xd8;" horiz-adv-x="752" 
d="M52 0h124l25 31q37 -21 81.5 -32.5t93.5 -11.5q32 0 61.5 4.5t56.5 14t51 23t45 30.5t38 38t30.5 45t22.5 51t14 57t5 63v75q0 55 -14 103.5t-40 87.5l98 121h-124l-41 -50q-40 30 -91.5 46.5t-111.5 16.5q-32 0 -61.5 -4.5t-56.5 -14t-51 -22.5t-45 -30.5t-38 -38
t-30.5 -45t-22.5 -51.5t-14 -57t-5 -62v-75q0 -66 20 -122t55 -98zM193 383q0 96 51 150t132 54q35 0 65.5 -10.5t53.5 -30.5l-277 -342q-12 23 -18.5 51.5t-6.5 62.5v65zM559 383v-65q0 -97 -51.5 -151t-131.5 -54q-25 0 -48.5 5.5t-42.5 16.5l264 324q4 -16 7 -35.5
t3 -40.5z" />
    <glyph glyph-name="Ugrave" unicode="&#xd9;" horiz-adv-x="726" 
d="M206 275v425h-139v-435q0 -31 5 -59.5t14.5 -54t23.5 -47.5t31.5 -40.5t38 -32.5t44 -24t49.5 -15t54 -5q56 0 103.5 23.5t80.5 64.5v-75h138v700h-139v-425q0 -74 -43.5 -120t-108.5 -46q-64 0 -108 44t-44 122zM326 925h-147l139 -148h128z" />
    <glyph glyph-name="Uacute" unicode="&#xda;" horiz-adv-x="726" 
d="M206 275v425h-139v-435q0 -31 5 -59.5t14.5 -54t23.5 -47.5t31.5 -40.5t38 -32.5t44 -24t49.5 -15t54 -5q56 0 103.5 23.5t80.5 64.5v-75h138v700h-139v-425q0 -74 -43.5 -120t-108.5 -46q-64 0 -108 44t-44 122zM391 925l-120 -148h128l139 148h-147z" />
    <glyph glyph-name="Ucircumflex" unicode="&#xdb;" horiz-adv-x="726" 
d="M206 275v425h-139v-435q0 -31 5 -59.5t14.5 -54t23.5 -47.5t31.5 -40.5t38 -32.5t44 -24t49.5 -15t54 -5q56 0 103.5 23.5t80.5 64.5v-75h138v700h-139v-425q0 -74 -43.5 -120t-108.5 -46q-64 0 -108 44t-44 122zM291 777l67 79l67 -79h118l-118 148h-132l-119 -148h117z
" />
    <glyph glyph-name="Udieresis" unicode="&#xdc;" horiz-adv-x="726" 
d="M206 275v425h-139v-435q0 -31 5 -59.5t14.5 -54t23.5 -47.5t31.5 -40.5t38 -32.5t44 -24t49.5 -15t54 -5q56 0 103.5 23.5t80.5 64.5v-75h138v700h-139v-425q0 -74 -43.5 -120t-108.5 -46q-64 0 -108 44t-44 122zM252 770q31 0 53 22t22 53q0 32 -22 54t-53 22t-54 -22
t-23 -54q0 -31 23 -53t54 -22zM467 770q31 0 53 22t22 53q0 32 -22 54t-53 22t-54 -22t-23 -54q0 -31 23 -53t54 -22z" />
    <glyph glyph-name="Yacute" unicode="&#xdd;" horiz-adv-x="675" 
d="M407 0v280l275 420h-162l-181 -283l-180 283h-166l275 -419v-281h139zM371 925l-120 -148h128l139 148h-147z" />
    <glyph glyph-name="Thorn" unicode="&#xde;" horiz-adv-x="633" 
d="M216 700h-139v-700h139v133h156q21 0 40.5 3.5t38 10t35 15.5t31 21t26.5 26t22 30.5t16.5 34t10 37t3.5 39.5t-3.5 39.5t-10 37.5t-16.5 34t-22 30.5t-26.5 26t-31 21t-35 16t-38 10t-40.5 3.5h-156v132zM357 447q43 0 69.5 -28t26.5 -71q0 -42 -26.5 -70.5t-69.5 -28.5
h-141v198h141z" />
    <glyph glyph-name="germandbls" unicode="&#xdf;" horiz-adv-x="704" 
d="M428 378l78 44q37 21 58.5 51.5t21.5 77.5q0 19 -4.5 36.5t-13.5 33.5t-22 30t-29.5 25.5t-36 20.5t-41.5 15.5t-46.5 10t-50.5 3.5q-29 0 -56.5 -4.5t-52 -13t-46 -21t-39.5 -29t-32.5 -37t-24.5 -45t-15 -52.5t-5 -60v-464h135v464q0 66 38.5 105.5t98.5 39.5
q49 0 79 -19t30 -47q0 -16 -9.5 -30t-30.5 -26l-49 -28q-34 -19 -54.5 -45.5t-20.5 -68.5q0 -52 32 -83t97 -50l73 -22q25 -7 36.5 -20t11.5 -29q0 -23 -16.5 -38t-48.5 -15q-29 0 -50 15.5t-30 49.5h-127q14 -69 68 -117t145 -48q88 0 138 46.5t50 114.5q0 58 -34.5 93
t-104.5 58l-88 29q-13 4 -20.5 9.5t-7.5 15.5q0 7 4.5 13.5t11.5 10.5z" />
    <glyph glyph-name="agrave" unicode="&#xe0;" horiz-adv-x="573" 
d="M30 151q0 -69 51.5 -115.5t129.5 -46.5q49 0 89.5 23.5t62.5 63.5q12 -35 41.5 -55.5t72.5 -20.5h64v116h-27q-15 0 -23 8t-8 23v207q0 86 -55.5 137.5t-148.5 51.5q-58 0 -110 -17t-100 -52l57 -99q34 23 68 35t68 12q43 0 66.5 -21.5t23.5 -61.5v-20l-145 -11
q-84 -7 -130.5 -46.5t-46.5 -110.5zM160 155q0 25 16 39.5t50 17.5l126 11v-31q0 -41 -32.5 -69.5t-77.5 -28.5q-37 0 -59.5 16.5t-22.5 44.5zM243 756h-147l139 -148h128z" />
    <glyph glyph-name="aacute" unicode="&#xe1;" horiz-adv-x="573" 
d="M30 151q0 -69 51.5 -115.5t129.5 -46.5q49 0 89.5 23.5t62.5 63.5q12 -35 41.5 -55.5t72.5 -20.5h64v116h-27q-15 0 -23 8t-8 23v207q0 86 -55.5 137.5t-148.5 51.5q-58 0 -110 -17t-100 -52l57 -99q34 23 68 35t68 12q43 0 66.5 -21.5t23.5 -61.5v-20l-145 -11
q-84 -7 -130.5 -46.5t-46.5 -110.5zM160 155q0 25 16 39.5t50 17.5l126 11v-31q0 -41 -32.5 -69.5t-77.5 -28.5q-37 0 -59.5 16.5t-22.5 44.5zM308 756l-120 -148h128l139 148h-147z" />
    <glyph glyph-name="acircumflex" unicode="&#xe2;" horiz-adv-x="573" 
d="M30 151q0 -69 51.5 -115.5t129.5 -46.5q49 0 89.5 23.5t62.5 63.5q12 -35 41.5 -55.5t72.5 -20.5h64v116h-27q-15 0 -23 8t-8 23v207q0 86 -55.5 137.5t-148.5 51.5q-58 0 -110 -17t-100 -52l57 -99q34 23 68 35t68 12q43 0 66.5 -21.5t23.5 -61.5v-20l-145 -11
q-84 -7 -130.5 -46.5t-46.5 -110.5zM160 155q0 25 16 39.5t50 17.5l126 11v-31q0 -41 -32.5 -69.5t-77.5 -28.5q-37 0 -59.5 16.5t-22.5 44.5zM208 608l67 79l67 -79h118l-118 148h-132l-119 -148h117z" />
    <glyph glyph-name="atilde" unicode="&#xe3;" horiz-adv-x="573" 
d="M30 151q0 -69 51.5 -115.5t129.5 -46.5q49 0 89.5 23.5t62.5 63.5q12 -35 41.5 -55.5t72.5 -20.5h64v116h-27q-15 0 -23 8t-8 23v207q0 86 -55.5 137.5t-148.5 51.5q-58 0 -110 -17t-100 -52l57 -99q34 23 68 35t68 12q43 0 66.5 -21.5t23.5 -61.5v-20l-145 -11
q-84 -7 -130.5 -46.5t-46.5 -110.5zM160 155q0 25 16 39.5t50 17.5l126 11v-31q0 -41 -32.5 -69.5t-77.5 -28.5q-37 0 -59.5 16.5t-22.5 44.5zM206 741q-40 0 -69 -29.5t-43 -92.5l84 -17q7 31 17 42t22 11q5 0 10.5 -1.5t11.5 -4.5l13 -6.5t14.5 -7t15 -7.5t15.5 -7.5
t15.5 -6.5t15.5 -4.5t15 -1.5q40 0 69 29.5t43 91.5l-84 18q-7 -31 -17 -42t-22 -11q-5 0 -10.5 1.5t-11.5 4.5l-13 6.5t-14.5 7t-15 7.5t-15.5 7.5t-15.5 6.5t-15.5 4.5t-15 1.5z" />
    <glyph glyph-name="adieresis" unicode="&#xe4;" horiz-adv-x="573" 
d="M30 151q0 -69 51.5 -115.5t129.5 -46.5q49 0 89.5 23.5t62.5 63.5q12 -35 41.5 -55.5t72.5 -20.5h64v116h-27q-15 0 -23 8t-8 23v207q0 86 -55.5 137.5t-148.5 51.5q-58 0 -110 -17t-100 -52l57 -99q34 23 68 35t68 12q43 0 66.5 -21.5t23.5 -61.5v-20l-145 -11
q-84 -7 -130.5 -46.5t-46.5 -110.5zM160 155q0 25 16 39.5t50 17.5l126 11v-31q0 -41 -32.5 -69.5t-77.5 -28.5q-37 0 -59.5 16.5t-22.5 44.5zM168 601q31 0 53 22t22 53q0 32 -22 54t-53 22t-54 -22t-23 -54q0 -31 23 -53t54 -22zM383 601q31 0 53 22t22 53q0 32 -22 54
t-53 22t-54 -22t-23 -54q0 -31 23 -53t54 -22z" />
    <glyph glyph-name="aring" unicode="&#xe5;" horiz-adv-x="573" 
d="M30 151q0 -69 51.5 -115.5t129.5 -46.5q49 0 89.5 23.5t62.5 63.5q12 -35 41.5 -55.5t72.5 -20.5h64v116h-27q-15 0 -23 8t-8 23v207q0 86 -55.5 137.5t-148.5 51.5q-58 0 -110 -17t-100 -52l57 -99q34 23 68 35t68 12q43 0 66.5 -21.5t23.5 -61.5v-20l-145 -11
q-84 -7 -130.5 -46.5t-46.5 -110.5zM160 155q0 25 16 39.5t50 17.5l126 11v-31q0 -41 -32.5 -69.5t-77.5 -28.5q-37 0 -59.5 16.5t-22.5 44.5zM275 585q48 0 82 33.5t34 80.5q0 46 -34 79t-82 33t-82 -33t-34 -79q0 -48 33.5 -81t82.5 -33zM275 644q-23 0 -39 16t-16 39
q0 22 16 37.5t39 15.5t39 -15.5t16 -37.5t-16 -38.5t-39 -16.5z" />
    <glyph glyph-name="ae" unicode="&#xe6;" horiz-adv-x="872" 
d="M818 77l-81 80q-27 -27 -57.5 -40.5t-66.5 -13.5q-53 0 -85 31.5t-36 88.5h337v71q0 28 -4 53.5t-12 48.5t-20 42.5t-27 36.5t-32.5 30t-38 22t-43.5 13.5t-48 4.5q-52 0 -95 -18.5t-73 -52.5q-25 33 -64 51t-89 18q-61 0 -116 -18t-97 -51l56 -99q34 23 68 35t68 12
q46 0 70.5 -22t24.5 -61v-21l-150 -11q-84 -6 -130.5 -45t-46.5 -109t55 -117.5t139 -47.5q63 0 114 26t79 71q31 -46 80 -71.5t112 -25.5q68 0 119.5 23.5t89.5 65.5zM598 429q44 0 71.5 -27.5t31.5 -77.5h-208q6 51 33.5 78t71.5 27zM160 155q0 22 16 35.5t50 16.5l131 11
v-29q0 -40 -33.5 -67.5t-79.5 -27.5q-37 0 -60.5 16.5t-23.5 44.5z" />
    <glyph glyph-name="ccedilla" unicode="&#xe7;" horiz-adv-x="554" 
d="M398 -133q0 34 -23 57t-61 28l13 37q79 10 133 65t66 139h-130q-10 -42 -36.5 -65.5t-68.5 -23.5q-54 0 -83 37.5t-29 100.5v48q0 63 29 100.5t83 37.5q42 0 68.5 -24t36.5 -66h130q-13 95 -76 151t-159 56q-27 0 -52 -4.5t-47 -13t-41.5 -21.5t-35.5 -29.5t-28.5 -36
t-21.5 -42.5t-13.5 -49t-4.5 -55v-56q0 -104 57.5 -171t150.5 -78l-27 -86h44q19 0 32.5 -9.5t13.5 -25.5q0 -14 -12 -25t-33 -11q-18 0 -33.5 7.5t-28.5 22.5l-53 -44q18 -24 50 -37.5t71 -13.5q50 0 84.5 28.5t34.5 71.5z" />
    <glyph glyph-name="egrave" unicode="&#xe8;" horiz-adv-x="558" 
d="M47 240q0 -114 69 -183t179 -69q68 0 119.5 23.5t89.5 65.5l-81 80q-27 -27 -57.5 -40.5t-66.5 -13.5q-53 0 -85 31.5t-36 88.5h337v71q0 28 -4 53.5t-12 48.5t-20 42.5t-27 36.5t-32.5 30t-38 22t-43.5 13.5t-48 4.5q-109 0 -176 -70t-67 -183v-52zM179 324
q6 51 33.5 78t71.5 27t71.5 -27.5t31.5 -77.5h-208zM254 757h-147l139 -148h128z" />
    <glyph glyph-name="eacute" unicode="&#xe9;" horiz-adv-x="558" 
d="M47 240q0 -114 69 -183t179 -69q68 0 119.5 23.5t89.5 65.5l-81 80q-27 -27 -57.5 -40.5t-66.5 -13.5q-53 0 -85 31.5t-36 88.5h337v71q0 28 -4 53.5t-12 48.5t-20 42.5t-27 36.5t-32.5 30t-38 22t-43.5 13.5t-48 4.5q-109 0 -176 -70t-67 -183v-52zM179 324
q6 51 33.5 78t71.5 27t71.5 -27.5t31.5 -77.5h-208zM319 757l-120 -148h128l139 148h-147z" />
    <glyph glyph-name="ecircumflex" unicode="&#xea;" horiz-adv-x="558" 
d="M47 240q0 -114 69 -183t179 -69q68 0 119.5 23.5t89.5 65.5l-81 80q-27 -27 -57.5 -40.5t-66.5 -13.5q-53 0 -85 31.5t-36 88.5h337v71q0 28 -4 53.5t-12 48.5t-20 42.5t-27 36.5t-32.5 30t-38 22t-43.5 13.5t-48 4.5q-109 0 -176 -70t-67 -183v-52zM179 324
q6 51 33.5 78t71.5 27t71.5 -27.5t31.5 -77.5h-208zM219 609l67 79l67 -79h118l-118 148h-132l-119 -148h117z" />
    <glyph glyph-name="edieresis" unicode="&#xeb;" horiz-adv-x="558" 
d="M47 240q0 -114 69 -183t179 -69q68 0 119.5 23.5t89.5 65.5l-81 80q-27 -27 -57.5 -40.5t-66.5 -13.5q-53 0 -85 31.5t-36 88.5h337v71q0 28 -4 53.5t-12 48.5t-20 42.5t-27 36.5t-32.5 30t-38 22t-43.5 13.5t-48 4.5q-109 0 -176 -70t-67 -183v-52zM179 324
q6 51 33.5 78t71.5 27t71.5 -27.5t31.5 -77.5h-208zM180 602q31 0 53 22t22 53q0 32 -22 54t-53 22t-54 -22t-23 -54q0 -31 23 -53t54 -22zM395 602q31 0 53 22t22 53q0 32 -22 54t-53 22t-54 -22t-23 -54q0 -31 23 -53t54 -22z" />
    <glyph glyph-name="igrave" unicode="&#xec;" horiz-adv-x="276" 
d="M205 532h-134v-532h134v532zM106 757h-147l139 -148h128z" />
    <glyph glyph-name="iacute" unicode="&#xed;" horiz-adv-x="276" 
d="M205 532h-134v-532h134v532zM171 757l-120 -148h128l139 148h-147z" />
    <glyph glyph-name="icircumflex" unicode="&#xee;" horiz-adv-x="276" 
d="M205 532h-134v-532h134v532zM71 609l67 79l67 -79h118l-118 148h-132l-119 -148h117z" />
    <glyph glyph-name="idieresis" unicode="&#xef;" horiz-adv-x="276" 
d="M205 532h-134v-532h134v532zM31 602q31 0 53 22t22 53q0 32 -22 54t-53 22t-54 -22t-23 -54q0 -31 23 -53t54 -22zM246 602q31 0 53 22t22 53q0 32 -22 54t-53 22t-54 -22t-23 -54q0 -31 23 -53t54 -22z" />
    <glyph glyph-name="eth" unicode="&#xf0;" horiz-adv-x="593" 
d="M47 233q0 -28 4.5 -53.5t13.5 -48t22 -42t29.5 -35.5t36 -28.5t42.5 -21t48 -13t53 -4.5t53 4.5t48 13t43 21t36.5 29t29.5 36.5t22 44t13.5 51t4.5 57v88q0 97 -34 181.5t-97 149.5l74 48l-49 64l-88 -58q-27 19 -57 36.5t-64 30.5l-50 -99q19 -7 36.5 -15.5t33.5 -18.5
l-57 -37l48 -64l75 49q29 -29 51 -63.5t34 -71.5q-25 27 -60.5 41.5t-76.5 14.5q-95 0 -156.5 -64t-61.5 -171v-51zM414 237q0 -61 -31 -97t-87 -36t-86.5 36t-30.5 97v43q0 60 30.5 96.5t86.5 36.5t87 -36.5t31 -96.5v-43z" />
    <glyph glyph-name="ntilde" unicode="&#xf1;" 
d="M552 346q0 21 -3.5 40.5t-10 37.5t-16 34t-22 29.5t-27.5 24t-32.5 18t-37 11.5t-40.5 4q-50 0 -92 -27t-66 -73v87h-134v-532h134v315q0 47 30 78.5t77 31.5q48 0 77 -32t29 -78v-315h134v346zM243 742q-40 0 -69 -29.5t-43 -92.5l84 -17q7 31 17 42t22 11
q5 0 10.5 -1.5t11.5 -4.5l13 -6.5t14.5 -7t15 -7.5t15.5 -7.5t15.5 -6.5t15.5 -4.5t15 -1.5q40 0 69 29.5t43 91.5l-84 18q-7 -31 -17 -42t-22 -11q-5 0 -10.5 1.5t-11.5 4.5l-13 6.5t-14.5 7t-15 7.5t-15.5 7.5t-15.5 6.5t-15.5 4.5t-15 1.5z" />
    <glyph glyph-name="ograve" unicode="&#xf2;" horiz-adv-x="589" 
d="M542 238v56q0 29 -4.5 55t-13.5 49t-22 43t-29.5 36.5t-36 29t-42 21t-48 13t-52.5 4.5t-52.5 -4.5t-48 -13t-42 -21.5t-36 -29.5t-29 -36t-21.5 -42.5t-13.5 -49t-4.5 -55v-56q0 -29 4.5 -55t13.5 -49t22 -42.5t29.5 -36t36 -29.5t42 -21.5t47.5 -13t52 -4.5t52.5 4.5
t48 13t42 21t36 29t29.5 36.5t22 43t13.5 49t4.5 55zM410 290v-48q0 -63 -30.5 -100.5t-85.5 -37.5t-85 37.5t-30 100.5v48q0 63 30 100.5t85 37.5t85.5 -37.5t30.5 -100.5zM262 757h-147l139 -148h128z" />
    <glyph glyph-name="oacute" unicode="&#xf3;" horiz-adv-x="589" 
d="M542 238v56q0 29 -4.5 55t-13.5 49t-22 43t-29.5 36.5t-36 29t-42 21t-48 13t-52.5 4.5t-52.5 -4.5t-48 -13t-42 -21.5t-36 -29.5t-29 -36t-21.5 -42.5t-13.5 -49t-4.5 -55v-56q0 -29 4.5 -55t13.5 -49t22 -42.5t29.5 -36t36 -29.5t42 -21.5t47.5 -13t52 -4.5t52.5 4.5
t48 13t42 21t36 29t29.5 36.5t22 43t13.5 49t4.5 55zM410 290v-48q0 -63 -30.5 -100.5t-85.5 -37.5t-85 37.5t-30 100.5v48q0 63 30 100.5t85 37.5t85.5 -37.5t30.5 -100.5zM327 757l-120 -148h128l139 148h-147z" />
    <glyph glyph-name="ocircumflex" unicode="&#xf4;" horiz-adv-x="589" 
d="M542 238v56q0 29 -4.5 55t-13.5 49t-22 43t-29.5 36.5t-36 29t-42 21t-48 13t-52.5 4.5t-52.5 -4.5t-48 -13t-42 -21.5t-36 -29.5t-29 -36t-21.5 -42.5t-13.5 -49t-4.5 -55v-56q0 -29 4.5 -55t13.5 -49t22 -42.5t29.5 -36t36 -29.5t42 -21.5t47.5 -13t52 -4.5t52.5 4.5
t48 13t42 21t36 29t29.5 36.5t22 43t13.5 49t4.5 55zM410 290v-48q0 -63 -30.5 -100.5t-85.5 -37.5t-85 37.5t-30 100.5v48q0 63 30 100.5t85 37.5t85.5 -37.5t30.5 -100.5zM227 609l67 79l67 -79h118l-118 148h-132l-119 -148h117z" />
    <glyph glyph-name="otilde" unicode="&#xf5;" horiz-adv-x="589" 
d="M542 238v56q0 29 -4.5 55t-13.5 49t-22 43t-29.5 36.5t-36 29t-42 21t-48 13t-52.5 4.5t-52.5 -4.5t-48 -13t-42 -21.5t-36 -29.5t-29 -36t-21.5 -42.5t-13.5 -49t-4.5 -55v-56q0 -29 4.5 -55t13.5 -49t22 -42.5t29.5 -36t36 -29.5t42 -21.5t47.5 -13t52 -4.5t52.5 4.5
t48 13t42 21t36 29t29.5 36.5t22 43t13.5 49t4.5 55zM410 290v-48q0 -63 -30.5 -100.5t-85.5 -37.5t-85 37.5t-30 100.5v48q0 63 30 100.5t85 37.5t85.5 -37.5t30.5 -100.5zM225 742q-40 0 -69 -29.5t-43 -92.5l84 -17q7 31 17 42t22 11q5 0 10.5 -1.5t11.5 -4.5l13 -6.5
t14.5 -7t15 -7.5t15.5 -7.5t15.5 -6.5t15.5 -4.5t15 -1.5q40 0 69 29.5t43 91.5l-84 18q-7 -31 -17 -42t-22 -11q-5 0 -10.5 1.5t-11.5 4.5l-13 6.5t-14.5 7t-15 7.5t-15.5 7.5t-15.5 6.5t-15.5 4.5t-15 1.5z" />
    <glyph glyph-name="odieresis" unicode="&#xf6;" horiz-adv-x="589" 
d="M542 238v56q0 29 -4.5 55t-13.5 49t-22 43t-29.5 36.5t-36 29t-42 21t-48 13t-52.5 4.5t-52.5 -4.5t-48 -13t-42 -21.5t-36 -29.5t-29 -36t-21.5 -42.5t-13.5 -49t-4.5 -55v-56q0 -29 4.5 -55t13.5 -49t22 -42.5t29.5 -36t36 -29.5t42 -21.5t47.5 -13t52 -4.5t52.5 4.5
t48 13t42 21t36 29t29.5 36.5t22 43t13.5 49t4.5 55zM410 290v-48q0 -63 -30.5 -100.5t-85.5 -37.5t-85 37.5t-30 100.5v48q0 63 30 100.5t85 37.5t85.5 -37.5t30.5 -100.5zM188 602q31 0 53 22t22 53q0 32 -22 54t-53 22t-54 -22t-23 -54q0 -31 23 -53t54 -22zM403 602
q31 0 53 22t22 53q0 32 -22 54t-53 22t-54 -22t-23 -54q0 -31 23 -53t54 -22z" />
    <glyph glyph-name="divide" unicode="&#xf7;" horiz-adv-x="550" 
d="M276 649q-32 0 -55 -22.5t-23 -55.5q0 -32 23 -54.5t55 -22.5t54.5 22.5t22.5 54.5q0 33 -22.5 55.5t-54.5 22.5zM502 317v97h-454v-97h454zM276 239q-32 0 -55 -22.5t-23 -55.5q0 -32 23 -54.5t55 -22.5t54.5 22.5t22.5 54.5q0 33 -22.5 55.5t-54.5 22.5z" />
    <glyph glyph-name="oslash" unicode="&#xf8;" horiz-adv-x="593" 
d="M33 0h96l22 27q29 -19 65.5 -29.5t77.5 -10.5q27 0 52.5 4.5t48 13t42 21t36 29t29.5 36.5t22 43t13.5 49t4.5 55v56q0 48 -13 88.5t-36 71.5l63 78h-97l-21 -27q-30 19 -66.5 29.5t-77.5 10.5q-27 0 -52.5 -4.5t-48 -13t-42 -21.5t-36 -29.5t-29 -36t-21.5 -42.5
t-13.5 -49t-4.5 -55v-56q0 -48 13 -88t36 -71zM179 242v48q0 63 30 100.5t85 37.5q19 0 36 -5t30 -14l-175 -219q-3 11 -4.5 24.5t-1.5 27.5zM410 290v-48q0 -63 -30.5 -100.5t-85.5 -37.5q-19 0 -36 5t-30 14l176 219q3 -11 4.5 -24.5t1.5 -27.5z" />
    <glyph glyph-name="ugrave" unicode="&#xf9;" 
d="M71 186q0 -21 3.5 -40.5t10 -37.5t16.5 -34t22.5 -29.5t27.5 -24t32.5 -18t37 -11.5t40.5 -4q50 0 91.5 26.5t65.5 73.5v-87h134v532h-134v-315q0 -47 -30 -78.5t-77 -31.5t-76.5 32t-29.5 78v315h-134v-346zM280 757h-147l139 -148h128z" />
    <glyph glyph-name="uacute" unicode="&#xfa;" 
d="M71 186q0 -21 3.5 -40.5t10 -37.5t16.5 -34t22.5 -29.5t27.5 -24t32.5 -18t37 -11.5t40.5 -4q50 0 91.5 26.5t65.5 73.5v-87h134v532h-134v-315q0 -47 -30 -78.5t-77 -31.5t-76.5 32t-29.5 78v315h-134v-346zM345 757l-120 -148h128l139 148h-147z" />
    <glyph glyph-name="ucircumflex" unicode="&#xfb;" 
d="M71 186q0 -21 3.5 -40.5t10 -37.5t16.5 -34t22.5 -29.5t27.5 -24t32.5 -18t37 -11.5t40.5 -4q50 0 91.5 26.5t65.5 73.5v-87h134v532h-134v-315q0 -47 -30 -78.5t-77 -31.5t-76.5 32t-29.5 78v315h-134v-346zM245 609l67 79l67 -79h118l-118 148h-132l-119 -148h117z" />
    <glyph glyph-name="udieresis" unicode="&#xfc;" 
d="M71 186q0 -21 3.5 -40.5t10 -37.5t16.5 -34t22.5 -29.5t27.5 -24t32.5 -18t37 -11.5t40.5 -4q50 0 91.5 26.5t65.5 73.5v-87h134v532h-134v-315q0 -47 -30 -78.5t-77 -31.5t-76.5 32t-29.5 78v315h-134v-346zM206 602q31 0 53 22t22 53q0 32 -22 54t-53 22t-54 -22
t-23 -54q0 -31 23 -53t54 -22zM421 602q31 0 53 22t22 53q0 32 -22 54t-53 22t-54 -22t-23 -54q0 -31 23 -53t54 -22z" />
    <glyph glyph-name="yacute" unicode="&#xfd;" horiz-adv-x="560" 
d="M207 -42q-13 -36 -30.5 -51t-47.5 -15h-55v-113h77q62 0 100.5 24.5t66.5 96.5l241 632h-141l-133 -361l-139 361h-145l219 -540zM313 757l-120 -148h128l139 148h-147z" />
    <glyph glyph-name="thorn" unicode="&#xfe;" 
d="M71 740v-961h134v282q28 -35 67.5 -54.5t86.5 -19.5q24 0 45.5 4.5t41.5 13t37.5 21t32 28.5t26 35.5t19.5 42t12 48t4 53.5v66q0 28 -4 53.5t-12 48t-19.5 42t-26 35.5t-32 28.5t-37.5 21t-41.5 13t-45.5 4.5q-47 0 -86.5 -19.5t-67.5 -54.5v269h-134zM205 242v48
q0 63 31.5 100.5t88.5 37.5t88.5 -37.5t31.5 -100.5v-48q0 -63 -31.5 -100.5t-88.5 -37.5t-88.5 37.5t-31.5 100.5z" />
    <glyph glyph-name="ydieresis" unicode="&#xff;" horiz-adv-x="560" 
d="M207 -42q-13 -36 -30.5 -51t-47.5 -15h-55v-113h77q62 0 100.5 24.5t66.5 96.5l241 632h-141l-133 -361l-139 361h-145l219 -540zM173 602q31 0 53 22t22 53q0 32 -22 54t-53 22t-54 -22t-23 -54q0 -31 23 -53t54 -22zM388 602q31 0 53 22t22 53q0 32 -22 54t-53 22
t-54 -22t-23 -54q0 -31 23 -53t54 -22z" />
    <glyph glyph-name="Amacron" unicode="&#x100;" horiz-adv-x="687" 
d="M431 700h-174l-260 -700h143l59 169h282l59 -169h150zM242 290l98 281l99 -281h-197zM478 884h-268v-87h268v87z" />
    <glyph glyph-name="amacron" unicode="&#x101;" horiz-adv-x="573" 
d="M30 151q0 -69 51.5 -115.5t129.5 -46.5q49 0 89.5 23.5t62.5 63.5q12 -35 41.5 -55.5t72.5 -20.5h64v116h-27q-15 0 -23 8t-8 23v207q0 86 -55.5 137.5t-148.5 51.5q-58 0 -110 -17t-100 -52l57 -99q34 23 68 35t68 12q43 0 66.5 -21.5t23.5 -61.5v-20l-145 -11
q-84 -7 -130.5 -46.5t-46.5 -110.5zM160 155q0 25 16 39.5t50 17.5l126 11v-31q0 -41 -32.5 -69.5t-77.5 -28.5q-37 0 -59.5 16.5t-22.5 44.5zM409 715h-268v-87h268v87z" />
    <glyph glyph-name="Abreve" unicode="&#x102;" horiz-adv-x="687" 
d="M431 700h-174l-260 -700h143l59 169h282l59 -169h150zM242 290l98 281l99 -281h-197zM344 849q-25 0 -47 14t-38 57l-87 -26q18 -60 65.5 -93t106.5 -33t106.5 33t65.5 93l-87 26q-15 -43 -38.5 -57t-46.5 -14z" />
    <glyph glyph-name="abreve" unicode="&#x103;" horiz-adv-x="573" 
d="M30 151q0 -69 51.5 -115.5t129.5 -46.5q49 0 89.5 23.5t62.5 63.5q12 -35 41.5 -55.5t72.5 -20.5h64v116h-27q-15 0 -23 8t-8 23v207q0 86 -55.5 137.5t-148.5 51.5q-58 0 -110 -17t-100 -52l57 -99q34 23 68 35t68 12q43 0 66.5 -21.5t23.5 -61.5v-20l-145 -11
q-84 -7 -130.5 -46.5t-46.5 -110.5zM160 155q0 25 16 39.5t50 17.5l126 11v-31q0 -41 -32.5 -69.5t-77.5 -28.5q-37 0 -59.5 16.5t-22.5 44.5zM275 680q-25 0 -47 14t-38 57l-87 -26q18 -60 65.5 -93t106.5 -33t106.5 33t65.5 93l-87 26q-15 -43 -38.5 -57t-46.5 -14z" />
    <glyph glyph-name="Aogonek" unicode="&#x104;" horiz-adv-x="687" 
d="M690 0l-259 700h-174l-260 -700h143l59 169h282l59 -169h70q-46 -34 -62.5 -65.5t-16.5 -63.5q0 -39 27.5 -65.5t80.5 -26.5q19 0 38 4t32 10l-14 66q-10 -4 -20 -6t-20 -2q-20 0 -32 11t-12 33q0 21 14 47.5t65 57.5zM242 290l98 281l99 -281h-197z" />
    <glyph glyph-name="aogonek" unicode="&#x105;" horiz-adv-x="573" 
d="M30 151q0 -69 51.5 -115.5t129.5 -46.5q49 0 89.5 23.5t62.5 63.5v0q10 -32 36 -52t63 -23q-47 -34 -63.5 -66t-16.5 -64q0 -39 27.5 -65.5t80.5 -26.5q19 0 38 4t32 10l-14 66q-10 -4 -20 -6t-20 -2q-20 0 -32 11t-12 33q0 21 14 47.5t65 57.5v116h-27q-15 0 -23 8
t-8 23v207q0 86 -55.5 137.5t-148.5 51.5q-58 0 -112.5 -18t-96.5 -51l56 -99q34 23 68 35t68 12q43 0 66.5 -22t23.5 -61v-20l-145 -11q-84 -7 -130.5 -46.5t-46.5 -110.5zM160 154q0 25 16 39.5t50 17.5l126 11v-31q0 -41 -32.5 -69.5t-77.5 -28.5q-37 0 -59.5 16.5
t-22.5 44.5z" />
    <glyph glyph-name="Cacute" unicode="&#x106;" horiz-adv-x="705" 
d="M667 439q-3 31 -11 59.5t-20.5 53.5t-28.5 46.5t-35.5 39.5t-42.5 32t-49 23.5t-54 14.5t-59 5t-60 -4.5t-55 -14t-49.5 -22.5t-43.5 -30.5t-37 -38t-30 -45t-22 -51.5t-13.5 -57t-4.5 -62v-75q0 -33 4.5 -63t13.5 -57t22 -51t30 -45t37 -38t43.5 -30.5t49.5 -23t55 -14
t60 -4.5q30 0 57.5 5t53.5 14.5t49 23t42.5 31.5t36 40t29 47t21 53.5t11.5 59.5h-135q-11 -70 -56 -109t-109 -39q-77 0 -125.5 54t-48.5 151v65q0 96 48 150t126 54q64 0 109 -39t56 -109h135zM400 925l-120 -148h128l139 148h-147z" />
    <glyph glyph-name="cacute" unicode="&#x107;" horiz-adv-x="554" 
d="M291 -13q93 0 157.5 56.5t77.5 149.5h-130q-10 -42 -36.5 -65.5t-68.5 -23.5q-54 0 -83 37.5t-29 100.5v48q0 63 29 100.5t83 37.5q42 0 68.5 -24t36.5 -66h130q-13 95 -76 151t-159 56q-27 0 -52 -4.5t-47 -13t-41.5 -21.5t-35.5 -29.5t-28.5 -36t-21.5 -42.5t-13.5 -49
t-4.5 -55v-56q0 -29 4.5 -55t13.5 -49t21.5 -42.5t28.5 -36t35.5 -29.5t41.5 -21.5t47 -13t52 -4.5zM323 757l-120 -148h128l139 148h-147z" />
    <glyph glyph-name="Ccircumflex" unicode="&#x108;" horiz-adv-x="705" 
d="M667 439q-3 31 -11 59.5t-20.5 53.5t-28.5 46.5t-35.5 39.5t-42.5 32t-49 23.5t-54 14.5t-59 5t-60 -4.5t-55 -14t-49.5 -22.5t-43.5 -30.5t-37 -38t-30 -45t-22 -51.5t-13.5 -57t-4.5 -62v-75q0 -33 4.5 -63t13.5 -57t22 -51t30 -45t37 -38t43.5 -30.5t49.5 -23t55 -14
t60 -4.5q30 0 57.5 5t53.5 14.5t49 23t42.5 31.5t36 40t29 47t21 53.5t11.5 59.5h-135q-11 -70 -56 -109t-109 -39q-77 0 -125.5 54t-48.5 151v65q0 96 48 150t126 54q64 0 109 -39t56 -109h135zM300 777l67 79l67 -79h118l-118 148h-132l-119 -148h117z" />
    <glyph glyph-name="ccircumflex" unicode="&#x109;" horiz-adv-x="554" 
d="M291 -13q93 0 157.5 56.5t77.5 149.5h-130q-10 -42 -36.5 -65.5t-68.5 -23.5q-54 0 -83 37.5t-29 100.5v48q0 63 29 100.5t83 37.5q42 0 68.5 -24t36.5 -66h130q-13 95 -76 151t-159 56q-27 0 -52 -4.5t-47 -13t-41.5 -21.5t-35.5 -29.5t-28.5 -36t-21.5 -42.5t-13.5 -49
t-4.5 -55v-56q0 -29 4.5 -55t13.5 -49t21.5 -42.5t28.5 -36t35.5 -29.5t41.5 -21.5t47 -13t52 -4.5zM223 609l67 79l67 -79h118l-118 148h-132l-119 -148h117z" />
    <glyph glyph-name="Cdotaccent" unicode="&#x10a;" horiz-adv-x="705" 
d="M667 439q-3 31 -11 59.5t-20.5 53.5t-28.5 46.5t-35.5 39.5t-42.5 32t-49 23.5t-54 14.5t-59 5t-60 -4.5t-55 -14t-49.5 -22.5t-43.5 -30.5t-37 -38t-30 -45t-22 -51.5t-13.5 -57t-4.5 -62v-75q0 -33 4.5 -63t13.5 -57t22 -51t30 -45t37 -38t43.5 -30.5t49.5 -23t55 -14
t60 -4.5q30 0 57.5 5t53.5 14.5t49 23t42.5 31.5t36 40t29 47t21 53.5t11.5 59.5h-135q-11 -70 -56 -109t-109 -39q-77 0 -125.5 54t-48.5 151v65q0 96 48 150t126 54q64 0 109 -39t56 -109h135zM368 770q31 0 53 22t22 53q0 32 -22 54t-53 22t-54 -22t-23 -54q0 -31 23 -53
t54 -22z" />
    <glyph glyph-name="cdotaccent" unicode="&#x10b;" horiz-adv-x="554" 
d="M291 -13q93 0 157.5 56.5t77.5 149.5h-130q-10 -42 -36.5 -65.5t-68.5 -23.5q-54 0 -83 37.5t-29 100.5v48q0 63 29 100.5t83 37.5q42 0 68.5 -24t36.5 -66h130q-13 95 -76 151t-159 56q-27 0 -52 -4.5t-47 -13t-41.5 -21.5t-35.5 -29.5t-28.5 -36t-21.5 -42.5t-13.5 -49
t-4.5 -55v-56q0 -29 4.5 -55t13.5 -49t21.5 -42.5t28.5 -36t35.5 -29.5t41.5 -21.5t47 -13t52 -4.5zM291 602q31 0 53 22t22 53q0 32 -22 54t-53 22t-54 -22t-23 -54q0 -31 23 -53t54 -22z" />
    <glyph glyph-name="Ccaron" unicode="&#x10c;" horiz-adv-x="705" 
d="M667 439q-3 31 -11 59.5t-20.5 53.5t-28.5 46.5t-35.5 39.5t-42.5 32t-49 23.5t-54 14.5t-59 5t-60 -4.5t-55 -14t-49.5 -22.5t-43.5 -30.5t-37 -38t-30 -45t-22 -51.5t-13.5 -57t-4.5 -62v-75q0 -33 4.5 -63t13.5 -57t22 -51t30 -45t37 -38t43.5 -30.5t49.5 -23t55 -14
t60 -4.5q30 0 57.5 5t53.5 14.5t49 23t42.5 31.5t36 40t29 47t21 53.5t11.5 59.5h-135q-11 -70 -56 -109t-109 -39q-77 0 -125.5 54t-48.5 151v65q0 96 48 150t126 54q64 0 109 -39t56 -109h135zM435 925l-67 -79l-67 79h-118l118 -148h132l119 148h-117z" />
    <glyph glyph-name="ccaron" unicode="&#x10d;" horiz-adv-x="554" 
d="M291 -13q93 0 157.5 56.5t77.5 149.5h-130q-10 -42 -36.5 -65.5t-68.5 -23.5q-54 0 -83 37.5t-29 100.5v48q0 63 29 100.5t83 37.5q42 0 68.5 -24t36.5 -66h130q-13 95 -76 151t-159 56q-27 0 -52 -4.5t-47 -13t-41.5 -21.5t-35.5 -29.5t-28.5 -36t-21.5 -42.5t-13.5 -49
t-4.5 -55v-56q0 -29 4.5 -55t13.5 -49t21.5 -42.5t28.5 -36t35.5 -29.5t41.5 -21.5t47 -13t52 -4.5zM358 757l-67 -79l-67 79h-118l118 -148h132l119 148h-117z" />
    <glyph glyph-name="Dcaron" unicode="&#x10e;" horiz-adv-x="721" 
d="M669 313v75q0 31 -4.5 59.5t-13.5 54.5t-22.5 49.5t-30 43.5t-37 36.5t-44 29t-49.5 21.5t-55 13.5t-60 4.5h-276v-700h276q31 0 60 4.5t55 13.5t49.5 21.5t44 29.5t37 37t30 43t22.5 49t13.5 55t4.5 60zM345 579q81 0 132 -52.5t51 -148.5v-55q0 -97 -51.5 -149.5
t-131.5 -52.5h-129v458h129zM429 925l-67 -79l-67 79h-118l118 -148h132l119 148h-117z" />
    <glyph glyph-name="dcaron" unicode="&#x10f;" horiz-adv-x="768" 
d="M639 497h99l44 243h-126zM554 0v740h-134v-273q-27 37 -66.5 57.5t-88.5 20.5q-24 0 -45.5 -4.5t-41.5 -13t-37.5 -21t-32 -28.5t-26 -35.5t-19.5 -42t-12 -48t-4 -53.5v-66q0 -28 4 -53.5t12 -48t19.5 -42t26 -35.5t32 -28.5t37.5 -21t41.5 -13t45.5 -4.5
q50 0 89.5 21.5t65.5 60.5v-69h134zM420 290v-48q0 -63 -32 -100.5t-89 -37.5t-88.5 37.5t-31.5 100.5v48q0 63 31.5 100.5t88.5 37.5t89 -37.5t32 -100.5z" />
    <glyph glyph-name="Dcroat" unicode="&#x110;" horiz-adv-x="741" 
d="M8 291h89v-291h276q31 0 60 4.5t55 13.5t49.5 21.5t44 29.5t37 37t30 43t22.5 49t13.5 55t4.5 60v75q0 31 -4.5 59.5t-13.5 54.5t-22.5 49.5t-30 43.5t-37 36.5t-44 29t-49.5 21.5t-55 13.5t-60 4.5h-276v-291h-89v-118zM365 579q81 0 132 -52.5t51 -148.5v-55
q0 -97 -51.5 -149.5t-131.5 -52.5h-129v170h131v118h-131v170h129z" />
    <glyph glyph-name="dcroat" unicode="&#x111;" 
d="M554 0v584h51v89h-51v67h-134v-67h-131v-89h131v-117q-27 37 -66.5 57.5t-88.5 20.5q-24 0 -45.5 -4.5t-41.5 -13t-37.5 -21t-32 -28.5t-26 -35.5t-19.5 -42t-12 -48t-4 -53.5v-66q0 -28 4 -53.5t12 -48t19.5 -42t26 -35.5t32 -28.5t37.5 -21t41.5 -13t45.5 -4.5
q50 0 89.5 21.5t65.5 60.5v-69h134zM420 290v-48q0 -63 -32 -100.5t-89 -37.5t-88.5 37.5t-31.5 100.5v48q0 63 31.5 100.5t88.5 37.5t89 -37.5t32 -100.5z" />
    <glyph glyph-name="Emacron" unicode="&#x112;" horiz-adv-x="609" 
d="M77 0h479v121h-340v170h330v119h-330v169h340v121h-479v-700zM457 884h-268v-87h268v87z" />
    <glyph glyph-name="emacron" unicode="&#x113;" horiz-adv-x="558" 
d="M47 240q0 -114 69 -183t179 -69q68 0 119.5 23.5t89.5 65.5l-81 80q-27 -27 -57.5 -40.5t-66.5 -13.5q-53 0 -85 31.5t-36 88.5h337v71q0 28 -4 53.5t-12 48.5t-20 42.5t-27 36.5t-32.5 30t-38 22t-43.5 13.5t-48 4.5q-109 0 -176 -70t-67 -183v-52zM179 324
q6 51 33.5 78t71.5 27t71.5 -27.5t31.5 -77.5h-208zM420 716h-268v-87h268v87z" />
    <glyph glyph-name="Ebreve" unicode="&#x114;" horiz-adv-x="609" 
d="M77 0h479v121h-340v170h330v119h-330v169h340v121h-479v-700zM323 849q-25 0 -47 14t-38 57l-87 -26q18 -60 65.5 -93t106.5 -33t106.5 33t65.5 93l-87 26q-15 -43 -38.5 -57t-46.5 -14z" />
    <glyph glyph-name="ebreve" unicode="&#x115;" horiz-adv-x="558" 
d="M47 240q0 -114 69 -183t179 -69q68 0 119.5 23.5t89.5 65.5l-81 80q-27 -27 -57.5 -40.5t-66.5 -13.5q-53 0 -85 31.5t-36 88.5h337v71q0 28 -4 53.5t-12 48.5t-20 42.5t-27 36.5t-32.5 30t-38 22t-43.5 13.5t-48 4.5q-109 0 -176 -70t-67 -183v-52zM179 324
q6 51 33.5 78t71.5 27t71.5 -27.5t31.5 -77.5h-208zM286 681q-25 0 -47 14t-38 57l-87 -26q18 -60 65.5 -93t106.5 -33t106.5 33t65.5 93l-87 26q-15 -43 -38.5 -57t-46.5 -14z" />
    <glyph glyph-name="Edotaccent" unicode="&#x116;" horiz-adv-x="609" 
d="M77 0h479v121h-340v170h330v119h-330v169h340v121h-479v-700zM324 770q31 0 53 22t22 53q0 32 -22 54t-53 22t-54 -22t-23 -54q0 -31 23 -53t54 -22z" />
    <glyph glyph-name="edotaccent" unicode="&#x117;" horiz-adv-x="558" 
d="M47 240q0 -114 69 -183t179 -69q68 0 119.5 23.5t89.5 65.5l-81 80q-27 -27 -57.5 -40.5t-66.5 -13.5q-53 0 -85 31.5t-36 88.5h337v71q0 28 -4 53.5t-12 48.5t-20 42.5t-27 36.5t-32.5 30t-38 22t-43.5 13.5t-48 4.5q-109 0 -176 -70t-67 -183v-52zM179 324
q6 51 33.5 78t71.5 27t71.5 -27.5t31.5 -77.5h-208zM287 602q31 0 53 22t22 53q0 32 -22 54t-53 22t-54 -22t-23 -54q0 -31 23 -53t54 -22z" />
    <glyph glyph-name="Eogonek" unicode="&#x118;" horiz-adv-x="609" 
d="M77 0h399q-46 -34 -62.5 -65.5t-16.5 -63.5q0 -39 27.5 -65.5t80.5 -26.5q19 0 38 4t32 10l-14 66q-10 -4 -20 -6t-20 -2q-20 0 -32 11t-12 33q0 21 14 47.5t65 57.5v121h-340v170h330v119h-330v169h340v121h-479v-700z" />
    <glyph glyph-name="eogonek" unicode="&#x119;" horiz-adv-x="558" 
d="M47 240q0 -110 65 -179t169 -73q-37 -30 -50.5 -59t-13.5 -58q0 -39 27.5 -65.5t80.5 -26.5q19 0 38 4t32 10l-14 66q-10 -4 -20 -6t-20 -2q-20 0 -32 11t-12 33q0 20 13 45.5t61 56.5q40 10 73 30.5t60 49.5l-81 80q-27 -27 -57.5 -40.5t-66.5 -13.5q-53 0 -85 31.5
t-36 88.5h337v71q0 28 -4 53.5t-12 48.5t-20 42.5t-27 36.5t-32.5 30t-38 22t-43.5 13.5t-48 4.5q-109 0 -176 -70t-67 -183v-52zM284 429q44 0 71.5 -27.5t31.5 -77.5h-208q6 51 33.5 78t71.5 27z" />
    <glyph glyph-name="Ecaron" unicode="&#x11a;" horiz-adv-x="609" 
d="M77 0h479v121h-340v170h330v119h-330v169h340v121h-479v-700zM391 925l-67 -79l-67 79h-118l118 -148h132l119 148h-117z" />
    <glyph glyph-name="ecaron" unicode="&#x11b;" horiz-adv-x="558" 
d="M47 240q0 -114 69 -183t179 -69q68 0 119.5 23.5t89.5 65.5l-81 80q-27 -27 -57.5 -40.5t-66.5 -13.5q-53 0 -85 31.5t-36 88.5h337v71q0 28 -4 53.5t-12 48.5t-20 42.5t-27 36.5t-32.5 30t-38 22t-43.5 13.5t-48 4.5q-109 0 -176 -70t-67 -183v-52zM179 324
q6 51 33.5 78t71.5 27t71.5 -27.5t31.5 -77.5h-208zM354 757l-67 -79l-67 79h-118l118 -148h132l119 148h-117z" />
    <glyph glyph-name="Gcircumflex" unicode="&#x11c;" horiz-adv-x="746" 
d="M52 317q0 -37 5.5 -71t15.5 -64t25 -56t34 -47.5t42 -38.5t50 -28.5t57 -17.5t63 -6q54 0 108.5 26.5t91.5 83.5v-98h130v387h-315v-116h185v-12q0 -62 -45.5 -106t-126.5 -44q-79 0 -129 54t-50 154v64q0 97 49 151t130 54q58 0 104 -31.5t72 -84.5l121 58
q-41 87 -117.5 136t-185.5 49q-35 0 -67 -6t-61 -18t-53.5 -28.5t-45.5 -38t-37 -47.5t-27 -56t-17 -63t-6 -70v-69zM307 776l67 79l67 -79h118l-118 148h-132l-119 -148h117z" />
    <glyph glyph-name="gcircumflex" unicode="&#x11d;" horiz-adv-x="615" 
d="M187 -221h170q84 0 136 51.5t52 133.5v568h-134v-65q-26 37 -65 57.5t-86 20.5q-95 0 -154.5 -68.5t-59.5 -177.5v-58q0 -109 59.5 -177.5t154.5 -68.5q48 0 86.5 21.5t64.5 59.5v-97q0 -40 -24 -63.5t-64 -23.5h-136v-113zM411 290v-44q0 -65 -31.5 -99.5t-85.5 -34.5
t-85 34.5t-31 99.5v44q0 64 31 101t85 37t85.5 -37t31.5 -101zM229 609l67 79l67 -79h118l-118 148h-132l-119 -148h117z" />
    <glyph glyph-name="Gbreve" unicode="&#x11e;" horiz-adv-x="746" 
d="M52 317q0 -37 5.5 -71t15.5 -64t25 -56t34 -47.5t42 -38.5t50 -28.5t57 -17.5t63 -6q54 0 108.5 26.5t91.5 83.5v-98h130v387h-315v-116h185v-12q0 -62 -45.5 -106t-126.5 -44q-79 0 -129 54t-50 154v64q0 97 49 151t130 54q58 0 104 -31.5t72 -84.5l121 58
q-41 87 -117.5 136t-185.5 49q-35 0 -67 -6t-61 -18t-53.5 -28.5t-45.5 -38t-37 -47.5t-27 -56t-17 -63t-6 -70v-69zM374 848q-25 0 -47 14t-38 57l-87 -26q18 -60 65.5 -93t106.5 -33t106.5 33t65.5 93l-87 26q-15 -43 -38.5 -57t-46.5 -14z" />
    <glyph glyph-name="gbreve" unicode="&#x11f;" horiz-adv-x="615" 
d="M187 -221h170q84 0 136 51.5t52 133.5v568h-134v-65q-26 37 -65 57.5t-86 20.5q-95 0 -154.5 -68.5t-59.5 -177.5v-58q0 -109 59.5 -177.5t154.5 -68.5q48 0 86.5 21.5t64.5 59.5v-97q0 -40 -24 -63.5t-64 -23.5h-136v-113zM411 290v-44q0 -65 -31.5 -99.5t-85.5 -34.5
t-85 34.5t-31 99.5v44q0 64 31 101t85 37t85.5 -37t31.5 -101zM296 681q-25 0 -47 14t-38 57l-87 -26q18 -60 65.5 -93t106.5 -33t106.5 33t65.5 93l-87 26q-15 -43 -38.5 -57t-46.5 -14z" />
    <glyph glyph-name="Gdotaccent" unicode="&#x120;" horiz-adv-x="746" 
d="M52 317q0 -37 5.5 -71t15.5 -64t25 -56t34 -47.5t42 -38.5t50 -28.5t57 -17.5t63 -6q54 0 108.5 26.5t91.5 83.5v-98h130v387h-315v-116h185v-12q0 -62 -45.5 -106t-126.5 -44q-79 0 -129 54t-50 154v64q0 97 49 151t130 54q58 0 104 -31.5t72 -84.5l121 58
q-41 87 -117.5 136t-185.5 49q-35 0 -67 -6t-61 -18t-53.5 -28.5t-45.5 -38t-37 -47.5t-27 -56t-17 -63t-6 -70v-69zM375 769q31 0 53 22t22 53q0 32 -22 54t-53 22t-54 -22t-23 -54q0 -31 23 -53t54 -22z" />
    <glyph glyph-name="gdotaccent" unicode="&#x121;" horiz-adv-x="615" 
d="M187 -221h170q84 0 136 51.5t52 133.5v568h-134v-65q-26 37 -65 57.5t-86 20.5q-95 0 -154.5 -68.5t-59.5 -177.5v-58q0 -109 59.5 -177.5t154.5 -68.5q48 0 86.5 21.5t64.5 59.5v-97q0 -40 -24 -63.5t-64 -23.5h-136v-113zM411 290v-44q0 -65 -31.5 -99.5t-85.5 -34.5
t-85 34.5t-31 99.5v44q0 64 31 101t85 37t85.5 -37t31.5 -101zM297 602q31 0 53 22t22 53q0 32 -22 54t-53 22t-54 -22t-23 -54q0 -31 23 -53t54 -22z" />
    <glyph glyph-name="uni0122" unicode="&#x122;" horiz-adv-x="746" 
d="M52 317q0 -37 5.5 -71t15.5 -64t25 -56t34 -47.5t42 -38.5t50 -28.5t57 -17.5t63 -6q54 0 108.5 26.5t91.5 83.5v-98h130v387h-315v-116h185v-12q0 -62 -45.5 -106t-126.5 -44q-79 0 -129 54t-50 154v64q0 97 49 151t130 54q58 0 104 -31.5t72 -84.5l121 58
q-41 87 -117.5 136t-185.5 49q-35 0 -67 -6t-61 -18t-53.5 -28.5t-45.5 -38t-37 -47.5t-27 -56t-17 -63t-6 -70v-69zM309 -246v-49q55 3 90 44t35 94q0 41 -19 65t-50 24q-25 0 -42.5 -18t-17.5 -40q0 -8 1.5 -14.5t4.5 -11.5t7 -9.5t8 -8t9 -6.5t9 -5.5l8 -5t7 -5t4.5 -5.5
t1.5 -6q0 -13 -16 -27t-40 -16z" />
    <glyph glyph-name="uni0123" unicode="&#x123;" horiz-adv-x="620" 
d="M348 780v49q-55 -3 -90 -44t-35 -94q0 -41 19 -65t50 -24q25 0 42.5 18t17.5 40q0 8 -1.5 14.5t-4.5 11.5t-7 9.5t-8 8t-9 6.5t-9 5.5l-8 5t-7 5t-4.5 5.5t-1.5 6q0 13 16 27t40 16zM187 -221h170q84 0 136 51.5t52 133.5v568h-134v-65q-26 37 -65 57.5t-86 20.5
q-95 0 -154.5 -68.5t-59.5 -177.5v-58q0 -109 59.5 -177.5t154.5 -68.5q48 0 86.5 21.5t64.5 59.5v-97q0 -40 -24 -63.5t-64 -23.5h-136v-113zM411 290v-44q0 -65 -31.5 -99.5t-85.5 -34.5t-85 34.5t-31 99.5v44q0 64 31 101t85 37t85.5 -37t31.5 -101z" />
    <glyph glyph-name="Hcircumflex" unicode="&#x124;" horiz-adv-x="744" 
d="M216 0v290h312v-290h139v700h-139v-289h-312v289h-139v-700h139zM305 777l67 79l67 -79h118l-118 148h-132l-119 -148h117z" />
    <glyph glyph-name="hcircumflex" unicode="&#x125;" 
d="M552 346q0 21 -3.5 40.5t-10 37.5t-16 34t-22 29.5t-27.5 24t-32.5 18t-37 11.5t-40.5 4q-50 0 -92 -27t-66 -73v295h-134v-740h134v315q0 47 30 78.5t77 31.5q48 0 77 -32t29 -78v-315h134v346zM72 817l67 79l67 -79h118l-118 148h-132l-119 -148h117z" />
    <glyph glyph-name="Hbar" unicode="&#x126;" horiz-adv-x="784" 
d="M236 0v290h312v-290h139v500h97v108h-97v92h-139v-92h-312v92h-139v-92h-97v-108h97v-500h139zM236 411v89h312v-89h-312z" />
    <glyph glyph-name="hbar" unicode="&#x127;" horiz-adv-x="643" 
d="M572 346q0 21 -3.5 40.5t-10 37.5t-16 34t-22 29.5t-27.5 24t-32.5 18t-37 11.5t-40.5 4q-50 0 -92 -27t-66 -73v139h129v89h-129v67h-134v-67h-53v-89h53v-584h134v315q0 47 30 78.5t77 31.5q48 0 77 -32t29 -78v-315h134v346z" />
    <glyph glyph-name="Itilde" unicode="&#x128;" horiz-adv-x="293" 
d="M216 0v700h-139v-700h139zM77 910q-40 0 -69 -29.5t-43 -92.5l84 -17q7 31 17 42t22 11q5 0 10.5 -1.5t11.5 -4.5l13 -6.5t14.5 -7t15 -7.5t15.5 -7.5t15.5 -6.5t15.5 -4.5t15 -1.5q40 0 69 29.5t43 91.5l-84 18q-7 -31 -17 -42t-22 -11q-5 0 -10.5 1.5t-11.5 4.5
l-13 6.5t-14.5 7t-15 7.5t-15.5 7.5t-15.5 6.5t-15.5 4.5t-15 1.5z" />
    <glyph glyph-name="itilde" unicode="&#x129;" horiz-adv-x="276" 
d="M205 532h-134v-532h134v532zM69 742q-40 0 -69 -29.5t-43 -92.5l84 -17q7 31 17 42t22 11q5 0 10.5 -1.5t11.5 -4.5l13 -6.5t14.5 -7t15 -7.5t15.5 -7.5t15.5 -6.5t15.5 -4.5t15 -1.5q40 0 69 29.5t43 91.5l-84 18q-7 -31 -17 -42t-22 -11q-5 0 -10.5 1.5t-11.5 4.5
l-13 6.5t-14.5 7t-15 7.5t-15.5 7.5t-15.5 6.5t-15.5 4.5t-15 1.5z" />
    <glyph glyph-name="Imacron" unicode="&#x12a;" horiz-adv-x="293" 
d="M216 0v700h-139v-700h139zM281 884h-268v-87h268v87z" />
    <glyph glyph-name="imacron" unicode="&#x12b;" horiz-adv-x="276" 
d="M205 532h-134v-532h134v532zM272 716h-268v-87h268v87z" />
    <glyph glyph-name="Ibreve" unicode="&#x12c;" horiz-adv-x="293" 
d="M216 0v700h-139v-700h139zM146 849q-25 0 -47 14t-38 57l-87 -26q18 -60 65.5 -93t106.5 -33t106.5 33t65.5 93l-87 26q-15 -43 -38.5 -57t-46.5 -14z" />
    <glyph glyph-name="ibreve" unicode="&#x12d;" horiz-adv-x="276" 
d="M205 532h-134v-532h134v532zM138 681q-25 0 -47 14t-38 57l-87 -26q18 -60 65.5 -93t106.5 -33t106.5 33t65.5 93l-87 26q-15 -43 -38.5 -57t-46.5 -14z" />
    <glyph glyph-name="Iogonek" unicode="&#x12e;" horiz-adv-x="293" 
d="M216 0v700h-139v-700h59q-46 -34 -62.5 -65.5t-16.5 -63.5q0 -39 27.5 -65.5t80.5 -26.5q19 0 38 4t32 10l-14 66q-10 -4 -20 -6t-20 -2q-20 0 -32 11t-12 33q0 21 14 47.5t65 57.5z" />
    <glyph glyph-name="iogonek" unicode="&#x12f;" horiz-adv-x="276" 
d="M138 603q31 0 53 22t22 53q0 32 -22 54t-53 22t-54 -22t-23 -54q0 -31 23 -53t54 -22zM205 0v532h-134v-532h54q-46 -34 -62.5 -65.5t-16.5 -63.5q0 -39 27.5 -65.5t80.5 -26.5q19 0 38 4t32 10l-14 66q-10 -4 -20 -6t-20 -2q-20 0 -32 11t-12 33q0 21 14 47.5t65 57.5z
" />
    <glyph glyph-name="Idotaccent" unicode="&#x130;" horiz-adv-x="293" 
d="M216 0v700h-139v-700h139zM148 770q31 0 53 22t22 53q0 32 -22 54t-53 22t-54 -22t-23 -54q0 -31 23 -53t54 -22z" />
    <glyph glyph-name="dotlessi" unicode="&#x131;" horiz-adv-x="276" 
d="M205 532h-134v-532h134v532z" />
    <glyph glyph-name="IJ" unicode="&#x132;" horiz-adv-x="823" 
d="M216 0v700h-139v-700h139zM295 55q37 -37 89 -54t113 -17q28 0 53.5 4.5t49 13.5t44 21.5t38 29t31.5 36.5t23.5 43t14.5 49t5 54v465h-139v-450q0 -64 -36 -102.5t-89 -38.5q-33 0 -62.5 13t-49.5 34z" />
    <glyph glyph-name="ij" unicode="&#x133;" horiz-adv-x="552" 
d="M138 603q31 0 53 22t22 53q0 32 -22 54t-53 22t-54 -22t-23 -54q0 -31 23 -53t54 -22zM205 532h-134v-532h134v532zM414 603q31 0 53 22t22 53q0 32 -22 54t-53 22t-54 -22t-23 -54q0 -31 23 -53t54 -22zM345 -221q66 0 101 37.5t35 90.5v625h-134v-599q0 -21 -11 -31
t-29 -10h-32v-113h70z" />
    <glyph glyph-name="Jcircumflex" unicode="&#x134;" horiz-adv-x="530" 
d="M2 55q37 -37 89 -54t113 -17q28 0 53.5 4.5t49 13.5t44 21.5t38 29t31.5 36.5t23.5 43t14.5 49t5 54v465h-139v-450q0 -64 -36 -102.5t-89 -38.5q-33 0 -62.5 13t-49.5 34zM325 777l67 79l67 -79h118l-118 148h-132l-119 -148h117z" />
    <glyph glyph-name="jcircumflex" unicode="&#x135;" horiz-adv-x="276" 
d="M69 -221q66 0 101 37.5t35 90.5v625h-134v-599q0 -21 -11 -31t-29 -10h-32v-113h70zM71 609l67 79l67 -79h118l-118 148h-132l-119 -148h117z" />
    <glyph glyph-name="uni0136" unicode="&#x136;" horiz-adv-x="671" 
d="M216 0v300l283 -300h194l-355 361l345 339h-181l-286 -292v292h-139v-700h139zM283 -246v-49q55 3 90 44t35 94q0 41 -19 65t-50 24q-25 0 -42.5 -18t-17.5 -40q0 -8 1.5 -14.5t4.5 -11.5t7 -9.5t8 -8t9 -6.5t9 -5.5l8 -5t7 -5t4.5 -5.5t1.5 -6q0 -13 -16 -27t-40 -16z
" />
    <glyph glyph-name="uni0137" unicode="&#x137;" horiz-adv-x="560" 
d="M551 532h-155l-191 -227v435h-134v-740h134v242l199 -242h170l-242 281zM243 -246v-49q55 3 90 44t35 94q0 41 -19 65t-50 24q-25 0 -42.5 -18t-17.5 -40q0 -8 1.5 -14.5t4.5 -11.5t7 -9.5t8 -8t9 -6.5t9 -5.5l8 -5t7 -5t4.5 -5.5t1.5 -6q0 -13 -16 -27t-40 -16z" />
    <glyph glyph-name="kgreenlandic" unicode="&#x138;" horiz-adv-x="560" 
d="M205 532h-134v-532h134v242l199 -242h170l-242 281l219 251h-155l-191 -227v227z" />
    <glyph glyph-name="Lacute" unicode="&#x139;" horiz-adv-x="594" 
d="M556 121h-340v579h-139v-700h479v121zM179 925l-120 -148h128l139 148h-147z" />
    <glyph glyph-name="lacute" unicode="&#x13a;" horiz-adv-x="276" 
d="M205 0v740h-134v-740h134zM171 965l-120 -148h128l139 148h-147z" />
    <glyph glyph-name="uni013B" unicode="&#x13b;" horiz-adv-x="594" 
d="M556 121h-340v579h-139v-700h479v121zM264 -246v-49q55 3 90 44t35 94q0 41 -19 65t-50 24q-25 0 -42.5 -18t-17.5 -40q0 -8 1.5 -14.5t4.5 -11.5t7 -9.5t8 -8t9 -6.5t9 -5.5l8 -5t7 -5t4.5 -5.5t1.5 -6q0 -13 -16 -27t-40 -16z" />
    <glyph glyph-name="uni013C" unicode="&#x13c;" horiz-adv-x="276" 
d="M205 0v740h-134v-740h134zM82 -246v-49q55 3 90 44t35 94q0 41 -19 65t-50 24q-25 0 -42.5 -18t-17.5 -40q0 -8 1.5 -14.5t4.5 -11.5t7 -9.5t8 -8t9 -6.5t9 -5.5l8 -5t7 -5t4.5 -5.5t1.5 -6q0 -13 -16 -27t-40 -16z" />
    <glyph glyph-name="Lcaron" unicode="&#x13d;" horiz-adv-x="594" 
d="M556 121h-340v579h-139v-700h479v121zM369 457h99l44 243h-126z" />
    <glyph glyph-name="lcaron" unicode="&#x13e;" horiz-adv-x="421" 
d="M291 497h99l44 243h-126zM205 0v740h-134v-740h134z" />
    <glyph glyph-name="Ldot" unicode="&#x13f;" horiz-adv-x="594" 
d="M556 121h-340v579h-139v-700h479v121zM433 303q31 0 53 22t22 53q0 32 -22 54t-53 22t-54 -22t-23 -54q0 -31 23 -53t54 -22z" />
    <glyph glyph-name="ldot" unicode="&#x140;" horiz-adv-x="392" 
d="M205 0v740h-134v-740h134zM335 270q31 0 53 22t22 53q0 32 -22 54t-53 22t-54 -22t-23 -54q0 -31 23 -53t54 -22z" />
    <glyph glyph-name="Lslash" unicode="&#x141;" horiz-adv-x="614" 
d="M18 149l79 59v-208h479v121h-340v191l137 102v117l-137 -102v271h-139v-375l-79 -59v-117z" />
    <glyph glyph-name="lslash" unicode="&#x142;" horiz-adv-x="306" 
d="M220 0v347l86 74v118l-86 -75v276h-134v-392l-74 -64v-117l74 64v-231h134z" />
    <glyph glyph-name="Nacute" unicode="&#x143;" horiz-adv-x="764" 
d="M206 0l1 501l332 -501h148v700h-129l-1 -501l-332 501h-148v-700h129zM415 925l-120 -148h128l139 148h-147z" />
    <glyph glyph-name="nacute" unicode="&#x144;" 
d="M552 346q0 21 -3.5 40.5t-10 37.5t-16 34t-22 29.5t-27.5 24t-32.5 18t-37 11.5t-40.5 4q-50 0 -92 -27t-66 -73v87h-134v-532h134v315q0 47 30 78.5t77 31.5q48 0 77 -32t29 -78v-315h134v346zM345 757l-120 -148h128l139 148h-147z" />
    <glyph glyph-name="uni0145" unicode="&#x145;" horiz-adv-x="764" 
d="M206 0l1 501l332 -501h148v700h-129l-1 -501l-332 501h-148v-700h129zM326 -246v-49q55 3 90 44t35 94q0 41 -19 65t-50 24q-25 0 -42.5 -18t-17.5 -40q0 -8 1.5 -14.5t4.5 -11.5t7 -9.5t8 -8t9 -6.5t9 -5.5l8 -5t7 -5t4.5 -5.5t1.5 -6q0 -13 -16 -27t-40 -16z" />
    <glyph glyph-name="uni0146" unicode="&#x146;" 
d="M552 346q0 21 -3.5 40.5t-10 37.5t-16 34t-22 29.5t-27.5 24t-32.5 18t-37 11.5t-40.5 4q-50 0 -92 -27t-66 -73v87h-134v-532h134v315q0 47 30 78.5t77 31.5q48 0 77 -32t29 -78v-315h134v346zM256 -246v-49q55 3 90 44t35 94q0 41 -19 65t-50 24q-25 0 -42.5 -18
t-17.5 -40q0 -8 1.5 -14.5t4.5 -11.5t7 -9.5t8 -8t9 -6.5t9 -5.5l8 -5t7 -5t4.5 -5.5t1.5 -6q0 -13 -16 -27t-40 -16z" />
    <glyph glyph-name="Ncaron" unicode="&#x147;" horiz-adv-x="764" 
d="M206 0l1 501l332 -501h148v700h-129l-1 -501l-332 501h-148v-700h129zM450 925l-67 -79l-67 79h-118l118 -148h132l119 148h-117z" />
    <glyph glyph-name="ncaron" unicode="&#x148;" 
d="M552 346q0 21 -3.5 40.5t-10 37.5t-16 34t-22 29.5t-27.5 24t-32.5 18t-37 11.5t-40.5 4q-50 0 -92 -27t-66 -73v87h-134v-532h134v315q0 47 30 78.5t77 31.5q48 0 77 -32t29 -78v-315h134v346zM380 757l-67 -79l-67 79h-118l118 -148h132l119 148h-117z" />
    <glyph glyph-name="Eng" unicode="&#x14a;" horiz-adv-x="769" 
d="M561 -66q0 -20 -11.5 -30t-30.5 -10h-31v-115h70q65 0 99.5 37.5t34.5 89.5v794h-129l-1 -471l-342 471h-143v-700h129l1 496l354 -491v-71z" />
    <glyph glyph-name="eng" unicode="&#x14b;" 
d="M417 -221q66 0 100.5 37.5t34.5 90.5v439q0 21 -3.5 40.5t-10 37.5t-16 34t-22 29.5t-27.5 24t-32.5 18t-37 11.5t-40.5 4q-50 0 -92 -27t-66 -73v87h-134v-532h134v315q0 47 30 78.5t77 31.5q48 0 77 -32t29 -78v-382q0 -21 -10.5 -31t-29.5 -10h-32v-113h71z" />
    <glyph glyph-name="Omacron" unicode="&#x14c;" horiz-adv-x="752" 
d="M52 388v-75q0 -33 5 -63t14 -57t22.5 -51t30.5 -45t38 -38t45 -30.5t51 -23t56.5 -14t61.5 -4.5t61.5 4.5t56.5 14t51 23t45 30.5t38 38t30.5 45t22.5 51t14 57t5 63v75q0 32 -5 62t-14 57t-22.5 51.5t-30.5 45t-38 38t-45 30.5t-51 22.5t-56.5 14t-61.5 4.5t-61.5 -4.5
t-56.5 -14t-51 -22.5t-45 -30.5t-38 -38t-30.5 -45t-22.5 -51.5t-14 -57t-5 -62zM193 383q0 96 51 150t132 54t132 -54t51 -150v-65q0 -97 -51.5 -151t-131.5 -54q-81 0 -132 54t-51 151v65zM510 884h-268v-87h268v87z" />
    <glyph glyph-name="omacron" unicode="&#x14d;" horiz-adv-x="589" 
d="M542 238v56q0 29 -4.5 55t-13.5 49t-22 43t-29.5 36.5t-36 29t-42 21t-48 13t-52.5 4.5t-52.5 -4.5t-48 -13t-42 -21.5t-36 -29.5t-29 -36t-21.5 -42.5t-13.5 -49t-4.5 -55v-56q0 -29 4.5 -55t13.5 -49t22 -42.5t29.5 -36t36 -29.5t42 -21.5t47.5 -13t52 -4.5t52.5 4.5
t48 13t42 21t36 29t29.5 36.5t22 43t13.5 49t4.5 55zM410 290v-48q0 -63 -30.5 -100.5t-85.5 -37.5t-85 37.5t-30 100.5v48q0 63 30 100.5t85 37.5t85.5 -37.5t30.5 -100.5zM428 716h-268v-87h268v87z" />
    <glyph glyph-name="Obreve" unicode="&#x14e;" horiz-adv-x="752" 
d="M52 388v-75q0 -33 5 -63t14 -57t22.5 -51t30.5 -45t38 -38t45 -30.5t51 -23t56.5 -14t61.5 -4.5t61.5 4.5t56.5 14t51 23t45 30.5t38 38t30.5 45t22.5 51t14 57t5 63v75q0 32 -5 62t-14 57t-22.5 51.5t-30.5 45t-38 38t-45 30.5t-51 22.5t-56.5 14t-61.5 4.5t-61.5 -4.5
t-56.5 -14t-51 -22.5t-45 -30.5t-38 -38t-30.5 -45t-22.5 -51.5t-14 -57t-5 -62zM193 383q0 96 51 150t132 54t132 -54t51 -150v-65q0 -97 -51.5 -151t-131.5 -54q-81 0 -132 54t-51 151v65zM376 849q-25 0 -47 14t-38 57l-87 -26q18 -60 65.5 -93t106.5 -33t106.5 33
t65.5 93l-87 26q-15 -43 -38.5 -57t-46.5 -14z" />
    <glyph glyph-name="obreve" unicode="&#x14f;" horiz-adv-x="589" 
d="M542 238v56q0 29 -4.5 55t-13.5 49t-22 43t-29.5 36.5t-36 29t-42 21t-48 13t-52.5 4.5t-52.5 -4.5t-48 -13t-42 -21.5t-36 -29.5t-29 -36t-21.5 -42.5t-13.5 -49t-4.5 -55v-56q0 -29 4.5 -55t13.5 -49t22 -42.5t29.5 -36t36 -29.5t42 -21.5t47.5 -13t52 -4.5t52.5 4.5
t48 13t42 21t36 29t29.5 36.5t22 43t13.5 49t4.5 55zM410 290v-48q0 -63 -30.5 -100.5t-85.5 -37.5t-85 37.5t-30 100.5v48q0 63 30 100.5t85 37.5t85.5 -37.5t30.5 -100.5zM294 681q-25 0 -47 14t-38 57l-87 -26q18 -60 65.5 -93t106.5 -33t106.5 33t65.5 93l-87 26
q-15 -43 -38.5 -57t-46.5 -14z" />
    <glyph glyph-name="Ohungarumlaut" unicode="&#x150;" horiz-adv-x="752" 
d="M52 388v-75q0 -33 5 -63t14 -57t22.5 -51t30.5 -45t38 -38t45 -30.5t51 -23t56.5 -14t61.5 -4.5t61.5 4.5t56.5 14t51 23t45 30.5t38 38t30.5 45t22.5 51t14 57t5 63v75q0 32 -5 62t-14 57t-22.5 51.5t-30.5 45t-38 38t-45 30.5t-51 22.5t-56.5 14t-61.5 4.5t-61.5 -4.5
t-56.5 -14t-51 -22.5t-45 -30.5t-38 -38t-30.5 -45t-22.5 -51.5t-14 -57t-5 -62zM193 383q0 96 51 150t132 54t132 -54t51 -150v-65q0 -97 -51.5 -151t-131.5 -54q-81 0 -132 54t-51 151v65zM310 925l-117 -148h114l134 148h-131zM510 925l-117 -148h115l133 148h-131z" />
    <glyph glyph-name="ohungarumlaut" unicode="&#x151;" horiz-adv-x="589" 
d="M542 238v56q0 29 -4.5 55t-13.5 49t-22 43t-29.5 36.5t-36 29t-42 21t-48 13t-52.5 4.5t-52.5 -4.5t-48 -13t-42 -21.5t-36 -29.5t-29 -36t-21.5 -42.5t-13.5 -49t-4.5 -55v-56q0 -29 4.5 -55t13.5 -49t22 -42.5t29.5 -36t36 -29.5t42 -21.5t47.5 -13t52 -4.5t52.5 4.5
t48 13t42 21t36 29t29.5 36.5t22 43t13.5 49t4.5 55zM410 290v-48q0 -63 -30.5 -100.5t-85.5 -37.5t-85 37.5t-30 100.5v48q0 63 30 100.5t85 37.5t85.5 -37.5t30.5 -100.5zM228 757l-117 -148h114l134 148h-131zM428 757l-117 -148h115l133 148h-131z" />
    <glyph glyph-name="OE" unicode="&#x152;" horiz-adv-x="1012" 
d="M52 387v-75q0 -31 4.5 -59.5t14 -54.5t22.5 -49.5t30 -43.5t37.5 -36.5t44 -29t50 -21.5t55.5 -13.5t60 -4.5h589v121h-330v170h320v119h-320v169h330v121h-589q-31 0 -60 -4.5t-55.5 -13.5t-50.5 -22t-44 -29.5t-37 -36.5t-30 -43.5t-22.5 -49.5t-14 -54.5t-4.5 -59.5z
M379 121q-82 0 -134 51.5t-52 144.5v65q0 93 53 145t134 52h110v-458h-111z" />
    <glyph glyph-name="oe" unicode="&#x153;" horiz-adv-x="927" 
d="M665 -12q68 0 119.5 23.5t89.5 65.5l-81 80q-27 -27 -57.5 -40.5t-66.5 -13.5q-53 0 -85 31.5t-36 88.5h337v71q0 28 -4 53.5t-12 48.5t-20 42.5t-27 36.5t-32.5 30t-38 22t-43.5 13.5t-48 4.5q-59 0 -105.5 -23t-77.5 -65q-31 42 -79 65t-107 23q-27 0 -52 -4.5t-47 -13
t-41.5 -21.5t-35.5 -29.5t-28.5 -36t-21.5 -42.5t-13.5 -49t-4.5 -55v-56q0 -29 4.5 -55t13.5 -49t21.5 -42.5t29 -36t35.5 -29.5t41.5 -21.5t47 -13t51.5 -4.5q60 0 108 23t79 66q31 -42 79 -65t108 -23zM654 429q44 0 71.5 -27.5t31.5 -77.5h-208q6 51 33.5 78t71.5 27z
M414 290v-48q0 -63 -31 -100.5t-87 -37.5t-86.5 37.5t-30.5 100.5v48q0 63 30.5 100.5t86.5 37.5t87 -37.5t31 -100.5z" />
    <glyph glyph-name="Racute" unicode="&#x154;" horiz-adv-x="660" 
d="M216 0v277h117l155 -277h158l-174 294q56 24 91.5 75t35.5 116q0 23 -4 44t-12.5 40.5t-19.5 36.5t-25.5 31.5t-31.5 26t-36.5 20t-40.5 12.5t-43 4h-309v-700h139zM363 579q43 0 69.5 -27t26.5 -67t-26.5 -67t-69.5 -27h-147v188h147zM358 925l-120 -148h128l139 148
h-147z" />
    <glyph glyph-name="racute" unicode="&#x155;" horiz-adv-x="411" 
d="M386 405v132h-41q-54 0 -89.5 -30t-51.5 -79v104h-133v-532h134v275q0 61 36.5 95.5t85.5 34.5h59zM274 757l-120 -148h128l139 148h-147z" />
    <glyph glyph-name="uni0156" unicode="&#x156;" horiz-adv-x="660" 
d="M216 0v277h117l155 -277h158l-174 294q56 24 91.5 75t35.5 116q0 23 -4 44t-12.5 40.5t-19.5 36.5t-25.5 31.5t-31.5 26t-36.5 20t-40.5 12.5t-43 4h-309v-700h139zM363 579q43 0 69.5 -27t26.5 -67t-26.5 -67t-69.5 -27h-147v188h147zM281 -246v-49q55 3 90 44t35 94
q0 41 -19 65t-50 24q-25 0 -42.5 -18t-17.5 -40q0 -8 1.5 -14.5t4.5 -11.5t7 -9.5t8 -8t9 -6.5t9 -5.5l8 -5t7 -5t4.5 -5.5t1.5 -6q0 -13 -16 -27t-40 -16z" />
    <glyph glyph-name="uni0157" unicode="&#x157;" horiz-adv-x="411" 
d="M386 405v132h-41q-54 0 -89.5 -30t-51.5 -79v104h-133v-532h134v275q0 61 36.5 95.5t85.5 34.5h59zM83 -246v-49q55 3 90 44t35 94q0 41 -19 65t-50 24q-25 0 -42.5 -18t-17.5 -40q0 -8 1.5 -14.5t4.5 -11.5t7 -9.5t8 -8t9 -6.5t9 -5.5l8 -5t7 -5t4.5 -5.5t1.5 -6
q0 -13 -16 -27t-40 -16z" />
    <glyph glyph-name="Rcaron" unicode="&#x158;" horiz-adv-x="660" 
d="M216 0v277h117l155 -277h158l-174 294q56 24 91.5 75t35.5 116q0 23 -4 44t-12.5 40.5t-19.5 36.5t-25.5 31.5t-31.5 26t-36.5 20t-40.5 12.5t-43 4h-309v-700h139zM363 579q43 0 69.5 -27t26.5 -67t-26.5 -67t-69.5 -27h-147v188h147zM393 925l-67 -79l-67 79h-118
l118 -148h132l119 148h-117z" />
    <glyph glyph-name="rcaron" unicode="&#x159;" horiz-adv-x="411" 
d="M386 405v132h-41q-54 0 -89.5 -30t-51.5 -79v104h-133v-532h134v275q0 61 36.5 95.5t85.5 34.5h59zM309 757l-67 -79l-67 79h-118l118 -148h132l119 148h-117z" />
    <glyph glyph-name="Sacute" unicode="&#x15a;" horiz-adv-x="620" 
d="M35 219q2 -26 9 -49.5t18 -44.5t26 -39t34 -33.5t41 -27t47 -20t52.5 -12.5t56.5 -4q30 0 56.5 4t50.5 12t44.5 19.5t37.5 25.5t30.5 31t22.5 36t13.5 40t4.5 43q0 78 -44.5 127t-143.5 72l-128 30q-39 9 -61.5 29.5t-22.5 52.5q0 40 31.5 62.5t77.5 22.5q57 0 92 -29.5
t46 -79.5h136q-14 99 -88 161.5t-185 62.5q-26 0 -50.5 -4t-47 -11t-42.5 -17.5t-36.5 -24.5t-30 -30.5t-22.5 -35.5t-14 -41t-5 -46q0 -78 46.5 -128t140.5 -72l129 -30q45 -10 64.5 -33t19.5 -49q0 -37 -30.5 -61t-90.5 -24q-66 0 -104.5 31t-45.5 84h-135zM338 925
l-120 -148h128l139 148h-147z" />
    <glyph glyph-name="sacute" unicode="&#x15b;" horiz-adv-x="520" 
d="M278 -12q90 0 147.5 46.5t57.5 121.5q0 60 -36.5 99t-108.5 56l-102 24q-31 7 -46.5 21t-15.5 33q0 23 17.5 37.5t47.5 14.5q39 0 67.5 -21.5t37.5 -56.5h128q-13 82 -76 132t-156 50q-87 0 -142 -46.5t-55 -121.5q0 -60 36.5 -99.5t110.5 -56.5l110 -26q24 -6 38 -19
t14 -30q0 -25 -20 -39.5t-54 -14.5q-47 0 -77.5 20t-39.5 56h-127q16 -83 82 -131.5t162 -48.5zM274 757l-120 -148h128l139 148h-147z" />
    <glyph glyph-name="Scircumflex" unicode="&#x15c;" horiz-adv-x="620" 
d="M35 219q2 -26 9 -49.5t18 -44.5t26 -39t34 -33.5t41 -27t47 -20t52.5 -12.5t56.5 -4q30 0 56.5 4t50.5 12t44.5 19.5t37.5 25.5t30.5 31t22.5 36t13.5 40t4.5 43q0 78 -44.5 127t-143.5 72l-128 30q-39 9 -61.5 29.5t-22.5 52.5q0 40 31.5 62.5t77.5 22.5q57 0 92 -29.5
t46 -79.5h136q-14 99 -88 161.5t-185 62.5q-26 0 -50.5 -4t-47 -11t-42.5 -17.5t-36.5 -24.5t-30 -30.5t-22.5 -35.5t-14 -41t-5 -46q0 -78 46.5 -128t140.5 -72l129 -30q45 -10 64.5 -33t19.5 -49q0 -37 -30.5 -61t-90.5 -24q-66 0 -104.5 31t-45.5 84h-135zM238 777l67 79
l67 -79h118l-118 148h-132l-119 -148h117z" />
    <glyph glyph-name="scircumflex" unicode="&#x15d;" horiz-adv-x="520" 
d="M278 -12q90 0 147.5 46.5t57.5 121.5q0 60 -36.5 99t-108.5 56l-102 24q-31 7 -46.5 21t-15.5 33q0 23 17.5 37.5t47.5 14.5q39 0 67.5 -21.5t37.5 -56.5h128q-13 82 -76 132t-156 50q-87 0 -142 -46.5t-55 -121.5q0 -60 36.5 -99.5t110.5 -56.5l110 -26q24 -6 38 -19
t14 -30q0 -25 -20 -39.5t-54 -14.5q-47 0 -77.5 20t-39.5 56h-127q16 -83 82 -131.5t162 -48.5zM174 609l67 79l67 -79h118l-118 148h-132l-119 -148h117z" />
    <glyph glyph-name="uni015E" unicode="&#x15e;" horiz-adv-x="620" 
d="M35 219q7 -93 74.5 -155t168.5 -73l-28 -88h44q19 0 32.5 -9.5t13.5 -25.5q0 -14 -12 -25t-33 -11q-18 0 -33.5 7.5t-28.5 22.5l-53 -44q18 -24 50 -37.5t71 -13.5q50 0 84.5 28.5t34.5 71.5q0 34 -23 57t-61 28l13 38q105 8 167.5 67.5t62.5 142.5q0 78 -44.5 127
t-143.5 72l-128 30q-39 9 -61.5 29.5t-22.5 52.5q0 40 31.5 62.5t77.5 22.5q57 0 92 -29.5t46 -79.5h136q-14 99 -88 161.5t-185 62.5q-26 0 -50.5 -4t-47 -11t-42.5 -17.5t-36.5 -24.5t-30 -30.5t-22.5 -35.5t-14 -41t-5 -46q0 -78 46.5 -128t140.5 -72l129 -30
q45 -10 64.5 -33t19.5 -49q0 -37 -30.5 -61t-90.5 -24q-66 0 -104.5 31t-45.5 84h-135z" />
    <glyph glyph-name="uni015F" unicode="&#x15f;" horiz-adv-x="520" 
d="M377 -133q0 34 -23 57t-61 28l13 37q79 7 128 52.5t49 114.5q0 60 -36.5 99t-108.5 56l-102 24q-31 7 -46.5 21t-15.5 33q0 23 17.5 37.5t47.5 14.5q39 0 67.5 -21.5t37.5 -56.5h128q-13 82 -76 132t-156 50q-87 0 -142 -46.5t-55 -121.5q0 -60 36.5 -99.5t110.5 -56.5
l110 -26q24 -6 38 -19t14 -30q0 -25 -20 -39.5t-54 -14.5q-47 0 -77.5 20t-39.5 56h-127q14 -73 67.5 -120t133.5 -57l-28 -88h44q19 0 32.5 -9.5t13.5 -25.5q0 -14 -12 -25t-33 -11q-18 0 -33.5 7.5t-28.5 22.5l-53 -44q18 -24 50 -37.5t71 -13.5q50 0 84.5 28.5t34.5 71.5
z" />
    <glyph glyph-name="Scaron" unicode="&#x160;" horiz-adv-x="620" 
d="M35 219q2 -26 9 -49.5t18 -44.5t26 -39t34 -33.5t41 -27t47 -20t52.5 -12.5t56.5 -4q30 0 56.5 4t50.5 12t44.5 19.5t37.5 25.5t30.5 31t22.5 36t13.5 40t4.5 43q0 78 -44.5 127t-143.5 72l-128 30q-39 9 -61.5 29.5t-22.5 52.5q0 40 31.5 62.5t77.5 22.5q57 0 92 -29.5
t46 -79.5h136q-14 99 -88 161.5t-185 62.5q-26 0 -50.5 -4t-47 -11t-42.5 -17.5t-36.5 -24.5t-30 -30.5t-22.5 -35.5t-14 -41t-5 -46q0 -78 46.5 -128t140.5 -72l129 -30q45 -10 64.5 -33t19.5 -49q0 -37 -30.5 -61t-90.5 -24q-66 0 -104.5 31t-45.5 84h-135zM373 925
l-67 -79l-67 79h-118l118 -148h132l119 148h-117z" />
    <glyph glyph-name="scaron" unicode="&#x161;" horiz-adv-x="520" 
d="M278 -12q90 0 147.5 46.5t57.5 121.5q0 60 -36.5 99t-108.5 56l-102 24q-31 7 -46.5 21t-15.5 33q0 23 17.5 37.5t47.5 14.5q39 0 67.5 -21.5t37.5 -56.5h128q-13 82 -76 132t-156 50q-87 0 -142 -46.5t-55 -121.5q0 -60 36.5 -99.5t110.5 -56.5l110 -26q24 -6 38 -19
t14 -30q0 -25 -20 -39.5t-54 -14.5q-47 0 -77.5 20t-39.5 56h-127q16 -83 82 -131.5t162 -48.5zM309 757l-67 -79l-67 79h-118l118 -148h132l119 148h-117z" />
    <glyph glyph-name="uni0162" unicode="&#x162;" horiz-adv-x="645" 
d="M18 579h235v-579h37l-31 -97h44q19 0 32.5 -9.5t13.5 -25.5q0 -14 -12 -25t-33 -11q-18 0 -33.5 7.5t-28.5 22.5l-53 -44q18 -24 50 -37.5t71 -13.5q50 0 84.5 28.5t34.5 71.5q0 34 -23 57t-61 28l17 48h30v579h235v121h-609v-121z" />
    <glyph glyph-name="uni0163" unicode="&#x163;" horiz-adv-x="425" 
d="M22 416h107v-285q0 -50 29.5 -86t86.5 -43l-31 -99h44q19 0 32.5 -9.5t13.5 -25.5q0 -14 -12 -25t-33 -11q-18 0 -33.5 7.5t-28.5 22.5l-53 -44q18 -24 50 -37.5t71 -13.5q50 0 84.5 28.5t34.5 71.5q0 34 -23 57t-61 28l17 48h87v116h-92q-22 0 -35.5 10t-13.5 30v260
h141v116h-141v154h-134v-154h-107v-116z" />
    <glyph glyph-name="Tcaron" unicode="&#x164;" horiz-adv-x="645" 
d="M18 579h235v-579h139v579h235v121h-609v-121zM391 925l-67 -79l-67 79h-118l118 -148h132l119 148h-117z" />
    <glyph glyph-name="tcaron" unicode="&#x165;" horiz-adv-x="425" 
d="M324 602h99l44 218h-126zM272 0h132v116h-92q-22 0 -35.5 10t-13.5 30v260h141v116h-141v154h-134v-154h-107v-116h107v-285q0 -55 36.5 -93t106.5 -38z" />
    <glyph glyph-name="Tbar" unicode="&#x166;" horiz-adv-x="645" 
d="M108 275h145v-275h139v275h145v118h-145v186h235v121h-609v-121h235v-186h-145v-118z" />
    <glyph glyph-name="tbar" unicode="&#x167;" horiz-adv-x="425" 
d="M272 0h132v116h-92q-22 0 -35.5 10t-13.5 30v67h141v108h-141v85h141v116h-141v154h-134v-154h-107v-116h107v-85h-107v-108h107v-92q0 -55 36.5 -93t106.5 -38z" />
    <glyph glyph-name="Utilde" unicode="&#x168;" horiz-adv-x="726" 
d="M206 275v425h-139v-435q0 -31 5 -59.5t14.5 -54t23.5 -47.5t31.5 -40.5t38 -32.5t44 -24t49.5 -15t54 -5q56 0 103.5 23.5t80.5 64.5v-75h138v700h-139v-425q0 -74 -43.5 -120t-108.5 -46q-64 0 -108 44t-44 122zM289 910q-40 0 -69 -29.5t-43 -92.5l84 -17q7 31 17 42
t22 11q5 0 10.5 -1.5t11.5 -4.5l13 -6.5t14.5 -7t15 -7.5t15.5 -7.5t15.5 -6.5t15.5 -4.5t15 -1.5q40 0 69 29.5t43 91.5l-84 18q-7 -31 -17 -42t-22 -11q-5 0 -10.5 1.5t-11.5 4.5l-13 6.5t-14.5 7t-15 7.5t-15.5 7.5t-15.5 6.5t-15.5 4.5t-15 1.5z" />
    <glyph glyph-name="utilde" unicode="&#x169;" 
d="M71 186q0 -21 3.5 -40.5t10 -37.5t16.5 -34t22.5 -29.5t27.5 -24t32.5 -18t37 -11.5t40.5 -4q50 0 91.5 26.5t65.5 73.5v-87h134v532h-134v-315q0 -47 -30 -78.5t-77 -31.5t-76.5 32t-29.5 78v315h-134v-346zM243 742q-40 0 -69 -29.5t-43 -92.5l84 -17q7 31 17 42t22 11
q5 0 10.5 -1.5t11.5 -4.5l13 -6.5t14.5 -7t15 -7.5t15.5 -7.5t15.5 -6.5t15.5 -4.5t15 -1.5q40 0 69 29.5t43 91.5l-84 18q-7 -31 -17 -42t-22 -11q-5 0 -10.5 1.5t-11.5 4.5l-13 6.5t-14.5 7t-15 7.5t-15.5 7.5t-15.5 6.5t-15.5 4.5t-15 1.5z" />
    <glyph glyph-name="Umacron" unicode="&#x16a;" horiz-adv-x="726" 
d="M206 275v425h-139v-435q0 -31 5 -59.5t14.5 -54t23.5 -47.5t31.5 -40.5t38 -32.5t44 -24t49.5 -15t54 -5q56 0 103.5 23.5t80.5 64.5v-75h138v700h-139v-425q0 -74 -43.5 -120t-108.5 -46q-64 0 -108 44t-44 122zM492 884h-268v-87h268v87z" />
    <glyph glyph-name="umacron" unicode="&#x16b;" 
d="M71 186q0 -21 3.5 -40.5t10 -37.5t16.5 -34t22.5 -29.5t27.5 -24t32.5 -18t37 -11.5t40.5 -4q50 0 91.5 26.5t65.5 73.5v-87h134v532h-134v-315q0 -47 -30 -78.5t-77 -31.5t-76.5 32t-29.5 78v315h-134v-346zM446 716h-268v-87h268v87z" />
    <glyph glyph-name="Ubreve" unicode="&#x16c;" horiz-adv-x="726" 
d="M206 275v425h-139v-435q0 -31 5 -59.5t14.5 -54t23.5 -47.5t31.5 -40.5t38 -32.5t44 -24t49.5 -15t54 -5q56 0 103.5 23.5t80.5 64.5v-75h138v700h-139v-425q0 -74 -43.5 -120t-108.5 -46q-64 0 -108 44t-44 122zM358 849q-25 0 -47 14t-38 57l-87 -26q18 -60 65.5 -93
t106.5 -33t106.5 33t65.5 93l-87 26q-15 -43 -38.5 -57t-46.5 -14z" />
    <glyph glyph-name="ubreve" unicode="&#x16d;" 
d="M71 186q0 -21 3.5 -40.5t10 -37.5t16.5 -34t22.5 -29.5t27.5 -24t32.5 -18t37 -11.5t40.5 -4q50 0 91.5 26.5t65.5 73.5v-87h134v532h-134v-315q0 -47 -30 -78.5t-77 -31.5t-76.5 32t-29.5 78v315h-134v-346zM312 681q-25 0 -47 14t-38 57l-87 -26q18 -60 65.5 -93
t106.5 -33t106.5 33t65.5 93l-87 26q-15 -43 -38.5 -57t-46.5 -14z" />
    <glyph glyph-name="Uring" unicode="&#x16e;" horiz-adv-x="726" 
d="M206 275v425h-139v-435q0 -31 5 -59.5t14.5 -54t23.5 -47.5t31.5 -40.5t38 -32.5t44 -24t49.5 -15t54 -5q56 0 103.5 23.5t80.5 64.5v-75h138v700h-139v-425q0 -74 -43.5 -120t-108.5 -46q-64 0 -108 44t-44 122zM358 754q48 0 82 33.5t34 80.5q0 46 -34 79t-82 33
t-82 -33t-34 -79q0 -48 33.5 -81t82.5 -33zM358 813q-23 0 -39 16t-16 39q0 22 16 37.5t39 15.5t39 -15.5t16 -37.5t-16 -38.5t-39 -16.5z" />
    <glyph glyph-name="uring" unicode="&#x16f;" 
d="M71 186q0 -21 3.5 -40.5t10 -37.5t16.5 -34t22.5 -29.5t27.5 -24t32.5 -18t37 -11.5t40.5 -4q50 0 91.5 26.5t65.5 73.5v-87h134v532h-134v-315q0 -47 -30 -78.5t-77 -31.5t-76.5 32t-29.5 78v315h-134v-346zM312 586q48 0 82 33.5t34 80.5q0 46 -34 79t-82 33t-82 -33
t-34 -79q0 -48 33.5 -81t82.5 -33zM312 645q-23 0 -39 16t-16 39q0 22 16 37.5t39 15.5t39 -15.5t16 -37.5t-16 -38.5t-39 -16.5z" />
    <glyph glyph-name="Uhungarumlaut" unicode="&#x170;" horiz-adv-x="726" 
d="M206 275v425h-139v-435q0 -31 5 -59.5t14.5 -54t23.5 -47.5t31.5 -40.5t38 -32.5t44 -24t49.5 -15t54 -5q56 0 103.5 23.5t80.5 64.5v-75h138v700h-139v-425q0 -74 -43.5 -120t-108.5 -46q-64 0 -108 44t-44 122zM292 925l-117 -148h114l134 148h-131zM492 925l-117 -148
h115l133 148h-131z" />
    <glyph glyph-name="uhungarumlaut" unicode="&#x171;" 
d="M71 186q0 -21 3.5 -40.5t10 -37.5t16.5 -34t22.5 -29.5t27.5 -24t32.5 -18t37 -11.5t40.5 -4q50 0 91.5 26.5t65.5 73.5v-87h134v532h-134v-315q0 -47 -30 -78.5t-77 -31.5t-76.5 32t-29.5 78v315h-134v-346zM246 757l-117 -148h114l134 148h-131zM446 757l-117 -148h115
l133 148h-131z" />
    <glyph glyph-name="Uogonek" unicode="&#x172;" horiz-adv-x="726" 
d="M206 275v425h-139v-435q0 -31 5 -59.5t14.5 -54t23.5 -47.5t31.5 -40.5t38 -32.5t44 -24t49.5 -15t54 -5q56 0 103.5 23.5t80.5 64.5v-75h58q-46 -34 -62.5 -65.5t-16.5 -63.5q0 -39 27.5 -65.5t80.5 -26.5q19 0 38 4t32 10l-14 66q-10 -4 -20 -6t-20 -2q-20 0 -32 11
t-12 33q0 21 14 47.5t65 57.5v700h-139v-425q0 -74 -43.5 -120t-108.5 -46q-64 0 -108 44t-44 122z" />
    <glyph glyph-name="uogonek" unicode="&#x173;" 
d="M71 186q0 -21 3.5 -40.5t10 -37.5t16.5 -34t22.5 -29.5t27.5 -24t32.5 -18t37 -11.5t40.5 -4q50 0 91.5 26.5t65.5 73.5v-87h54q-46 -34 -62.5 -65.5t-16.5 -63.5q0 -39 27.5 -65.5t80.5 -26.5q19 0 38 4t32 10l-14 66q-10 -4 -20 -6t-20 -2q-20 0 -32 11t-12 33
q0 21 14 47.5t65 57.5v532h-134v-315q0 -47 -30 -78.5t-77 -31.5t-76.5 32t-29.5 78v315h-134v-346z" />
    <glyph glyph-name="Wcircumflex" unicode="&#x174;" horiz-adv-x="980" 
d="M555 700h-123l-155 -504l-126 504h-145l192 -700h140l152 495l152 -495h140l192 700h-138l-126 -504zM423 777l67 79l67 -79h118l-118 148h-132l-119 -148h117z" />
    <glyph glyph-name="wcircumflex" unicode="&#x175;" horiz-adv-x="788" 
d="M341 532l-110 -338l-88 338h-136l149 -532h124l114 352l114 -352h124l149 532h-131l-88 -338l-110 338h-111zM327 609l67 79l67 -79h118l-118 148h-132l-119 -148h117z" />
    <glyph glyph-name="Ycircumflex" unicode="&#x176;" horiz-adv-x="675" 
d="M407 0v280l275 420h-162l-181 -283l-180 283h-166l275 -419v-281h139zM271 777l67 79l67 -79h118l-118 148h-132l-119 -148h117z" />
    <glyph glyph-name="ycircumflex" unicode="&#x177;" horiz-adv-x="560" 
d="M207 -42q-13 -36 -30.5 -51t-47.5 -15h-55v-113h77q62 0 100.5 24.5t66.5 96.5l241 632h-141l-133 -361l-139 361h-145l219 -540zM213 609l67 79l67 -79h118l-118 148h-132l-119 -148h117z" />
    <glyph glyph-name="Ydieresis" unicode="&#x178;" horiz-adv-x="675" 
d="M407 0v280l275 420h-162l-181 -283l-180 283h-166l275 -419v-281h139zM231 770q31 0 53 22t22 53q0 32 -22 54t-53 22t-54 -22t-23 -54q0 -31 23 -53t54 -22zM446 770q31 0 53 22t22 53q0 32 -22 54t-53 22t-54 -22t-23 -54q0 -31 23 -53t54 -22z" />
    <glyph glyph-name="Zacute" unicode="&#x179;" horiz-adv-x="604" 
d="M45 579h338l-352 -489v-90h533v121h-354l350 486v93h-515v-121zM335 925l-120 -148h128l139 148h-147z" />
    <glyph glyph-name="zacute" unicode="&#x17a;" horiz-adv-x="509" 
d="M47 416h254l-259 -319v-97h425v116h-262l255 316v100h-413v-116zM288 757l-120 -148h128l139 148h-147z" />
    <glyph glyph-name="Zdotaccent" unicode="&#x17b;" horiz-adv-x="604" 
d="M45 579h338l-352 -489v-90h533v121h-354l350 486v93h-515v-121zM303 770q31 0 53 22t22 53q0 32 -22 54t-53 22t-54 -22t-23 -54q0 -31 23 -53t54 -22z" />
    <glyph glyph-name="zdotaccent" unicode="&#x17c;" horiz-adv-x="509" 
d="M47 416h254l-259 -319v-97h425v116h-262l255 316v100h-413v-116zM256 602q31 0 53 22t22 53q0 32 -22 54t-53 22t-54 -22t-23 -54q0 -31 23 -53t54 -22z" />
    <glyph glyph-name="Zcaron" unicode="&#x17d;" horiz-adv-x="604" 
d="M45 579h338l-352 -489v-90h533v121h-354l350 486v93h-515v-121zM370 925l-67 -79l-67 79h-118l118 -148h132l119 148h-117z" />
    <glyph glyph-name="zcaron" unicode="&#x17e;" horiz-adv-x="509" 
d="M47 416h254l-259 -319v-97h425v116h-262l255 316v100h-413v-116zM323 757l-67 -79l-67 79h-118l118 -148h132l119 148h-117z" />
    <glyph glyph-name="florin" unicode="&#x192;" horiz-adv-x="420" 
d="M46 -65q-3 -20 -11.5 -30t-24.5 -10h-100v-116h127q70 0 102.5 38.5t40.5 92.5l74 506h144v116h-127l11 72q3 20 11.5 30t24.5 10h100v116h-127q-70 0 -102.5 -38.5t-40.5 -92.5l-14 -97h-113v-116h96z" />
    <glyph glyph-name="uni0218" unicode="&#x218;" horiz-adv-x="620" 
d="M35 219q2 -26 9 -49.5t18 -44.5t26 -39t34 -33.5t41 -27t47 -20t52.5 -12.5t56.5 -4q30 0 56.5 4t50.5 12t44.5 19.5t37.5 25.5t30.5 31t22.5 36t13.5 40t4.5 43q0 78 -44.5 127t-143.5 72l-128 30q-39 9 -61.5 29.5t-22.5 52.5q0 40 31.5 62.5t77.5 22.5q57 0 92 -29.5
t46 -79.5h136q-14 99 -88 161.5t-185 62.5q-26 0 -50.5 -4t-47 -11t-42.5 -17.5t-36.5 -24.5t-30 -30.5t-22.5 -35.5t-14 -41t-5 -46q0 -78 46.5 -128t140.5 -72l129 -30q45 -10 64.5 -33t19.5 -49q0 -37 -30.5 -61t-90.5 -24q-66 0 -104.5 31t-45.5 84h-135zM258 -246v-49
q55 3 90 44t35 94q0 41 -19 65t-50 24q-25 0 -42.5 -18t-17.5 -40q0 -8 1.5 -14.5t4.5 -11.5t7 -9.5t8 -8t9 -6.5t9 -5.5l8 -5t7 -5t4.5 -5.5t1.5 -6q0 -13 -16 -27t-40 -16z" />
    <glyph glyph-name="uni0219" unicode="&#x219;" horiz-adv-x="520" 
d="M278 -12q90 0 147.5 46.5t57.5 121.5q0 60 -36.5 99t-108.5 56l-102 24q-31 7 -46.5 21t-15.5 33q0 23 17.5 37.5t47.5 14.5q39 0 67.5 -21.5t37.5 -56.5h128q-13 82 -76 132t-156 50q-87 0 -142 -46.5t-55 -121.5q0 -60 36.5 -99.5t110.5 -56.5l110 -26q24 -6 38 -19
t14 -30q0 -25 -20 -39.5t-54 -14.5q-47 0 -77.5 20t-39.5 56h-127q16 -83 82 -131.5t162 -48.5zM215 -246v-49q55 3 90 44t35 94q0 41 -19 65t-50 24q-25 0 -42.5 -18t-17.5 -40q0 -8 1.5 -14.5t4.5 -11.5t7 -9.5t8 -8t9 -6.5t9 -5.5l8 -5t7 -5t4.5 -5.5t1.5 -6
q0 -13 -16 -27t-40 -16z" />
    <glyph glyph-name="uni021A" unicode="&#x21a;" horiz-adv-x="645" 
d="M18 579h235v-579h139v579h235v121h-609v-121zM267 -246v-49q55 3 90 44t35 94q0 41 -19 65t-50 24q-25 0 -42.5 -18t-17.5 -40q0 -8 1.5 -14.5t4.5 -11.5t7 -9.5t8 -8t9 -6.5t9 -5.5l8 -5t7 -5t4.5 -5.5t1.5 -6q0 -13 -16 -27t-40 -16z" />
    <glyph glyph-name="uni021B" unicode="&#x21b;" horiz-adv-x="425" 
d="M272 0h132v116h-92q-22 0 -35.5 10t-13.5 30v260h141v116h-141v154h-134v-154h-107v-116h107v-285q0 -55 36.5 -93t106.5 -38zM219 -246v-49q55 3 90 44t35 94q0 41 -19 65t-50 24q-25 0 -42.5 -18t-17.5 -40q0 -8 1.5 -14.5t4.5 -11.5t7 -9.5t8 -8t9 -6.5t9 -5.5l8 -5
t7 -5t4.5 -5.5t1.5 -6q0 -13 -16 -27t-40 -16z" />
    <glyph glyph-name="uni0237" unicode="&#x237;" horiz-adv-x="276" 
d="M69 -221q66 0 101 37.5t35 90.5v625h-134v-599q0 -21 -11 -31t-29 -10h-32v-113h70z" />
    <glyph glyph-name="circumflex" unicode="&#x2c6;" horiz-adv-x="500" 
d="M183 595l67 79l67 -79h118l-118 148h-132l-119 -148h117z" />
    <glyph glyph-name="caron" unicode="&#x2c7;" horiz-adv-x="500" 
d="M318 743l-67 -79l-67 79h-118l118 -148h132l119 148h-117z" />
    <glyph glyph-name="breve" unicode="&#x2d8;" horiz-adv-x="500" 
d="M250 667q-25 0 -47 14t-38 57l-87 -26q18 -60 65.5 -93t106.5 -33t106.5 33t65.5 93l-87 26q-15 -43 -38.5 -57t-46.5 -14z" />
    <glyph glyph-name="dotaccent" unicode="&#x2d9;" horiz-adv-x="267" 
d="M138 588q31 0 53 22t22 53q0 32 -22 54t-53 22t-54 -22t-23 -54q0 -31 23 -53t54 -22z" />
    <glyph glyph-name="ring" unicode="&#x2da;" horiz-adv-x="500" 
d="M250 572q48 0 82 33.5t34 80.5q0 46 -34 79t-82 33t-82 -33t-34 -79q0 -48 33.5 -81t82.5 -33zM250 631q-23 0 -39 16t-16 39q0 22 16 37.5t39 15.5t39 -15.5t16 -37.5t-16 -38.5t-39 -16.5z" />
    <glyph glyph-name="ogonek" unicode="&#x2db;" horiz-adv-x="500" 
d="M316 0l-49 20q-66 -40 -88 -76t-22 -73q0 -39 27.5 -65.5t80.5 -26.5q19 0 38 4t32 10l-14 66q-10 -4 -20 -6t-20 -2q-20 0 -32 11t-12 33q0 21 14 47.5t65 57.5z" />
    <glyph glyph-name="tilde" unicode="&#x2dc;" horiz-adv-x="500" 
d="M181 728q-40 0 -69 -29.5t-43 -92.5l84 -17q7 31 17 42t22 11q5 0 10.5 -1.5t11.5 -4.5l13 -6.5t14.5 -7t15 -7.5t15.5 -7.5t15.5 -6.5t15.5 -4.5t15 -1.5q40 0 69 29.5t43 91.5l-84 18q-7 -31 -17 -42t-22 -11q-5 0 -10.5 1.5t-11.5 4.5l-13 6.5t-14.5 7t-15 7.5
t-15.5 7.5t-15.5 6.5t-15.5 4.5t-15 1.5z" />
    <glyph glyph-name="hungarumlaut" unicode="&#x2dd;" horiz-adv-x="526" 
d="M197 743l-117 -148h114l134 148h-131zM397 743l-117 -148h115l133 148h-131z" />
    <glyph glyph-name="uni09F3" unicode="&#x9f3;" horiz-adv-x="663" 
d="M225 193v183h63v108h-63v89q0 52 -33 89.5t-96 37.5h-70v-120h31q18 0 28.5 -10t10.5 -30v-56h-70v-108h70v-192q0 -23 4.5 -43.5t13 -39t21 -34t28 -28.5t34 -23.5t39.5 -17.5t43.5 -10.5t47.5 -3.5q26 0 51 4t48.5 11t45 17.5t40.5 24t36 29.5t31 34t25 38t18.5 42
t11.5 45t4 47q0 22 -3 42.5t-9.5 39.5t-15 36.5t-19.5 32.5t-24.5 28t-29 23t-32 17.5t-35 11t-37.5 3.5q-22 0 -45 -6t-51 -17l38 -114q13 5 27.5 9.5t27.5 4.5q33 0 56.5 -32.5t23.5 -78.5q0 -19 -3.5 -36.5t-10.5 -34t-16.5 -31t-21.5 -26.5t-26.5 -21.5t-30.5 -16.5
t-33.5 -10.5t-35.5 -3.5q-44 0 -75.5 25t-31.5 72z" />
    <glyph glyph-name="Wgrave" unicode="&#x1e80;" horiz-adv-x="980" 
d="M555 700h-123l-155 -504l-126 504h-145l192 -700h140l152 495l152 -495h140l192 700h-138l-126 -504zM458 925h-147l139 -148h128z" />
    <glyph glyph-name="wgrave" unicode="&#x1e81;" horiz-adv-x="788" 
d="M341 532l-110 -338l-88 338h-136l149 -532h124l114 352l114 -352h124l149 532h-131l-88 -338l-110 338h-111zM362 757h-147l139 -148h128z" />
    <glyph glyph-name="Wacute" unicode="&#x1e82;" horiz-adv-x="980" 
d="M555 700h-123l-155 -504l-126 504h-145l192 -700h140l152 495l152 -495h140l192 700h-138l-126 -504zM523 925l-120 -148h128l139 148h-147z" />
    <glyph glyph-name="wacute" unicode="&#x1e83;" horiz-adv-x="788" 
d="M341 532l-110 -338l-88 338h-136l149 -532h124l114 352l114 -352h124l149 532h-131l-88 -338l-110 338h-111zM427 757l-120 -148h128l139 148h-147z" />
    <glyph glyph-name="Wdieresis" unicode="&#x1e84;" horiz-adv-x="980" 
d="M555 700h-123l-155 -504l-126 504h-145l192 -700h140l152 495l152 -495h140l192 700h-138l-126 -504zM383 770q31 0 53 22t22 53q0 32 -22 54t-53 22t-54 -22t-23 -54q0 -31 23 -53t54 -22zM598 770q31 0 53 22t22 53q0 32 -22 54t-53 22t-54 -22t-23 -54q0 -31 23 -53
t54 -22z" />
    <glyph glyph-name="wdieresis" unicode="&#x1e85;" horiz-adv-x="788" 
d="M341 532l-110 -338l-88 338h-136l149 -532h124l114 352l114 -352h124l149 532h-131l-88 -338l-110 338h-111zM287 602q31 0 53 22t22 53q0 32 -22 54t-53 22t-54 -22t-23 -54q0 -31 23 -53t54 -22zM502 602q31 0 53 22t22 53q0 32 -22 54t-53 22t-54 -22t-23 -54
q0 -31 23 -53t54 -22z" />
    <glyph glyph-name="Ygrave" unicode="&#x1ef2;" horiz-adv-x="675" 
d="M407 0v280l275 420h-162l-181 -283l-180 283h-166l275 -419v-281h139zM306 925h-147l139 -148h128z" />
    <glyph glyph-name="ygrave" unicode="&#x1ef3;" horiz-adv-x="560" 
d="M207 -42q-13 -36 -30.5 -51t-47.5 -15h-55v-113h77q62 0 100.5 24.5t66.5 96.5l241 632h-141l-133 -361l-139 361h-145l219 -540zM248 757h-147l139 -148h128z" />
    <glyph glyph-name="uni2002" unicode="&#x2002;" horiz-adv-x="500" 
 />
    <glyph glyph-name="uni2003" unicode="&#x2003;" horiz-adv-x="1000" 
 />
    <glyph glyph-name="uni2009" unicode="&#x2009;" horiz-adv-x="175" 
 />
    <glyph glyph-name="uni200A" unicode="&#x200a;" horiz-adv-x="100" 
 />
    <glyph glyph-name="uni200B" unicode="&#x200b;" horiz-adv-x="0" 
 />
    <glyph glyph-name="endash" unicode="&#x2013;" horiz-adv-x="595" 
d="M48 240h499v118h-499v-118z" />
    <glyph glyph-name="emdash" unicode="&#x2014;" horiz-adv-x="795" 
d="M48 240h699v118h-699v-118z" />
    <glyph glyph-name="uni2015" unicode="&#x2015;" horiz-adv-x="995" 
d="M48 240h899v118h-899v-118z" />
    <glyph glyph-name="quoteleft" unicode="&#x2018;" horiz-adv-x="260" 
d="M207 679v65q-75 -13 -119 -70t-44 -141q0 -53 24 -84.5t64 -31.5q30 0 51.5 21.5t21.5 50.5q0 9 -1.5 16.5t-5 14t-7.5 12t-9 10t-10 8t-10 7.5t-10 7.5t-9 7t-7.5 8t-5 9t-1.5 10.5q0 25 24 49.5t54 30.5z" />
    <glyph glyph-name="quoteright" unicode="&#x2019;" horiz-adv-x="260" 
d="M53 489v-65q75 13 119 70t44 141q0 53 -24 84.5t-64 31.5q-30 0 -51.5 -21.5t-21.5 -50.5q0 -9 1.5 -16.5t5 -14t7.5 -12t9 -10t10 -8t10 -7.5t10 -7.5t9 -7t7.5 -8t5 -9t1.5 -10.5q0 -25 -24 -49.5t-54 -30.5z" />
    <glyph glyph-name="quotesinglbase" unicode="&#x201a;" horiz-adv-x="260" 
d="M53 -118v-65q75 13 119 70t44 141q0 53 -24 84.5t-64 31.5q-30 0 -51.5 -21.5t-21.5 -50.5q0 -9 1.5 -16.5t5 -14t7.5 -12t9 -10t10 -8t10 -7.5t10 -7.5t9 -7t7.5 -8t5 -9t1.5 -10.5q0 -25 -24 -49.5t-54 -30.5z" />
    <glyph glyph-name="quotedblleft" unicode="&#x201c;" horiz-adv-x="490" 
d="M207 679v65q-75 -13 -119 -70t-44 -141q0 -53 24 -84.5t64 -31.5q30 0 51.5 21.5t21.5 50.5q0 9 -1.5 16.5t-5 14t-7.5 12t-9 10t-10 8t-10 7.5t-10 7.5t-9 7t-7.5 8t-5 9t-1.5 10.5q0 25 24 49.5t54 30.5zM437 679v65q-75 -13 -119 -70t-44 -141q0 -53 24 -84.5
t64 -31.5q30 0 51.5 21.5t21.5 50.5q0 9 -1.5 16.5t-5 14t-7.5 12t-9 10t-10 8t-10 7.5t-10 7.5t-9 7t-7.5 8t-5 9t-1.5 10.5q0 25 24 49.5t54 30.5z" />
    <glyph glyph-name="quotedblright" unicode="&#x201d;" horiz-adv-x="490" 
d="M283 489v-65q75 13 119 70t44 141q0 53 -24 84.5t-64 31.5q-30 0 -51.5 -21.5t-21.5 -50.5q0 -9 1.5 -16.5t5 -14t7.5 -12t9 -10t10 -8t10 -7.5t10 -7.5t9 -7t7.5 -8t5 -9t1.5 -10.5q0 -25 -24 -49.5t-54 -30.5zM53 489v-65q75 13 119 70t44 141q0 53 -24 84.5t-64 31.5
q-30 0 -51.5 -21.5t-21.5 -50.5q0 -9 1.5 -16.5t5 -14t7.5 -12t9 -10t10 -8t10 -7.5t10 -7.5t9 -7t7.5 -8t5 -9t1.5 -10.5q0 -25 -24 -49.5t-54 -30.5z" />
    <glyph glyph-name="quotedblbase" unicode="&#x201e;" horiz-adv-x="490" 
d="M283 -118v-65q75 13 119 70t44 141q0 53 -24 84.5t-64 31.5q-30 0 -51.5 -21.5t-21.5 -50.5q0 -9 1.5 -16.5t5 -14t7.5 -12t9 -10t10 -8t10 -7.5t10 -7.5t9 -7t7.5 -8t5 -9t1.5 -10.5q0 -25 -24 -49.5t-54 -30.5zM53 -118v-65q75 13 119 70t44 141q0 53 -24 84.5
t-64 31.5q-30 0 -51.5 -21.5t-21.5 -50.5q0 -9 1.5 -16.5t5 -14t7.5 -12t9 -10t10 -8t10 -7.5t10 -7.5t9 -7t7.5 -8t5 -9t1.5 -10.5q0 -25 -24 -49.5t-54 -30.5z" />
    <glyph glyph-name="dagger" unicode="&#x2020;" horiz-adv-x="420" 
d="M157 0h107v416h121v102h-121v182h-107v-182h-121v-102h121v-416z" />
    <glyph glyph-name="daggerdbl" unicode="&#x2021;" horiz-adv-x="420" 
d="M157 0h107v182h121v102h-121v132h121v102h-121v182h-107v-182h-121v-102h121v-132h-121v-102h121v-182z" />
    <glyph glyph-name="bullet" unicode="&#x2022;" horiz-adv-x="362" 
d="M182 459q-53 0 -90.5 -36.5t-37.5 -88.5q0 -53 37.5 -89.5t90.5 -36.5t89.5 36.5t36.5 89.5q0 52 -36.5 88.5t-89.5 36.5z" />
    <glyph glyph-name="ellipsis" unicode="&#x2026;" horiz-adv-x="780" 
d="M130 147q-32 0 -55 -22.5t-23 -55.5q0 -32 23 -54.5t55 -22.5t54.5 22.5t22.5 54.5q0 33 -22.5 55.5t-54.5 22.5zM390 147q-32 0 -55 -22.5t-23 -55.5q0 -32 23 -54.5t55 -22.5t54.5 22.5t22.5 54.5q0 33 -22.5 55.5t-54.5 22.5zM650 147q-32 0 -55 -22.5t-23 -55.5
q0 -32 23 -54.5t55 -22.5t54.5 22.5t22.5 54.5q0 33 -22.5 55.5t-54.5 22.5z" />
    <glyph glyph-name="guilsinglleft" unicode="&#x2039;" horiz-adv-x="414" 
d="M399 532h-141l-247 -265l247 -267h144l-243 268z" />
    <glyph glyph-name="guilsinglright" unicode="&#x203a;" horiz-adv-x="414" 
d="M15 0h141l247 265l-247 267h-144l243 -268z" />
    <glyph glyph-name="fraction" unicode="&#x2044;" horiz-adv-x="561" 
d="M143 0l376 700h-102l-375 -700h101z" />
    <glyph glyph-name="uni2070" unicode="&#x2070;" horiz-adv-x="368" 
d="M33 456q0 -69 42 -109.5t108 -40.5q67 0 109.5 40.5t42.5 109.5v104q0 69 -42.5 109t-109.5 40q-66 0 -108 -40.5t-42 -108.5v-104zM245 459q0 -37 -17 -55t-45 -18t-44 18t-16 55v98q0 35 16 54t44 19t45 -18.5t17 -54.5v-98z" />
    <glyph glyph-name="uni2074" unicode="&#x2074;" horiz-adv-x="370" 
d="M210 315h90v90h41v75h-41v220h-119l-155 -227v-68h184v-90zM119 480l91 137v-137h-91z" />
    <glyph glyph-name="uni2075" unicode="&#x2075;" horiz-adv-x="346" 
d="M190 567q-21 0 -38 -5.5t-33 -21.5l2 81h164v79h-241l-9 -218l74 -12q13 13 24.5 18.5t29.5 5.5q31 0 46 -16t15 -37q0 -24 -16.5 -40.5t-44.5 -16.5q-24 0 -40 11t-27 32l-73 -41q19 -37 55.5 -58.5t90.5 -21.5q65 0 105 41.5t40 99.5q0 49 -34.5 84.5t-89.5 35.5z" />
    <glyph glyph-name="uni2076" unicode="&#x2076;" horiz-adv-x="359" 
d="M196 631q21 0 38.5 -7.5t32.5 -21.5l53 58q-26 23 -55 34.5t-69 11.5q-75 0 -119 -48.5t-44 -141.5v-25q0 -84 42.5 -133.5t113.5 -49.5q59 0 99 39.5t40 102.5q0 49 -35.5 87t-86.5 38q-20 0 -45.5 -10t-38.5 -40v9q0 49 23 73t51 24zM185 384q-25 0 -41.5 17t-16.5 42
t17 41.5t41 16.5q25 0 42 -16.5t17 -41.5t-17 -42t-42 -17z" />
    <glyph glyph-name="uni2077" unicode="&#x2077;" horiz-adv-x="342" 
d="M315 632v68h-288v-79h188l-161 -306h106z" />
    <glyph glyph-name="uni2078" unicode="&#x2078;" horiz-adv-x="364" 
d="M182 306q63 0 105 34t42 86q0 31 -19 54.5t-50 33.5q25 12 40.5 33.5t15.5 49.5q0 46 -39 78t-95 32q-57 0 -95.5 -32t-38.5 -78q0 -28 16 -49.5t41 -32.5q-31 -10 -50.5 -34t-19.5 -55q0 -52 42 -86t105 -34zM182 547q-19 0 -33 12.5t-14 29.5q0 18 14 30t33 12
q20 0 33.5 -12t13.5 -30q0 -17 -14 -29.5t-33 -12.5zM182 477q23 0 40 -14.5t17 -34.5q0 -19 -16.5 -32t-40.5 -13q-23 0 -39.5 13t-16.5 32q0 20 16.5 34.5t39.5 14.5z" />
    <glyph glyph-name="uni2079" unicode="&#x2079;" horiz-adv-x="359" 
d="M169 383q-20 0 -35.5 9.5t-29.5 29.5l-72 -42q22 -34 55.5 -53.5t82.5 -19.5q71 0 113 48.5t42 141.5v25q0 84 -42 133.5t-113 49.5q-59 0 -99 -39.5t-40 -102.5q0 -49 35 -87t86 -38q19 0 45 9.5t39 38.5v-7q0 -49 -20.5 -72.5t-46.5 -23.5zM174 629q25 0 41.5 -17
t16.5 -42t-17 -41.5t-41 -16.5q-25 0 -42 16.5t-17 41.5t17 42t42 17z" />
    <glyph glyph-name="uni2080" unicode="&#x2080;" horiz-adv-x="368" 
d="M33 141q0 -69 42 -109.5t108 -40.5q67 0 109.5 40.5t42.5 109.5v104q0 69 -42.5 109t-109.5 40q-66 0 -108 -40.5t-42 -108.5v-104zM245 144q0 -37 -17 -55t-45 -18t-44 18t-16 55v98q0 35 16 54t44 19t45 -18.5t17 -54.5v-98z" />
    <glyph glyph-name="uni2081" unicode="&#x2081;" horiz-adv-x="306" 
d="M284 79h-87v306h-158v-79h68v-227h-86v-79h263v79z" />
    <glyph glyph-name="uni2082" unicode="&#x2082;" horiz-adv-x="332" 
d="M297 273q0 51 -37.5 85t-98.5 34q-50 0 -87 -22t-59 -63l71 -41q14 25 31 37t39 12t36 -13.5t14 -35.5q0 -15 -6.5 -29.5t-27.5 -36.5l-139 -142v-58h271v79l-143 -3l76 77q37 37 48.5 64.5t11.5 55.5z" />
    <glyph glyph-name="uni2083" unicode="&#x2083;" horiz-adv-x="352" 
d="M176 392q-54 0 -92 -22t-57 -59l74 -38q11 20 27 31t38 11q23 0 37 -11.5t14 -29.5t-13 -30t-33 -12h-55v-73h62q23 0 37 -13t14 -29q0 -20 -16 -34t-43 -14q-25 0 -43.5 11t-30.5 31l-74 -40q19 -37 57 -58.5t94 -21.5q65 0 106 35.5t41 85.5q0 31 -19.5 55.5
t-50.5 36.5q26 12 41.5 33t15.5 47q0 46 -37.5 76.5t-93.5 31.5z" />
    <glyph glyph-name="uni2084" unicode="&#x2084;" horiz-adv-x="370" 
d="M210 0h90v90h41v75h-41v220h-119l-155 -227v-68h184v-90zM119 165l91 137v-137h-91z" />
    <glyph glyph-name="uni2085" unicode="&#x2085;" horiz-adv-x="346" 
d="M190 252q-21 0 -38 -5.5t-33 -21.5l2 81h164v79h-241l-9 -218l74 -12q13 13 24.5 18.5t29.5 5.5q31 0 46 -16t15 -37q0 -24 -16.5 -40.5t-44.5 -16.5q-24 0 -40 11t-27 32l-73 -41q19 -37 55.5 -58.5t90.5 -21.5q65 0 105 41.5t40 99.5q0 49 -34.5 84.5t-89.5 35.5z" />
    <glyph glyph-name="uni2086" unicode="&#x2086;" horiz-adv-x="359" 
d="M196 316q21 0 38.5 -7.5t32.5 -21.5l53 58q-26 23 -55 34.5t-69 11.5q-75 0 -119 -48.5t-44 -141.5v-25q0 -84 42.5 -133.5t113.5 -49.5q59 0 99 39.5t40 102.5q0 49 -35.5 87t-86.5 38q-20 0 -45.5 -10t-38.5 -40v9q0 49 23 73t51 24zM185 69q-25 0 -41.5 17t-16.5 42
t17 41.5t41 16.5q25 0 42 -16.5t17 -41.5t-17 -42t-42 -17z" />
    <glyph glyph-name="uni2087" unicode="&#x2087;" horiz-adv-x="342" 
d="M315 317v68h-288v-79h188l-161 -306h106z" />
    <glyph glyph-name="uni2088" unicode="&#x2088;" horiz-adv-x="364" 
d="M182 -9q63 0 105 34t42 86q0 31 -19 54.5t-50 33.5q25 12 40.5 33.5t15.5 49.5q0 46 -39 78t-95 32q-57 0 -95.5 -32t-38.5 -78q0 -28 16 -49.5t41 -32.5q-31 -10 -50.5 -34t-19.5 -55q0 -52 42 -86t105 -34zM182 232q-19 0 -33 12.5t-14 29.5q0 18 14 30t33 12
q20 0 33.5 -12t13.5 -30q0 -17 -14 -29.5t-33 -12.5zM182 162q23 0 40 -14.5t17 -34.5q0 -19 -16.5 -32t-40.5 -13q-23 0 -39.5 13t-16.5 32q0 20 16.5 34.5t39.5 14.5z" />
    <glyph glyph-name="uni2089" unicode="&#x2089;" horiz-adv-x="359" 
d="M169 68q-20 0 -35.5 9.5t-29.5 29.5l-72 -42q22 -34 55.5 -53.5t82.5 -19.5q71 0 113 48.5t42 141.5v25q0 84 -42 133.5t-113 49.5q-59 0 -99 -39.5t-40 -102.5q0 -49 35 -87t86 -38q19 0 45 9.5t39 38.5v-7q0 -49 -20.5 -72.5t-46.5 -23.5zM174 314q25 0 41.5 -17
t16.5 -42t-17 -41.5t-41 -16.5q-25 0 -42 16.5t-17 41.5t17 42t42 17z" />
    <glyph glyph-name="uni20A9" unicode="&#x20a9;" horiz-adv-x="1020" 
d="M8 321v-84h134l68 -237h140l72 237h176l72 -237h140l68 237h134v84h-110l16 58h94v84h-70l68 237h-144l-57 -237h-162l-73 237h-123l-73 -237h-162l-57 237h-149l68 -237h-70v-84h94l16 -58h-110zM491 463l19 61l19 -61h-38zM250 321l-14 58h116l-18 -58h-84zM448 321
l18 58h88l18 -58h-124zM691 321l-18 58h116l-14 -58h-84zM270 237h38l-21 -70zM717 237h38l-17 -70z" />
    <glyph glyph-name="Euro" unicode="&#x20ac;" horiz-adv-x="730" 
d="M401 321h-175v58h196l33 84h-219q17 59 59 91.5t100 32.5q61 0 102.5 -35t55.5 -98h135q-16 117 -94 188t-195 71q-119 0 -202 -68.5t-105 -181.5h-84v-84h77v-58h-77v-84h84q22 -113 105 -181.5t202 -68.5q29 0 55.5 4.5t51 13.5t46 22t40.5 30t35 37.5t28 44.5
t20.5 50.5t12.5 56.5h-135q-14 -63 -55.5 -98t-102.5 -35q-57 0 -99 32t-59 92h133z" />
    <glyph glyph-name="uni20B9" unicode="&#x20b9;" horiz-adv-x="629" 
d="M520 0l-286 255h10q80 0 140.5 48.5t76.5 121.5h129v101h-129q-5 20 -14 38.5t-22 34.5h165v101h-541v-101h180q40 0 67 -20t39 -53h-287v-101h288q-12 -33 -39.5 -53.5t-67.5 -20.5h-180v-72l316 -279h155z" />
    <glyph glyph-name="trademark" unicode="&#x2122;" horiz-adv-x="668" 
d="M317 700v-279h64l-1 177l69 -177h49l69 179l-2 -179h66v279h-85l-72 -188l-72 188h-85zM20 700v-57h91v-222h70v222h93v57h-254z" />
    <glyph glyph-name="uni2190" unicode="&#x2190;" horiz-adv-x="1001" 
d="M79 350l271 -375h146l-229 312h654v126h-654l229 312h-146z" />
    <glyph glyph-name="uni2191" unicode="&#x2191;" horiz-adv-x="1000" 
d="M500 759l-375 -271v-146l312 229v-654h126v654l312 -229v146z" />
    <glyph glyph-name="uni2192" unicode="&#x2192;" horiz-adv-x="1001" 
d="M505 725l231 -315h-657v-120h657l-231 -315h141l274 375l-274 375h-141z" />
    <glyph glyph-name="uni2193" unicode="&#x2193;" horiz-adv-x="1000" 
d="M875 274l-315 -231v657h-120v-657l-315 231v-141l375 -274l375 274v141z" />
    <glyph glyph-name="minus" unicode="&#x2212;" horiz-adv-x="550" 
d="M502 416h-454v-97h454v97z" />
    <glyph glyph-name="approxequal" unicode="&#x2248;" horiz-adv-x="544" 
d="M154 430q13 0 26 -2t25.5 -5.5t25.5 -8t26 -9.5l26 -10t26 -9.5t25.5 -8t25.5 -5.5t26 -2q28 0 54.5 8t58.5 28v95q-31 -19 -55.5 -28.5t-51.5 -9.5q-13 0 -26 2t-26 5.5t-26 8t-26 9.5l-26 10t-26 9.5t-26 8t-25.5 5.5t-25.5 2q-28 0 -55 -8.5t-58 -27.5v-95
q31 19 55.5 28.5t52.5 9.5zM154 254q13 0 26 -2t25.5 -5.5t25.5 -8t26 -9.5l26 -10t26 -9.5t25.5 -8t25.5 -5.5t26 -2q28 0 54.5 8t58.5 28v95q-31 -19 -55.5 -28.5t-51.5 -9.5q-13 0 -26 2t-26 5.5t-26 8t-26 9.5l-26 10t-26 9.5t-26 8t-25.5 5.5t-25.5 2q-28 0 -55 -8
t-58 -27v-96q31 19 55.5 28.5t52.5 9.5z" />
    <glyph glyph-name="notequal" unicode="&#x2260;" horiz-adv-x="562" 
d="M48 107h116l80 113h264v93h-198l58 82h140v93h-74l80 112h-116l-80 -112h-264v-93h198l-58 -82h-140v-93h74z" />
    <glyph glyph-name="lessequal" unicode="&#x2264;" horiz-adv-x="563" 
d="M478 537v110l-424 -184v-98l424 -184v113l-303 122zM54 285v-105l424 -184v105z" />
    <glyph glyph-name="greaterequal" unicode="&#x2265;" horiz-adv-x="563" 
d="M54 534l303 -122l-303 -121v-110l424 184v98l-424 184v-113zM478 285l-424 -184v-105l424 184v105z" />
    <glyph glyph-name="uni25A0" unicode="&#x25a0;" horiz-adv-x="850" 
d="M775 700h-700v-700h700v700z" />
    <glyph glyph-name="uni25CF" unicode="&#x25cf;" horiz-adv-x="819" 
d="M769 351q0 30 -4.5 58t-13.5 55t-22 51.5t-29.5 47t-36 42t-42 36t-47 29.5t-51.5 22t-55 13.5t-58 4.5t-58.5 -4.5t-55 -13.5t-51.5 -22t-47.5 -29.5t-42 -36t-36 -42t-29.5 -47t-22 -51.5t-13.5 -55t-4.5 -58t4.5 -58.5t13.5 -55t22 -51.5t29.5 -47.5t36 -42t42 -36
t47.5 -29.5t51.5 -22t55 -13.5t58.5 -4.5t58 4.5t55 13.5t51.5 22t47 29.5t42 36t36 42t29.5 47.5t22 51.5t13.5 55t4.5 58.5z" />
    <glyph glyph-name="check" unicode="&#x2713;" horiz-adv-x="1002" 
d="M918 708l-542 -541l-292 291v-175l292 -291l542 541v175z" />
    <glyph glyph-name="close" unicode="&#x2715;" horiz-adv-x="1002" 
d="M880 638l-91 91l-288 -291l-288 291l-91 -91l291 -288l-291 -288l91 -91l288 291l288 -291l91 91l-291 288z" />
    <glyph glyph-name="fi" unicode="&#xfb01;" horiz-adv-x="679" 
d="M22 416h107v-416h134v416h216v-416h134v532h-350v72q0 20 10 30t26 10h196v116h-223q-70 0 -106.5 -38t-36.5 -93v-97h-107v-116z" />
    <glyph glyph-name="fl" unicode="&#xfb02;" horiz-adv-x="684" 
d="M22 416h107v-416h134v416h131v116h-131v72q0 20 10 30t26 10h180v-644h134v760h-341q-70 0 -106.5 -38t-36.5 -93v-97h-107v-116z" />
    <glyph glyph-name="Uber" horiz-adv-x="2119" 
d="M154 268v432h-105v-438q0 -31 5 -59t15 -53.5t24 -47t32 -39.5t39 -32t45 -23.5t50.5 -14.5t54.5 -5q54 0 102 20t83 57v-65h104v700h-105v-432q0 -83 -50 -134.5t-122 -51.5q-73 0 -122.5 51t-49.5 135zM681 0h100v64q34 -35 81.5 -55.5t100.5 -20.5q25 0 48.5 4.5
t45.5 12.5t42 19.5t37.5 26t32 32t26 37t20 41.5t12.5 45.5t4 47.5q0 25 -4 48.5t-12.5 45t-20 41.5t-26 37.5t-32 32t-37.5 26t-42 19.5t-45.5 12.5t-48.5 4.5q-53 0 -100 -20.5t-81 -55.5v255h-101v-700zM780 254q0 19 3.5 36t10.5 33t16.5 30.5t21.5 26.5t26 21.5
t29.5 16t33 10t35.5 3.5t35 -3.5t33 -10t30 -16t25.5 -21.5t21 -26.5t16.5 -30.5t10.5 -33t3.5 -36q0 -18 -3.5 -35.5t-10.5 -33.5t-16.5 -30t-21 -26t-25.5 -21.5t-30 -16.5t-33 -10.5t-35 -3.5t-35.5 3.5t-33.5 10.5t-30 16.5t-26 21.5t-21.5 26t-16 30t-10 33.5
t-3.5 35.5zM1271 255q0 -25 4 -49t12.5 -46t20 -41.5t26 -37t32.5 -32t38 -25.5t42 -19t46 -12t50 -4q69 0 125.5 29t94.5 80l-73 54q-28 -38 -65.5 -56.5t-81.5 -18.5q-64 0 -111.5 41.5t-57.5 103.5h415v33q0 25 -4 49t-11.5 46t-18 41.5t-24.5 36.5t-30.5 31.5t-35 25.5
t-40 19t-44 12t-47.5 4t-48.5 -4.5t-45 -12.5t-41 -19.5t-36.5 -26.5t-31 -32.5t-25 -37t-19 -41t-12 -44.5t-4 -47zM1531 432q56 0 99 -36t56 -94h-311q13 58 56.5 94t99.5 36zM2101 420v94h-35q-42 0 -72.5 -18t-49.5 -49v63h-100v-510h101v290q0 59 32.5 94.5t81.5 35.5
h42z" />
    <glyph glyph-name="idotaccent" horiz-adv-x="276" 
d="M138 603q31 0 53 22t22 53q0 32 -22 54t-53 22t-54 -22t-23 -54q0 -31 23 -53t54 -22zM205 532h-134v-532h134v532z" />
    <glyph glyph-name="cordinal" horiz-adv-x="401" 
d="M211 314q68 0 115 42t55 111h-106q-5 -27 -21.5 -42t-42.5 -15q-34 0 -51.5 23t-17.5 64v28q0 40 17.5 63.5t51.5 23.5q26 0 42.5 -15.5t21.5 -42.5h106q-8 70 -53.5 112t-116.5 42q-79 0 -128 -49t-49 -131v-34q0 -82 49 -131t128 -49z" />
    <glyph glyph-name="a.school" 
d="M554 0v532h-134v-65q-27 37 -66.5 57.5t-88.5 20.5q-24 0 -45.5 -4.5t-41.5 -13t-37.5 -21t-32 -28.5t-26 -35.5t-19.5 -42t-12 -48t-4 -53.5v-66q0 -28 4 -53.5t12 -48t19.5 -42t26 -35.5t32 -28.5t37.5 -21t41.5 -13t45.5 -4.5q50 0 89.5 21.5t65.5 60.5v-69h134z
M420 290v-48q0 -63 -32 -100.5t-89 -37.5t-88.5 37.5t-31.5 100.5v48q0 63 31.5 100.5t88.5 37.5t89 -37.5t32 -100.5z" />
    <glyph glyph-name="aacute.school" 
d="M554 0v532h-134v-65q-27 37 -66.5 57.5t-88.5 20.5q-24 0 -45.5 -4.5t-41.5 -13t-37.5 -21t-32 -28.5t-26 -35.5t-19.5 -42t-12 -48t-4 -53.5v-66q0 -28 4 -53.5t12 -48t19.5 -42t26 -35.5t32 -28.5t37.5 -21t41.5 -13t45.5 -4.5q50 0 89.5 21.5t65.5 60.5v-69h134z
M420 290v-48q0 -63 -32 -100.5t-89 -37.5t-88.5 37.5t-31.5 100.5v48q0 63 31.5 100.5t88.5 37.5t89 -37.5t32 -100.5zM336 757l-120 -148h128l139 148h-147z" />
    <glyph glyph-name="abreve.school" 
d="M554 0v532h-134v-65q-27 37 -66.5 57.5t-88.5 20.5q-24 0 -45.5 -4.5t-41.5 -13t-37.5 -21t-32 -28.5t-26 -35.5t-19.5 -42t-12 -48t-4 -53.5v-66q0 -28 4 -53.5t12 -48t19.5 -42t26 -35.5t32 -28.5t37.5 -21t41.5 -13t45.5 -4.5q50 0 89.5 21.5t65.5 60.5v-69h134z
M420 290v-48q0 -63 -32 -100.5t-89 -37.5t-88.5 37.5t-31.5 100.5v48q0 63 31.5 100.5t88.5 37.5t89 -37.5t32 -100.5zM303 681q-25 0 -47 14t-38 57l-87 -26q18 -60 65.5 -93t106.5 -33t106.5 33t65.5 93l-87 26q-15 -43 -38.5 -57t-46.5 -14z" />
    <glyph glyph-name="acircumflex.school" 
d="M554 0v532h-134v-65q-27 37 -66.5 57.5t-88.5 20.5q-24 0 -45.5 -4.5t-41.5 -13t-37.5 -21t-32 -28.5t-26 -35.5t-19.5 -42t-12 -48t-4 -53.5v-66q0 -28 4 -53.5t12 -48t19.5 -42t26 -35.5t32 -28.5t37.5 -21t41.5 -13t45.5 -4.5q50 0 89.5 21.5t65.5 60.5v-69h134z
M420 290v-48q0 -63 -32 -100.5t-89 -37.5t-88.5 37.5t-31.5 100.5v48q0 63 31.5 100.5t88.5 37.5t89 -37.5t32 -100.5zM236 609l67 79l67 -79h118l-118 148h-132l-119 -148h117z" />
    <glyph glyph-name="adieresis.school" 
d="M554 0v532h-134v-65q-27 37 -66.5 57.5t-88.5 20.5q-24 0 -45.5 -4.5t-41.5 -13t-37.5 -21t-32 -28.5t-26 -35.5t-19.5 -42t-12 -48t-4 -53.5v-66q0 -28 4 -53.5t12 -48t19.5 -42t26 -35.5t32 -28.5t37.5 -21t41.5 -13t45.5 -4.5q50 0 89.5 21.5t65.5 60.5v-69h134z
M420 290v-48q0 -63 -32 -100.5t-89 -37.5t-88.5 37.5t-31.5 100.5v48q0 63 31.5 100.5t88.5 37.5t89 -37.5t32 -100.5zM197 602q31 0 53 22t22 53q0 32 -22 54t-53 22t-54 -22t-23 -54q0 -31 23 -53t54 -22zM412 602q31 0 53 22t22 53q0 32 -22 54t-53 22t-54 -22t-23 -54
q0 -31 23 -53t54 -22z" />
    <glyph glyph-name="agrave.school" 
d="M554 0v532h-134v-65q-27 37 -66.5 57.5t-88.5 20.5q-24 0 -45.5 -4.5t-41.5 -13t-37.5 -21t-32 -28.5t-26 -35.5t-19.5 -42t-12 -48t-4 -53.5v-66q0 -28 4 -53.5t12 -48t19.5 -42t26 -35.5t32 -28.5t37.5 -21t41.5 -13t45.5 -4.5q50 0 89.5 21.5t65.5 60.5v-69h134z
M420 290v-48q0 -63 -32 -100.5t-89 -37.5t-88.5 37.5t-31.5 100.5v48q0 63 31.5 100.5t88.5 37.5t89 -37.5t32 -100.5zM271 757h-147l139 -148h128z" />
    <glyph glyph-name="amacron.school" 
d="M554 0v532h-134v-65q-27 37 -66.5 57.5t-88.5 20.5q-24 0 -45.5 -4.5t-41.5 -13t-37.5 -21t-32 -28.5t-26 -35.5t-19.5 -42t-12 -48t-4 -53.5v-66q0 -28 4 -53.5t12 -48t19.5 -42t26 -35.5t32 -28.5t37.5 -21t41.5 -13t45.5 -4.5q50 0 89.5 21.5t65.5 60.5v-69h134z
M420 290v-48q0 -63 -32 -100.5t-89 -37.5t-88.5 37.5t-31.5 100.5v48q0 63 31.5 100.5t88.5 37.5t89 -37.5t32 -100.5zM437 716h-268v-87h268v87z" />
    <glyph glyph-name="aogonek.school" 
d="M553 0h1v532h-134v-65q-27 37 -66.5 57.5t-88.5 20.5q-24 0 -45.5 -4.5t-41.5 -13t-37.5 -21t-32 -28.5t-26 -35.5t-19.5 -42t-12 -48t-4 -53.5v-66q0 -28 4 -53.5t12 -48t19.5 -42t26 -35.5t32 -28.5t37.5 -21t41.5 -13t45.5 -4.5q50 0 89.5 21.5t65.5 60.5v-69h53
q-46 -34 -62.5 -65.5t-16.5 -63.5q0 -39 27.5 -65.5t80.5 -26.5q19 0 38 4t32 10l-14 66q-10 -4 -20 -6t-20 -2q-20 0 -32 11t-12 33q0 21 14 47.5t65 57.5zM420 290v-48q0 -63 -32 -100.5t-89 -37.5t-88.5 37.5t-31.5 100.5v48q0 63 31.5 100.5t88.5 37.5t89 -37.5
t32 -100.5z" />
    <glyph glyph-name="aring.school" 
d="M554 0v532h-134v-65q-27 37 -66.5 57.5t-88.5 20.5q-24 0 -45.5 -4.5t-41.5 -13t-37.5 -21t-32 -28.5t-26 -35.5t-19.5 -42t-12 -48t-4 -53.5v-66q0 -28 4 -53.5t12 -48t19.5 -42t26 -35.5t32 -28.5t37.5 -21t41.5 -13t45.5 -4.5q50 0 89.5 21.5t65.5 60.5v-69h134z
M420 290v-48q0 -63 -32 -100.5t-89 -37.5t-88.5 37.5t-31.5 100.5v48q0 63 31.5 100.5t88.5 37.5t89 -37.5t32 -100.5zM303 586q48 0 82 33.5t34 80.5q0 46 -34 79t-82 33t-82 -33t-34 -79q0 -48 33.5 -81t82.5 -33zM303 645q-23 0 -39 16t-16 39q0 22 16 37.5t39 15.5
t39 -15.5t16 -37.5t-16 -38.5t-39 -16.5z" />
    <glyph glyph-name="atilde.school" 
d="M554 0v532h-134v-65q-27 37 -66.5 57.5t-88.5 20.5q-24 0 -45.5 -4.5t-41.5 -13t-37.5 -21t-32 -28.5t-26 -35.5t-19.5 -42t-12 -48t-4 -53.5v-66q0 -28 4 -53.5t12 -48t19.5 -42t26 -35.5t32 -28.5t37.5 -21t41.5 -13t45.5 -4.5q50 0 89.5 21.5t65.5 60.5v-69h134z
M420 290v-48q0 -63 -32 -100.5t-89 -37.5t-88.5 37.5t-31.5 100.5v48q0 63 31.5 100.5t88.5 37.5t89 -37.5t32 -100.5zM234 742q-40 0 -69 -29.5t-43 -92.5l84 -17q7 31 17 42t22 11q5 0 10.5 -1.5t11.5 -4.5l13 -6.5t14.5 -7t15 -7.5t15.5 -7.5t15.5 -6.5t15.5 -4.5
t15 -1.5q40 0 69 29.5t43 91.5l-84 18q-7 -31 -17 -42t-22 -11q-5 0 -10.5 1.5t-11.5 4.5l-13 6.5t-14.5 7t-15 7.5t-15.5 7.5t-15.5 6.5t-15.5 4.5t-15 1.5z" />
    <glyph glyph-name="caronSlovak" horiz-adv-x="167" 
d="M24 457h99l44 243h-126z" />
    <glyph glyph-name="uni00200326" horiz-adv-x="239" 
d="M62 -246v-49q55 3 90 44t35 94q0 41 -19 65t-50 24q-25 0 -42.5 -18t-17.5 -40q0 -8 1.5 -14.5t4.5 -11.5t7 -9.5t8 -8t9 -6.5t9 -5.5l8 -5t7 -5t4.5 -5.5t1.5 -6q0 -13 -16 -27t-40 -16z" />
    <glyph glyph-name="colon.alt" horiz-adv-x="259" 
d="M130 249q-32 0 -55 -22.5t-23 -55.5q0 -32 23 -54.5t55 -22.5t54.5 22.5t22.5 54.5q0 33 -22.5 55.5t-54.5 22.5zM130 568q-32 0 -55 -22.5t-23 -55.5q0 -32 23 -54.5t55 -22.5t54.5 22.5t22.5 54.5q0 33 -22.5 55.5t-54.5 22.5z" />
    <glyph glyph-name="reversequoteleft" horiz-adv-x="260" 
d="M207 509q-34 6 -56.5 34.5t-22.5 50.5q0 5 2 9.5t5 8t7 7t9 6.5t10.5 6.5t11 7.5t10.5 8t9 9.5t7 11.5t5 13.5t2 16.5q0 30 -22 51.5t-52 21.5q-40 0 -64 -31t-24 -83q0 -23 3.5 -44.5t10.5 -41.5t17 -37.5t23.5 -32.5t30 -26.5t36 -19.5t42.5 -11v65z" />
    <glyph glyph-name="reversequotedblleft" horiz-adv-x="480" 
d="M207 509q-34 6 -56.5 34.5t-22.5 50.5q0 5 2 9.5t5 8t7 7t9 6.5t10.5 6.5t11 7.5t10.5 8t9 9.5t7 11.5t5 13.5t2 16.5q0 30 -22 51.5t-52 21.5q-40 0 -64 -31t-24 -83q0 -23 3.5 -44.5t10.5 -41.5t17 -37.5t23.5 -32.5t30 -26.5t36 -19.5t42.5 -11v65zM427 509
q-34 6 -56.5 34.5t-22.5 50.5q0 5 2 9.5t5 8t7 7t9 6.5t10.5 6.5t11 7.5t10.5 8t9 9.5t7 11.5t5 13.5t2 16.5q0 30 -22 51.5t-52 21.5q-40 0 -64 -31t-24 -83q0 -23 3.5 -44.5t10.5 -41.5t17 -37.5t23.5 -32.5t30 -26.5t36 -19.5t42.5 -11v65z" />
    <glyph glyph-name="at.cap" horiz-adv-x="843" 
d="M405 167q37 0 69 15t56 41q17 -25 45 -38t66 -13q15 0 29.5 3t28 9.5t25.5 16t22.5 22t19 28t14.5 34t9.5 40t3.5 45.5q0 29 -4.5 56t-13 53t-21 49.5t-29 45t-36 40t-42.5 34t-48.5 27.5t-54 20.5t-59 13t-63.5 4.5q-31 0 -60.5 -4.5t-57.5 -13.5t-53.5 -22t-48.5 -29.5
t-43.5 -36t-37.5 -42.5t-30 -48t-22 -52t-14 -56t-5 -59t4.5 -59t14 -56t22.5 -52.5t29.5 -48t36.5 -42t43 -36t48 -29.5t53 -22t57 -13.5t60 -4.5q70 0 133 24t111 66l-49 49q-40 -34 -91.5 -54t-109.5 -20q-27 0 -53 4.5t-49.5 13.5t-45 22t-40.5 29.5t-35 35.5
t-28.5 41.5t-21 46.5t-13 50.5t-4.5 54.5t4.5 54.5t13.5 50.5t21.5 46.5t28.5 41.5t35.5 35.5t41 29.5t45.5 22t50 13.5t54 4.5q31 0 59 -4.5t53.5 -12.5t48 -20t42 -27.5t35.5 -33.5t28.5 -39t21 -44t13 -48t4.5 -51q0 -57 -19.5 -90.5t-49.5 -33.5q-25 0 -39 14.5
t-14 34.5v219h-95v-24q-21 16 -46 24.5t-53 8.5q-19 0 -36.5 -3.5t-34 -10.5t-31 -16.5t-26.5 -21.5t-21.5 -26t-16.5 -30t-10.5 -33.5t-3.5 -36.5q0 -18 3.5 -35t10.5 -33t16.5 -30t21.5 -26t26.5 -21.5t31 -16.5t34 -10.5t36.5 -3.5zM412 252q-37 0 -64.5 27t-27.5 64
q0 39 27.5 65.5t64.5 26.5q38 0 65 -26.5t27 -65.5q0 -37 -27 -64t-65 -27z" />
    <glyph glyph-name="dollar.alt" horiz-adv-x="615" 
d="M353 -65v79q99 7 153 62t54 129q0 75 -43 121t-136 71l-112 30q-38 10 -60 28t-22 46q0 38 29 59t72 21q54 0 87.5 -28t43.5 -75h130q-11 78 -63.5 132.5t-132.5 70.5v84h-94v-79q-22 -2 -42 -7t-38 -12.5t-34.5 -17.5t-30 -22.5t-24 -27t-18 -31t-11.5 -34.5t-4 -38
q0 -75 44.5 -121t133.5 -71l113 -31q38 -10 60.5 -29.5t22.5 -46.5q0 -34 -27 -56t-79 -22q-61 0 -97.5 29t-42.5 79h-129q6 -81 61.5 -136.5t141.5 -71.5v-84h94z" />
    <glyph glyph-name="NTD" horiz-adv-x="1865" 
d="M1621 -59v70q92 7 142.5 57.5t50.5 118.5q0 69 -39 111t-124 64l-30 7v149q25 -10 41.5 -31.5t23.5 -49.5h118q-10 72 -59 122t-124 65v76h-86v-71q-81 -7 -135 -55.5t-54 -120.5q0 -68 40.5 -110.5t121.5 -63.5l27 -8v-151q-31 10 -49.5 33t-22.5 54h-118
q5 -74 57 -125.5t133 -65.5v-75h86zM195 0l1 458l304 -458h135v640h-118l-1 -458l-303 458h-136v-640h118zM725 529h215v-529h127v529h215v111h-557v-111zM1464 458q0 28 20 46t51 23v-140q-31 7 -51 25t-20 46zM1621 254q34 -8 55 -28t21 -46q0 -27 -19.5 -45t-56.5 -23
v142z" />
    <glyph glyph-name=".ttfautohint" horiz-adv-x="850" 
d="M0 0z" />
    </font>
</defs>
</svg>
