<?xml version="1.0" standalone="no"?>
<!DOCTYPE svg PUBLIC "-//W3C//DTD SVG 1.1//EN" "http://www.w3.org/Graphics/SVG/1.1/DTD/svg11.dtd" >
<svg xmlns="http://www.w3.org/2000/svg" xmlns:xlink="http://www.w3.org/1999/xlink" version="1.1">
<metadata>
Created by FontForge 20201107 at Tue Mar 22 23:55:24 2022
 By 
(c) 2018 Uber Technologies, Inc. All rights reserved.
</metadata>
<defs>
<font id="UberMove-Regular" horiz-adv-x="523" >
  <font-face 
    font-family="Uber Move"
    font-weight="400"
    font-stretch="normal"
    units-per-em="1000"
    panose-1="2 1 5 3 3 2 1 6 3 3"
    ascent="800"
    descent="-200"
    x-height="502"
    cap-height="700"
    bbox="-69 -234 2101 963"
    underline-thickness="50"
    underline-position="-125"
    unicode-range="U+000D-FB02"
  />
<missing-glyph horiz-adv-x="514" 
d="M60 -100h394v850h-394v-850z" />
    <glyph glyph-name=".notdef" horiz-adv-x="514" 
d="M60 -100h394v850h-394v-850z" />
    <glyph glyph-name="uni0000" horiz-adv-x="200" 
 />
    <glyph glyph-name="uni0000" horiz-adv-x="200" 
 />
    <glyph glyph-name="uni000D" unicode="&#xd;" horiz-adv-x="200" 
 />
    <glyph glyph-name="space" unicode=" " horiz-adv-x="200" 
 />
    <glyph glyph-name="exclam" unicode="!" horiz-adv-x="169" 
d="M117 182l5 518h-74l5 -518h64zM85 86q-19 0 -33 -14.5t-14 -33.5t14 -33t33 -14t33 14t14 33t-14 33.5t-33 14.5z" />
    <glyph glyph-name="quotedbl" unicode="&#x22;" horiz-adv-x="306" 
d="M61 530h58l6 202h-70zM187 530h58l6 202h-70z" />
    <glyph glyph-name="numbersign" unicode="#" horiz-adv-x="649" 
d="M74 0h67l63 220h167l-63 -220h68l63 220h134v56h-118l42 148h126v56h-110l63 220h-68l-63 -220h-167l63 220h-67l-63 -220h-136v-56h120l-42 -148h-128v-56h112zM220 276l42 148h167l-42 -148h-167z" />
    <glyph glyph-name="dollar" unicode="$" horiz-adv-x="546" 
d="M202 336l40 -12v-243q-53 10 -87 46.5t-43 90.5h-72q9 -81 64 -134t138 -66v-82h59v79q92 4 146.5 54t54.5 128q0 64 -41 106t-121 65l-39 12v239q49 -12 80 -47t39 -89h71q-9 80 -60.5 133t-129.5 66v79h-59v-75q-85 -3 -142 -51.5t-57 -127.5q0 -62 40.5 -105
t118.5 -66zM225 400q-55 17 -83 44t-28 69q0 47 36 77.5t92 33.5v-229zM313 306q61 -18 89.5 -46t28.5 -71q0 -48 -34.5 -78t-95.5 -34v232z" />
    <glyph glyph-name="percent" unicode="%" horiz-adv-x="810" 
d="M215 370q70 0 119 50t49 122q0 17 -3.5 33t-9.5 31t-15 28.5t-20.5 25t-25 21t-28.5 16t-31.5 10t-34.5 3.5t-35 -3.5t-32.5 -10t-29 -16t-25 -21t-20.5 -25t-15 -28.5t-9.5 -31t-3.5 -33q0 -72 49.5 -122t120.5 -50zM244 0l384 700h-62l-384 -700h62zM215 424
q-49 0 -81.5 35t-32.5 84q0 46 33.5 79.5t80.5 33.5q45 0 78.5 -33.5t33.5 -79.5q0 -49 -33 -84t-79 -35zM595 330q-69 0 -118.5 -50t-49.5 -122q0 -17 3.5 -33t9.5 -31t15 -28.5t20.5 -25t25 -21t28.5 -16t31.5 -10t34.5 -3.5t35 3.5t32.5 10t29 16t25 21t21 25t15.5 28.5
t9.5 31t3.5 33q0 72 -49.5 122t-121.5 50zM595 276q49 0 81.5 -35t32.5 -84q0 -46 -33.5 -79.5t-80.5 -33.5q-45 0 -78 33.5t-33 79.5q0 49 32.5 84t78.5 35z" />
    <glyph glyph-name="ampersand" unicode="&#x26;" horiz-adv-x="632" 
d="M480 51q26 -29 49 -40t58 -11h40v65h-30q-18 0 -33.5 8t-31.5 27l-43 48q5 7 10 14.5t9 14.5l108 171l-58 33l-106 -171q-1 -3 -3.5 -6t-3.5 -6l-151 170l39 23q58 34 84.5 72t26.5 89q0 67 -47.5 111t-121.5 44q-73 0 -120.5 -45.5t-47.5 -115.5q0 -40 17 -75.5
t57 -81.5l8 -9l-36 -20q-65 -36 -95.5 -80t-30.5 -103q0 -20 4 -38.5t12 -35.5t19 -32t25.5 -27.5t31.5 -22.5t36.5 -17t40.5 -10.5t44 -3.5q63 0 111.5 22.5t94.5 76.5zM236 434q-30 34 -43.5 60.5t-13.5 52.5q0 43 27 70t70 27q41 0 69 -27.5t28 -68.5q0 -31 -18.5 -57.5
t-55.5 -47.5l-47 -27zM101 179q0 37 20 68t60 55l51 30l171 -194q-37 -46 -74.5 -64.5t-85.5 -18.5q-60 0 -101 35.5t-41 88.5z" />
    <glyph glyph-name="quotesingle" unicode="'" horiz-adv-x="180" 
d="M61 530h58l6 202h-70z" />
    <glyph glyph-name="parenleft" unicode="(" horiz-adv-x="362" 
d="M125 332q0 140 56.5 248t158.5 169l-36 54q-118 -71 -184 -192.5t-66 -278.5t66 -278t184 -192l37 53q-103 62 -159.5 170t-56.5 247z" />
    <glyph glyph-name="parenright" unicode=")" horiz-adv-x="362" 
d="M237 333q0 -140 -56.5 -248t-158.5 -169l36 -54q118 71 184 192.5t66 278.5t-66 278t-184 192l-37 -53q103 -62 159.5 -170t56.5 -247z" />
    <glyph glyph-name="asterisk" unicode="*" horiz-adv-x="426" 
d="M356 403l27 44l-123 74l119 72l-28 43l-114 -71l2 135h-51l1 -136l-116 72l-26 -43l119 -72l-123 -74l27 -44l119 74l-1 -136h51l-2 136z" />
    <glyph glyph-name="plus" unicode="+" horiz-adv-x="516" 
d="M289 145v183h177v60h-177v179h-61v-179h-177v-60h177v-183h61z" />
    <glyph glyph-name="comma" unicode="," horiz-adv-x="169" 
d="M34 -82v-38q49 8 77 46t28 87q0 34 -15 53.5t-40 19.5q-18 0 -31.5 -13t-13.5 -32q0 -7 1.5 -12.5t4.5 -10t7 -8t8 -6.5t8 -5.5t8 -4.5t7 -4.5t4.5 -5.5t1.5 -7q0 -18 -16 -36.5t-39 -22.5z" />
    <glyph glyph-name="hyphen" unicode="-" horiz-adv-x="401" 
d="M37 267h326v64h-326v-64z" />
    <glyph glyph-name="period" unicode="." horiz-adv-x="169" 
d="M85 87q-19 0 -33.5 -14.5t-14.5 -33.5q0 -20 14.5 -34.5t33.5 -14.5t33.5 14.5t14.5 34.5q0 19 -14.5 33.5t-33.5 14.5z" />
    <glyph glyph-name="slash" unicode="/" horiz-adv-x="389" 
d="M80 0l304 700h-74l-304 -700h74z" />
    <glyph glyph-name="zero" unicode="0" horiz-adv-x="625" 
d="M51 271q0 -127 72 -204t190 -77q117 0 189 77t72 204v159q0 127 -72 203.5t-189 76.5q-118 0 -190 -76.5t-72 -203.5v-159zM502 274q0 -101 -51 -160.5t-138 -59.5t-138.5 59.5t-51.5 160.5v153q0 101 51.5 160t138.5 59t138 -59t51 -160v-153z" />
    <glyph glyph-name="one" unicode="1" horiz-adv-x="438" 
d="M407 65h-150v635h-215v-65h142v-570h-149v-65h372v65z" />
    <glyph glyph-name="two" unicode="2" horiz-adv-x="510" 
d="M467 508q0 21 -4.5 41t-12.5 38t-20 34.5t-27 30t-33 24.5t-38.5 18.5t-43 11.5t-46.5 4q-69 0 -126.5 -29.5t-95.5 -80.5l52 -42q30 42 73 65t93 23q66 0 111.5 -41t45.5 -100q1 -54 -24.5 -93.5t-71.5 -86.5l-269 -278v-47h447v64h-341l218 223q54 55 84 105.5
t29 115.5z" />
    <glyph glyph-name="three" unicode="3" horiz-adv-x="530" 
d="M243 708q-71 0 -127.5 -29.5t-93.5 -78.5l52 -41q28 39 71.5 62.5t93.5 23.5q64 0 107.5 -38t43.5 -93q0 -51 -36 -87t-90 -36h-78v-64h89q60 0 100 -39.5t40 -95.5q0 -59 -46 -99.5t-113 -40.5q-57 0 -107 24.5t-81 67.5l-53 -43q39 -52 102 -82t141 -30q25 0 48 4
t43.5 12t39 19t34 24.5t27.5 30t20.5 35t13 38.5t4.5 41q0 57 -33 103t-85 67q42 22 67.5 62t25.5 89q0 20 -4.5 39t-12.5 36.5t-20 33t-26.5 29t-32 24t-37.5 17.5t-42 11t-45 4z" />
    <glyph glyph-name="four" unicode="4" horiz-adv-x="575" 
d="M384 0h72v185h100v65h-100v450h-92l-345 -462v-53h365v-185zM106 250l278 374v-374h-278z" />
    <glyph glyph-name="five" unicode="5" horiz-adv-x="549" 
d="M273 438q-41 0 -76 -10t-65 -29l10 236h319v65h-383l-16 -370l57 -9q28 26 63 40t82 14q72 0 121 -46t49 -113q0 -69 -49 -116.5t-121 -47.5q-55 0 -103 24t-81 69l-53 -44q41 -54 103 -83t135 -29q23 0 44.5 3.5t41 10.5t37.5 17t34 22.5t29 27t23.5 31.5t17.5 36t11 39
t4 42q0 23 -4.5 45t-13.5 42t-21 37.5t-28 32.5t-34.5 26.5t-40 19.5t-44.5 12.5t-48 4.5z" />
    <glyph glyph-name="six" unicode="6" horiz-adv-x="593" 
d="M313 -11q22 0 43.5 3.5t41 10.5t37 17.5t33 23.5t28.5 28t23 32.5t17.5 37t11 40.5t3.5 43q0 21 -3.5 41t-10.5 38t-17 35t-22.5 31.5t-27.5 26.5t-32 22t-36 16.5t-39.5 10t-42.5 3.5q-72 0 -127 -39.5t-76 -104.5q-1 13 -1 26v23q0 141 56 217t144 76q44 0 87 -22.5
t71 -59.5l53 41q-39 49 -93.5 77t-117.5 28q-31 0 -59 -6.5t-52.5 -19.5t-45.5 -31.5t-39 -42t-31.5 -52.5t-22.5 -62t-14 -70t-5 -78v-17q0 -38 5 -73t14.5 -66.5t23 -58.5t31 -50t39 -40.5t45.5 -29.5t51 -18.5t57 -6.5zM312 54q-72 0 -121 48.5t-49 118.5t49.5 118
t120.5 48t120 -48t49 -118t-49 -118.5t-120 -48.5z" />
    <glyph glyph-name="seven" unicode="7" horiz-adv-x="517" 
d="M503 647v53h-489v-65h407l-358 -635h82z" />
    <glyph glyph-name="eight" unicode="8" horiz-adv-x="565" 
d="M522 189q0 59 -35 105.5t-92 68.5q46 22 73.5 62.5t27.5 91.5q0 83 -60.5 137.5t-153.5 54.5q-23 0 -44.5 -3.5t-41 -10.5t-36.5 -17.5t-31 -23t-25.5 -28t-19.5 -33t-12 -36.5t-4 -40q0 -50 27.5 -91t73.5 -63q-57 -22 -91.5 -68.5t-34.5 -105.5q0 -22 4.5 -42t13.5 -38
t21.5 -34t28.5 -29t35 -23.5t41 -17.5t45.5 -11t49.5 -4t50 4t45.5 11t41 17.5t35.5 23.5t28.5 29t21.5 34t13.5 38t4.5 42zM282 647q62 0 102.5 -36t40.5 -92t-41 -92t-102 -36t-101.5 36t-40.5 92t40.5 92t101.5 36zM282 329q72 0 119.5 -39.5t47.5 -99.5t-47.5 -99
t-119.5 -39t-119 39t-47 99t47 99.5t119 39.5z" />
    <glyph glyph-name="nine" unicode="9" horiz-adv-x="593" 
d="M280 711q-22 0 -43.5 -3.5t-41 -10.5t-37 -17.5t-33 -23.5t-28.5 -28t-23 -32.5t-17.5 -37t-11 -40.5t-3.5 -43q0 -21 3.5 -41t10.5 -38t17 -35t22.5 -31.5t27.5 -26.5t32 -22t36 -16.5t39.5 -10t42.5 -3.5q72 0 127 39.5t76 104.5q1 -13 1 -26v-23q0 -141 -56 -217
t-144 -76q-44 0 -87 22.5t-71 59.5l-53 -41q39 -49 93.5 -77t117.5 -28q31 0 59 6.5t52.5 19.5t45.5 31.5t39 42t31.5 52.5t22.5 62t14 70t5 78v17q0 38 -5 73t-14.5 66.5t-23 58.5t-31 50t-39 40.5t-45.5 29.5t-51 18.5t-57 6.5zM281 646q72 0 121 -48.5t49 -118.5
t-49.5 -118t-120.5 -48t-120 48t-49 118t49 118.5t120 48.5z" />
    <glyph glyph-name="colon" unicode=":" horiz-adv-x="169" 
d="M85 87q-19 0 -33.5 -14.5t-14.5 -33.5q0 -20 14.5 -34.5t33.5 -14.5t33.5 14.5t14.5 34.5q0 19 -14.5 33.5t-33.5 14.5zM85 516q-19 0 -33.5 -14.5t-14.5 -33.5q0 -20 14.5 -34.5t33.5 -14.5t33.5 14.5t14.5 34.5q0 19 -14.5 33.5t-33.5 14.5z" />
    <glyph glyph-name="semicolon" unicode=";" horiz-adv-x="169" 
d="M34 -82v-38q49 8 77 46t28 87q0 34 -15 53.5t-40 19.5q-18 0 -31.5 -13t-13.5 -32q0 -7 1.5 -12.5t4.5 -10t7 -8t8 -6.5t8 -5.5t8 -4.5t7 -4.5t4.5 -5.5t1.5 -7q0 -18 -16 -36.5t-39 -22.5zM85 516q-19 0 -33.5 -14.5t-14.5 -33.5q0 -20 14.5 -34.5t33.5 -14.5t33.5 14.5
t14.5 34.5q0 19 -14.5 33.5t-33.5 14.5z" />
    <glyph glyph-name="less" unicode="&#x3c;" horiz-adv-x="378" 
d="M341 502h-79l-235 -251l235 -251h82l-232 253z" />
    <glyph glyph-name="equal" unicode="=" horiz-adv-x="516" 
d="M465 463h-414v-56h414v56zM465 306h-414v-56h414v56z" />
    <glyph glyph-name="greater" unicode="&#x3e;" horiz-adv-x="378" 
d="M32 0h79l235 251l-235 251h-82l232 -253z" />
    <glyph glyph-name="question" unicode="?" horiz-adv-x="483" 
d="M451 509q0 22 -4 42.5t-12 39t-19.5 35t-26.5 30t-33 24.5t-38.5 19t-43.5 12t-48 4q-66 0 -120.5 -29t-91.5 -78l54 -39q28 38 69 60t88 22q69 0 111.5 -42t42.5 -102q0 -57 -39 -98t-104 -41h-37l4 -180h60l3 121q21 2 40 7t36 13.5t31.5 19.5t27 24.5t21.5 29
t15.5 32.5t10 36t3.5 38zM230 86q-19 0 -33 -14.5t-14 -33.5t14 -33t33 -14t33 14t14 33t-14 33.5t-33 14.5z" />
    <glyph glyph-name="at" unicode="@" horiz-adv-x="807" 
d="M390 71q40 0 75 17.5t57 48.5q13 -28 39 -42t61 -14q14 0 27.5 3t26.5 9.5t24.5 15.5t21.5 21t18 27t14 32.5t9 37.5t3 42q0 33 -5.5 64t-16 59t-26 53.5t-35 47.5t-43 40.5t-50 33t-56.5 24.5t-62 15t-67 5q-30 0 -59 -4.5t-56 -13.5t-51.5 -22t-47 -29.5t-42 -36
t-36 -42t-29.5 -47.5t-22 -52t-13.5 -56t-4.5 -59t4.5 -58.5t13.5 -55.5t22 -52t29 -47t36 -42t42 -36t47 -29t52 -22t55.5 -13.5t58.5 -4.5q70 0 132 22t111 62l-35 37q-41 -34 -95.5 -53.5t-114.5 -19.5q-26 0 -50 4t-47 11.5t-44 19t-40 25.5t-35.5 31t-30 36t-24.5 40.5
t-18.5 45t-11.5 48.5t-4 51t4 51t11.5 48.5t18.5 45.5t24.5 41.5t30 36.5t35.5 31t40.5 25t44 19t47 12t50.5 4q30 0 58 -4.5t53.5 -13t48.5 -21t42.5 -28t36.5 -34.5t30 -41t22 -46.5t13.5 -51.5t4.5 -56q0 -59 -24.5 -97.5t-61.5 -38.5q-28 0 -42.5 16.5t-14.5 39.5v223
h-60v-44q-22 24 -53 37.5t-66 13.5q-72 0 -122.5 -50.5t-50.5 -122.5t50.5 -122.5t122.5 -50.5zM394 125q-49 0 -82.5 35t-33.5 84t33.5 83.5t82.5 34.5q48 0 82 -34.5t34 -83.5t-34 -84t-82 -35z" />
    <glyph glyph-name="A" unicode="A" horiz-adv-x="668" 
d="M371 700h-74l-299 -700h79l82 197h347l83 -197h80zM187 264l146 347l145 -347h-291z" />
    <glyph glyph-name="B" unicode="B" horiz-adv-x="561" 
d="M53 0h276q22 0 43 4t40 11.5t35.5 18t30.5 24t25 29.5t19 33.5t12 37t4 39.5q0 61 -40 110.5t-103 67.5q43 22 68.5 60t25.5 84q0 19 -4 36.5t-11.5 34t-18 31t-24 26.5t-29.5 22t-34 17t-38 10.5t-41 3.5h-236v-700zM286 635q56 0 92 -35t36 -85q0 -48 -36 -83t-92 -35
h-158v238h158zM323 65h-195v268h195q60 0 99.5 -39t39.5 -94t-39.5 -95t-99.5 -40z" />
    <glyph glyph-name="C" unicode="C" horiz-adv-x="729" 
d="M33 350q0 -30 4.5 -59t13.5 -56t22 -52t29.5 -47.5t36.5 -42t42.5 -35.5t48 -29t53 -22t57 -13.5t60.5 -4.5q98 0 178 46t128 120l-61 38q-39 -61 -103.5 -98t-142.5 -37q-27 0 -52.5 4.5t-49 13t-45 21t-40.5 28.5t-35 35t-28.5 40.5t-21.5 45.5t-13.5 50t-4.5 54
q0 27 4.5 53t13.5 50t21.5 45.5t28.5 40.5t35 35t40.5 28.5t45 21.5t49 13.5t52.5 4.5q76 0 141 -37.5t104 -98.5l61 40q-49 74 -129.5 119.5t-176.5 45.5q-31 0 -60.5 -4.5t-57 -13.5t-52.5 -22t-47.5 -29.5t-42.5 -36t-36.5 -42t-29.5 -47.5t-22 -52t-13.5 -55.5
t-4.5 -58.5z" />
    <glyph glyph-name="D" unicode="D" horiz-adv-x="703" 
d="M670 349q0 29 -4.5 57t-13.5 54.5t-21.5 50.5t-28.5 46t-35.5 41t-41.5 35t-46.5 28.5t-51 21t-54.5 13t-58 4.5h-258v-700h258q30 0 58 4.5t54.5 13t51 21t46.5 28.5t41.5 35t35.5 40.5t28.5 45.5t21.5 50t13.5 54t4.5 57zM311 634q26 0 51 -4.5t48 -13t44 -21
t39.5 -28.5t34 -34.5t28 -39.5t21 -44.5t13 -48.5t4.5 -51t-4.5 -51t-13 -48t-21 -44t-28 -39.5t-34 -34t-39.5 -28t-44 -21t-48 -13t-51 -4.5h-179v568h179z" />
    <glyph glyph-name="E" unicode="E" horiz-adv-x="504" 
d="M57 0h408v66h-333v252h323v66h-323v250h333v66h-408v-700z" />
    <glyph glyph-name="F" unicode="F" horiz-adv-x="499" 
d="M132 0v318h323v66h-323v250h333v66h-408v-700h75z" />
    <glyph glyph-name="G" unicode="G" horiz-adv-x="767" 
d="M33 350q0 -30 4.5 -59t13 -56t21 -52t28.5 -47.5t35.5 -42t41.5 -35.5t46.5 -29t51 -22t55 -13.5t58.5 -4.5q80 0 147.5 37.5t106.5 98.5v-125h72v360h-338v-66h266q0 -22 -4 -43t-11.5 -40.5t-18 -37t-24 -33t-30 -28.5t-35 -23t-39 -17.5t-43 -11t-46.5 -3.5
q-26 0 -51 4.5t-48 13t-44 21t-39.5 28.5t-34 35t-27.5 41t-20.5 46t-13 50t-4.5 54t4.5 54t13 50t21 45.5t28 40.5t34.5 35t40 28.5t44 21t48 13t51 4.5q78 0 144.5 -37.5t104.5 -98.5l61 40q-49 74 -130 119.5t-180 45.5q-30 0 -59 -4.5t-56 -13.5t-51.5 -22t-47 -29.5
t-42 -36t-35.5 -42t-29 -47t-22 -51.5t-13.5 -56t-4.5 -59z" />
    <glyph glyph-name="H" unicode="H" horiz-adv-x="644" 
d="M132 0v318h380v-318h75v700h-75v-316h-380v316h-75v-700h75z" />
    <glyph glyph-name="I" unicode="I" horiz-adv-x="189" 
d="M132 0v700h-75v-700h75z" />
    <glyph glyph-name="J" unicode="J" horiz-adv-x="451" 
d="M5 47q33 -27 77 -42t93 -15q24 0 46.5 4t42.5 11.5t38 19t33.5 26.5t27.5 33t20 39.5t12.5 46t4.5 52.5v478h-75v-472q0 -81 -43.5 -125t-108.5 -44q-35 0 -67.5 11.5t-57.5 31.5z" />
    <glyph glyph-name="K" unicode="K" horiz-adv-x="542" 
d="M57 700v-700h75v319l320 -319h102l-356 355l350 345h-96l-320 -317v317h-75z" />
    <glyph glyph-name="L" unicode="L" horiz-adv-x="491" 
d="M465 66h-333v634h-75v-700h408v66z" />
    <glyph glyph-name="M" unicode="M" horiz-adv-x="827" 
d="M128 0l-1 609l253 -609h67l251 609l-1 -609h73v700h-108l-248 -600l-249 600h-108v-700h71z" />
    <glyph glyph-name="N" unicode="N" horiz-adv-x="690" 
d="M128 0l-1 595l424 -595h82v700h-71l1 -594l-423 594h-83v-700h71z" />
    <glyph glyph-name="O" unicode="O" horiz-adv-x="797" 
d="M33 349q0 -30 4.5 -58.5t13.5 -55.5t22 -52t30 -47t36.5 -42t42.5 -36t48 -29t52.5 -22t56.5 -13.5t60 -4.5q30 0 59.5 4.5t56.5 13.5t52.5 22t48 29t42 36t36.5 42t30 47t22 52t13.5 55.5t4.5 58.5t-4.5 59t-13.5 56t-22 52t-30 47.5t-36.5 42t-42 36t-48 29.5t-52.5 22
t-56.5 13.5t-59.5 4.5q-31 0 -60 -4.5t-56.5 -13.5t-52.5 -22t-48 -29.5t-42.5 -36t-36.5 -42t-30 -47.5t-22 -52t-13.5 -56t-4.5 -59zM109 349q0 24 4 47.5t11 45.5t17.5 42t23.5 38.5t28.5 34.5t33.5 29t38 23.5t42 17.5t45 11t47 4q27 0 52.5 -4.5t49 -13.5t45 -21.5
t40.5 -29t34.5 -35.5t28 -40.5t21.5 -45.5t13.5 -50t4.5 -53t-4.5 -53t-13.5 -49.5t-21.5 -45t-28 -40.5t-34.5 -35t-40.5 -28.5t-45 -21.5t-49 -13.5t-52.5 -4.5t-52.5 4.5t-49 13.5t-45 21.5t-40.5 28.5t-35 35t-28.5 40.5t-21.5 45t-13.5 49.5t-4.5 53z" />
    <glyph glyph-name="P" unicode="P" horiz-adv-x="537" 
d="M57 0h75v292h171q23 0 43.5 4t39.5 11.5t35.5 18.5t31 25t25.5 30t18.5 34.5t11.5 38.5t4 41t-4 41.5t-11.5 39t-18.5 34.5t-25.5 30t-31 25t-35.5 19t-39.5 12t-43.5 4h-246v-700zM299 634q60 0 98.5 -41t38.5 -98t-38.5 -97.5t-98.5 -40.5h-167v277h167z" />
    <glyph glyph-name="Q" unicode="Q" horiz-adv-x="797" 
d="M33 349q0 -30 4.5 -58.5t13.5 -55.5t22 -52t30 -47t36.5 -42t42.5 -36t48 -29t52.5 -22t56.5 -13.5t60 -4.5q51 0 99.5 13.5t88.5 38.5l73 -88l54 44l-69 85q54 49 86.5 118.5t32.5 148.5q0 30 -4.5 59t-13.5 56t-22 52t-30 47.5t-36.5 42t-42 36t-48 29.5t-52.5 22
t-56.5 13.5t-59.5 4.5q-31 0 -60 -4.5t-56.5 -13.5t-52.5 -22t-48 -29.5t-42.5 -36t-36.5 -42t-30 -47.5t-22 -52t-13.5 -56t-4.5 -59zM109 349q0 24 4 47.5t11 45.5t17.5 42t23.5 38.5t28.5 34.5t33.5 29t38 23.5t42 17.5t45 11t47 4q27 0 52.5 -4.5t49 -13.5t45 -21.5
t40.5 -29t34.5 -35.5t28 -40.5t21.5 -45.5t13.5 -50t4.5 -53q0 -62 -24 -116.5t-66 -93.5l-82 101l-55 -45l80 -98q-31 -19 -67 -29t-75 -10q-27 0 -52.5 4.5t-49 13.5t-45 21.5t-40.5 28.5t-35 35t-28.5 40.5t-21.5 45t-13.5 49.5t-4.5 53z" />
    <glyph glyph-name="R" unicode="R" horiz-adv-x="542" 
d="M132 0v304h135l183 -304h85l-189 311q68 16 111 68.5t43 120.5q0 21 -4 40.5t-11.5 37.5t-18.5 34t-25 29.5t-30.5 24.5t-35.5 18.5t-40 11.5t-43 4h-235v-700h75zM286 634q60 0 99.5 -39.5t39.5 -94.5q0 -54 -39.5 -93t-99.5 -39h-154v266h154z" />
    <glyph glyph-name="S" unicode="S" horiz-adv-x="546" 
d="M29 208q10 -98 82 -158t178 -60q101 0 162.5 55t61.5 141q0 69 -41.5 114t-127.5 70l-118 35q-57 16 -86 45.5t-29 73.5q0 54 40 87.5t100 33.5q72 0 117 -40.5t56 -112.5h73q-12 98 -78.5 158t-165.5 60q-94 0 -155 -53.5t-61 -139.5q0 -66 42 -112t123 -69l114 -33
q62 -18 92.5 -48.5t30.5 -77.5q0 -55 -41 -88.5t-110 -33.5q-76 0 -124.5 40.5t-60.5 112.5h-74z" />
    <glyph glyph-name="T" unicode="T" horiz-adv-x="538" 
d="M10 634h221v-634h75v634h222v66h-518v-66z" />
    <glyph glyph-name="U" unicode="U" horiz-adv-x="638" 
d="M126 262v438h-75v-440q0 -31 5 -58.5t15 -52.5t23.5 -46t31 -39t38.5 -31.5t44 -23t49 -14.5t53 -5q60 0 111.5 26.5t85.5 73.5v-90h74v700h-75v-438q0 -23 -4 -44t-11 -39.5t-17 -35t-23 -30t-28.5 -23.5t-32.5 -17.5t-36 -11t-39 -3.5q-81 0 -135 55.5t-54 148.5z" />
    <glyph glyph-name="V" unicode="V" horiz-adv-x="668" 
d="M297 0h74l298 700h-79l-255 -608l-254 608h-83z" />
    <glyph glyph-name="W" unicode="W" horiz-adv-x="938" 
d="M504 700h-68l-195 -584l-151 584h-80l190 -700h73l196 585l197 -585h73l189 700h-77l-152 -584z" />
    <glyph glyph-name="X" unicode="X" horiz-adv-x="608" 
d="M-5 0h88l219 306l220 -306h91l-266 366l243 334h-88l-198 -276l-198 276h-91l244 -336z" />
    <glyph glyph-name="Y" unicode="Y" horiz-adv-x="593" 
d="M334 0v308l264 392h-85l-215 -324l-216 324h-87l264 -389v-311h75z" />
    <glyph glyph-name="Z" unicode="Z" horiz-adv-x="531" 
d="M35 634h374l-386 -583v-51h478v66h-383l386 583v51h-469v-66z" />
    <glyph glyph-name="bracketleft" unicode="[" horiz-adv-x="328" 
d="M52 -125h250v59h-183v797h183v59h-250v-915z" />
    <glyph glyph-name="backslash" unicode="\" horiz-adv-x="389" 
d="M384 0l-305 700h-74l304 -700h75z" />
    <glyph glyph-name="bracketright" unicode="]" horiz-adv-x="328" 
d="M276 790h-250v-59h183v-797h-183v-59h250v915z" />
    <glyph glyph-name="asciicircum" unicode="^" horiz-adv-x="526" 
d="M44 350h68l151 285l151 -285h68l-187 350h-64z" />
    <glyph glyph-name="underscore" unicode="_" horiz-adv-x="486" 
d="M487 -80h-488v-56h488v56z" />
    <glyph glyph-name="grave" unicode="`" horiz-adv-x="510" 
d="M250 696h-89l118 -118h75z" />
    <glyph glyph-name="a" unicode="a" horiz-adv-x="493" 
d="M26 138q0 -66 48.5 -107t120.5 -41q51 0 92.5 21.5t66.5 57.5q4 -31 27.5 -50t59.5 -19h39v64h-25q-15 0 -23.5 8t-8.5 22v256q0 73 -48 116.5t-129 43.5q-54 0 -99 -16t-83 -50l38 -52q30 27 63.5 40t71.5 13q54 0 84.5 -28t30.5 -77v-47l-165 -11q-76 -5 -118.5 -43
t-42.5 -101zM96 138q0 37 26.5 59.5t75.5 26.5l154 11v-51q0 -55 -42.5 -94.5t-103.5 -39.5q-48 0 -79 25t-31 63z" />
    <glyph glyph-name="b" unicode="b" horiz-adv-x="614" 
d="M52 0h72v83q34 -43 85 -68t111 -25q24 0 47 4t44.5 12t41 19t36.5 25.5t31.5 31.5t25.5 36.5t19 41t12 44.5t4 47t-4 47t-12 44.5t-19.5 40.5t-25.5 36t-31.5 31.5t-36.5 25.5t-40.5 19t-44.5 12t-47 4q-60 0 -111 -25.5t-85 -68.5v283h-72v-700zM123 251q0 20 4 39.5
t11.5 37t18 33.5t23.5 29t28.5 23.5t32.5 18t36 11.5t39 4t39 -4t36.5 -11.5t33 -18t28.5 -23.5t23.5 -29t17.5 -33.5t11 -37t4 -39.5q0 -21 -4 -40t-11 -37t-17.5 -33.5t-23.5 -29t-28.5 -24t-33 -18t-36.5 -11.5t-39 -4t-39 4t-36.5 11.5t-33 18t-28.5 24t-23.5 29.5
t-17.5 33.5t-11 37t-4 39.5z" />
    <glyph glyph-name="c" unicode="c" horiz-adv-x="524" 
d="M105 251q0 21 4 40t11 37t17.5 33.5t23.5 29t28.5 23.5t33 17.5t36 11.5t38.5 4q48 0 89 -22.5t68 -59.5l54 39q-36 49 -90 78t-121 29q-25 0 -48.5 -4t-45 -12t-41 -19.5t-37 -25.5t-31.5 -31t-25.5 -36.5t-19.5 -40.5t-12 -44t-4 -47t4 -47t12 -44t19.5 -40.5
t25.5 -36.5t31.5 -31.5t37 -26t41 -19.5t45 -12t48.5 -4q67 0 121 29.5t90 78.5l-54 38q-27 -37 -68 -59.5t-89 -22.5q-20 0 -38.5 4t-36 11.5t-33 18t-28.5 24t-23.5 29t-17.5 33.5t-11 37t-4 40z" />
    <glyph glyph-name="d" unicode="d" horiz-adv-x="614" 
d="M561 0v700h-72v-282q-34 43 -84.5 68t-110.5 25q-24 0 -47 -4t-44.5 -12t-41 -19t-36.5 -25.5t-31.5 -31.5t-25.5 -36t-19 -40.5t-12 -44.5t-4 -47t4 -47t12 -44.5t19 -41t25.5 -36.5t31.5 -31.5t36.5 -25.5t41 -19t44.5 -12t47 -4q60 0 110.5 24.5t84.5 67.5v-82h72z
M490 251q0 -20 -4 -39.5t-11 -37t-17.5 -33.5t-23.5 -29.5t-28.5 -24t-32.5 -18t-36 -11.5t-39 -4t-39 4t-36.5 11.5t-33 18t-28.5 24t-23.5 29t-17.5 33.5t-11 37t-4 40q0 20 4 39.5t11 37t17.5 33.5t23.5 29t28.5 23.5t33 18t36.5 11.5t39 4t38.5 -4t36 -11.5t33 -18
t28.5 -23.5t23.5 -29t17.5 -33.5t11 -37t4 -39.5z" />
    <glyph glyph-name="e" unicode="e" horiz-adv-x="567" 
d="M33 251q0 -24 4 -47t12 -44.5t19.5 -41t25.5 -36t31.5 -31t37 -25.5t41 -19t44.5 -12t48 -4q66 0 121 29t91 78l-54 38q-28 -39 -69 -60.5t-90 -21.5q-74 0 -128 50.5t-62 124.5h429v28q0 24 -4 46.5t-11 43.5t-17.5 39.5t-24 35t-29.5 30.5t-34 25t-38.5 18.5
t-42.5 11.5t-45 4q-24 0 -46.5 -4t-43.5 -12t-40 -19.5t-35.5 -26t-30.5 -31.5t-25 -36t-18.5 -40.5t-11.5 -44t-4 -46.5zM288 448q65 0 114.5 -45t59.5 -114h-355q12 69 63 114t118 45z" />
    <glyph glyph-name="f" unicode="f" horiz-adv-x="301" 
d="M13 438h95v-438h72v438h107v64h-107v96q0 23 11.5 36t32.5 13h63v64h-75q-49 0 -76.5 -29.5t-27.5 -77.5v-102h-95v-64z" />
    <glyph glyph-name="g" unicode="g" horiz-adv-x="608" 
d="M555 502h-71v-83q-34 43 -84 68t-109 25q-24 0 -47 -4t-44 -12t-40 -19t-36 -25t-31.5 -31t-25.5 -36t-19 -40.5t-12 -44t-4 -46.5t4 -47t12 -44t19 -40.5t25 -36.5t31 -31t36.5 -25t40.5 -19t44 -12t47 -4q59 0 108.5 24.5t83.5 66.5v-92q0 -61 -30.5 -92t-93.5 -31h-96
v-64h111q84 0 132.5 48.5t48.5 132.5v514zM104 254q0 20 4 39t11 36.5t17.5 33t23.5 28.5t28 23.5t32 18t35.5 11.5t38.5 4t38.5 -4t35.5 -11.5t32.5 -18t28.5 -23.5t23.5 -28.5t17.5 -33t11 -36.5t4 -39t-4 -39t-11 -37t-17.5 -33.5t-23.5 -28.5t-28 -23.5t-32.5 -18
t-36 -11.5t-38.5 -4t-38.5 4t-36 11t-32.5 17.5t-28 24t-23 29t-17 33t-11 37t-4 39.5z" />
    <glyph glyph-name="h" unicode="h" 
d="M124 303q0 62 40.5 102.5t102.5 40.5q59 0 95 -38.5t36 -97.5v-310h72v322q0 20 -3.5 38.5t-10 36t-16.5 32.5t-22 28t-27 23t-32.5 17t-36.5 11t-40 4q-50 0 -91.5 -21.5t-66.5 -58.5v268h-72v-700h72v303z" />
    <glyph glyph-name="i" unicode="i" horiz-adv-x="177" 
d="M89 591q19 0 33 14t14 33q0 20 -14 34t-33 14t-33.5 -14t-14.5 -34q0 -19 14.5 -33t33.5 -14zM124 502h-72v-502h72v502z" />
    <glyph glyph-name="j" unicode="j" horiz-adv-x="177" 
d="M89 591q19 0 33 14t14 33q0 20 -14 34t-33 14t-33.5 -14t-14.5 -34q0 -19 14.5 -33t33.5 -14zM25 -193q46 0 72.5 26t26.5 66v603h-72v-592q0 -19 -11 -29t-31 -10h-32v-64h47z" />
    <glyph glyph-name="k" unicode="k" horiz-adv-x="446" 
d="M52 700v-700h72v236l237 -236h95l-266 259l256 243h-91l-231 -225v423h-72z" />
    <glyph glyph-name="l" unicode="l" horiz-adv-x="177" 
d="M124 0v700h-72v-700h72z" />
    <glyph glyph-name="m" unicode="m" horiz-adv-x="841" 
d="M124 304q0 61 38 101.5t97 40.5q56 0 91 -38.5t35 -97.5v-310h72v304q0 61 38 101.5t96 40.5q57 0 91.5 -38.5t34.5 -97.5v-310h72v324q0 20 -3.5 38.5t-10 35.5t-16 32t-21.5 27.5t-26.5 22.5t-31 17.5t-35.5 11t-39 3.5q-57 0 -101.5 -28.5t-66.5 -74.5
q-21 46 -64 74.5t-100 28.5q-47 0 -86.5 -20.5t-63.5 -56.5v67h-72v-502h72v304z" />
    <glyph glyph-name="n" unicode="n" 
d="M470 322q0 20 -3.5 38.5t-10 36t-16.5 32.5t-22.5 28t-27.5 23t-32 17t-36.5 11t-40.5 4q-50 0 -91 -21t-66 -58v69h-72v-502h72v303q0 62 40.5 102.5t102.5 40.5q59 0 95 -38.5t36 -97.5v-310h72v322z" />
    <glyph glyph-name="o" unicode="o" horiz-adv-x="593" 
d="M561 251q0 24 -4 47t-12 44t-19.5 40.5t-26 36.5t-32 31t-37 25.5t-41 19.5t-44.5 12t-48 4t-48 -4t-45 -12t-41.5 -19.5t-36.5 -25.5t-31.5 -31t-26 -36.5t-19.5 -40.5t-12 -44t-4 -47t4 -47t12 -44t19.5 -40.5t26 -36.5t31.5 -31.5t36.5 -26t41.5 -19.5t45 -12t48 -4
t48 4t44.5 12t41 19.5t37 26t32 31.5t26 36.5t19.5 40.5t12 44t4 47zM489 251q0 -20 -4 -39.5t-11.5 -37t-18 -33.5t-23.5 -29t-28 -23.5t-32.5 -18t-36 -11.5t-38.5 -4t-38.5 4t-36 11.5t-33 18t-28.5 23.5t-23.5 29t-17.5 33.5t-11 37t-4 39.5q0 21 4 40t11 37t17.5 33.5
t23.5 29t28.5 23.5t33 17.5t36 11.5t38.5 4t38.5 -4t36 -11.5t32.5 -17.5t28 -23.5t23.5 -29t18 -33.5t11.5 -37t4 -40z" />
    <glyph glyph-name="p" unicode="p" horiz-adv-x="614" 
d="M52 502v-695h72v278q34 -43 85 -68.5t111 -25.5q24 0 47 4t44.5 12t40.5 19t36.5 25.5t31.5 31.5t25.5 36t19.5 40.5t12 44.5t4 47t-4 47t-12 44.5t-19 41t-25.5 36.5t-31.5 31.5t-36.5 25.5t-41 19t-44.5 12t-47 4q-60 0 -111 -25t-85 -68v83h-72zM123 251q0 20 4 39.5
t11 37t17.5 33.5t23.5 29.5t28.5 24t33 18t36.5 11.5t39 4t39 -4t36.5 -11.5t33 -18t28.5 -24t23.5 -29.5t17.5 -33.5t11 -37t4 -39.5t-4 -39.5t-11 -37t-17.5 -33.5t-23.5 -29t-28.5 -23.5t-33 -18t-36.5 -11.5t-39 -4t-39 4t-36 11.5t-32.5 18t-28.5 23.5t-23.5 29
t-18 33.5t-11.5 37t-4 39.5z" />
    <glyph glyph-name="q" unicode="q" horiz-adv-x="614" 
d="M561 502h-72v-82q-34 43 -84.5 67.5t-110.5 24.5q-24 0 -47 -4t-44.5 -12t-41 -19t-36.5 -25.5t-31.5 -31.5t-25.5 -36.5t-19 -41t-12 -44.5t-4 -47t4 -47t12 -44.5t19 -40.5t25.5 -36t31.5 -31.5t36.5 -25.5t41 -19t44.5 -12t47 -4q60 0 110.5 25t84.5 68v-277h72v695z
M490 251q0 -20 -4 -39.5t-11 -37t-17.5 -33.5t-23.5 -29t-28.5 -23.5t-33 -18t-36 -11.5t-38.5 -4t-39 4t-36.5 11.5t-33 18t-28.5 23.5t-23.5 29t-17.5 33.5t-11 37t-4 39.5t4 39.5t11 37t17.5 33.5t23.5 29.5t28.5 24t33 18t36.5 11.5t39 4t39 -4t36 -11.5t32.5 -18
t28.5 -24t23.5 -29.5t17.5 -33.5t11 -37t4 -39.5z" />
    <glyph glyph-name="r" unicode="r" horiz-adv-x="296" 
d="M280 439v67h-35q-41 0 -72 -19t-49 -51v66h-72v-502h72v302q0 58 33 97.5t85 39.5h38z" />
    <glyph glyph-name="s" unicode="s" horiz-adv-x="424" 
d="M227 -10q78 0 125.5 41t47.5 104q0 51 -35 87t-103 54l-79 21q-41 12 -61.5 31.5t-20.5 47.5q0 34 25 55t67 21q46 0 81 -27t44 -74h70q-10 69 -63 114.5t-133 45.5q-70 0 -115.5 -39t-45.5 -103q0 -50 33 -84t97 -51l81 -22q46 -13 66.5 -33.5t20.5 -50.5
q0 -34 -28.5 -56t-75.5 -22q-51 0 -88 27t-47 75h-69q11 -71 67 -116.5t139 -45.5z" />
    <glyph glyph-name="t" unicode="t" horiz-adv-x="313" 
d="M216 0h83v64h-67q-25 0 -38.5 12t-13.5 34v328h119v64h-119v151h-72v-151h-94v-64h94v-339q0 -44 28.5 -71.5t79.5 -27.5z" />
    <glyph glyph-name="u" unicode="u" 
d="M52 180q0 -20 3.5 -38.5t10.5 -35.5t16.5 -32t22 -28t27.5 -23t32 -17.5t36.5 -11t40.5 -3.5q49 0 90.5 20.5t66.5 57.5v-69h72v502h-72v-303q0 -61 -40 -102t-102 -41q-59 0 -95.5 38.5t-36.5 97.5v310h-72v-322z" />
    <glyph glyph-name="v" unicode="v" horiz-adv-x="468" 
d="M205 0h58l210 502h-76l-162 -401l-163 401h-77z" />
    <glyph glyph-name="w" unicode="w" horiz-adv-x="705" 
d="M322 502l-132 -391l-115 391h-75l153 -502h63l137 401l136 -401h63l153 502h-74l-114 -390l-133 390h-62z" />
    <glyph glyph-name="x" unicode="x" horiz-adv-x="455" 
d="M-5 0h80l151 206l151 -206h83l-192 261l178 241h-80l-138 -188l-138 188h-83l181 -243z" />
    <glyph glyph-name="y" unicode="y" horiz-adv-x="468" 
d="M166 -71q-12 -30 -30.5 -44t-49.5 -14h-45v-64h58q52 0 82 26.5t51 77.5l241 591h-75l-162 -401l-164 401h-77l205 -490z" />
    <glyph glyph-name="z" unicode="z" horiz-adv-x="434" 
d="M30 438h284l-287 -385v-53h382v64h-292l286 385v53h-373v-64z" />
    <glyph glyph-name="braceleft" unicode="{" horiz-adv-x="402" 
d="M256 170q27 60 1 105t-77 58q51 13 77 58t-1 105l-53 118q-26 60 -1 93t74 34q22 0 42 -4.5t40 -12.5l16 54q-26 12 -49 17t-52 5q-24 0 -44.5 -4t-37.5 -12t-30 -19t-22 -25t-13.5 -31t-4.5 -35.5t5.5 -39.5t15.5 -43l49 -106q24 -50 1.5 -86t-73.5 -36h-88v-60h90
q50 0 71.5 -36.5t-1.5 -85.5l-49 -106q-10 -22 -15.5 -43t-5.5 -39.5t4.5 -35.5t13.5 -31t22 -25t30 -19t37.5 -12t44.5 -4q29 0 52 5t49 17l-16 54q-20 -8 -40 -12.5t-42 -4.5q-49 1 -74 34t1 93z" />
    <glyph glyph-name="bar" unicode="|" horiz-adv-x="199" 
d="M124 -193v893h-72v-893h72z" />
    <glyph glyph-name="braceright" unicode="}" horiz-adv-x="402" 
d="M148 496q-27 -60 -1 -105t77 -58q-51 -13 -77 -58t1 -105l53 -118q26 -60 1 -93t-74 -34q-22 0 -42 4.5t-40 12.5l-16 -54q26 -12 49 -17t52 -5q24 0 44.5 4t37.5 12t30 19t22 25t13.5 31t4.5 35.5t-5.5 39.5t-15.5 43l-49 106q-24 50 -1.5 86t73.5 36h88v60h-90
q-50 0 -71.5 36.5t1.5 85.5l49 106q10 22 15.5 43t5.5 39.5t-4.5 35.5t-13.5 31t-22 25t-30 19t-37.5 12t-44.5 4q-29 0 -52 -5t-49 -17l16 -54q20 8 40 12.5t42 4.5q49 -1 74 -34t-1 -93z" />
    <glyph glyph-name="asciitilde" unicode="~" horiz-adv-x="511" 
d="M94 309q16 47 29 64.5t33 17.5q7 0 15.5 -2t18 -6t20 -9t21.5 -10.5t22.5 -11.5t23 -11.5t22.5 -10.5t22 -9t21 -6t19 -2q41 0 69 33.5t45 96.5l-58 15q-16 -47 -29.5 -64.5t-32.5 -17.5q-7 0 -15.5 2t-18 6t-20 9t-21.5 10.5t-22.5 11.5t-23 11.5t-22.5 10.5t-22 9
t-21 6t-19 2q-41 0 -69 -33.5t-45 -96.5z" />
    <glyph glyph-name="uni00A0" unicode="&#xa0;" horiz-adv-x="200" 
 />
    <glyph glyph-name="exclamdown" unicode="&#xa1;" horiz-adv-x="169" 
d="M50 516l-5 -518h74l-5 518h-64zM82 612q19 0 33 14.5t14 33.5t-14 33t-33 14t-33 -14t-14 -33t14 -33.5t33 -14.5z" />
    <glyph glyph-name="cent" unicode="&#xa2;" horiz-adv-x="531" 
d="M319 615h-60v-107q-24 -3 -47 -10.5t-43.5 -18.5t-38.5 -25.5t-33 -31.5t-27 -36.5t-20 -41.5t-12.5 -45t-4.5 -48t4.5 -48t12.5 -45t20 -41.5t27 -37t33 -31.5t38.5 -25.5t43.5 -19t47 -10.5v-107h60v105q60 4 108 32.5t81 74.5l-54 38q-24 -33 -59 -54.5t-76 -26.5v391
q41 -5 76 -26.5t59 -54.5l54 39q-33 45 -81 73.5t-108 32.5v105zM105 251q0 72 44 125.5t110 66.5v-385q-66 13 -110 67t-44 126z" />
    <glyph glyph-name="sterling" unicode="&#xa3;" horiz-adv-x="557" 
d="M377 369h-193l-17 62q-26 99 9.5 157t113.5 58q62 0 105 -37.5t50 -100.5h70q-9 92 -70 146t-155 54q-25 0 -48 -4.5t-43 -12.5t-37 -20t-30.5 -27t-23 -33.5t-15.5 -39.5t-7.5 -44.5t1 -49.5t10.5 -54l14 -54h-72v-58h88l29 -110q16 -61 -10 -99t-75 -38h-40v-64h497v64
h-337q28 22 38.5 59t-2.5 84l-28 104h178v58z" />
    <glyph glyph-name="yen" unicode="&#xa5;" horiz-adv-x="611" 
d="M99 201v-55h171v-146h75v146h170v55h-170v82h170v55h-150l244 362h-85l-215 -324l-216 324h-87l244 -362h-151v-55h171v-82h-171z" />
    <glyph glyph-name="section" unicode="&#xa7;" horiz-adv-x="510" 
d="M439 33q0 34 -14 60.5t-44 47.5q49 13 78.5 51t29.5 91q0 54 -35 92.5t-100 60.5l-129 45q-43 16 -63.5 37.5t-20.5 52.5q0 35 26.5 57t69.5 22q44 0 81 -27.5t45 -73.5h69q-9 68 -63 113.5t-133 45.5q-73 0 -119 -40t-46 -105q0 -34 13.5 -60t41.5 -45
q-48 -13 -77 -51.5t-29 -92.5t35 -92.5t100 -60.5l132 -45q42 -15 62 -37.5t20 -53.5q0 -34 -26.5 -55.5t-69.5 -21.5q-48 0 -85.5 28t-45.5 72h-70q11 -68 66.5 -113t134.5 -45q75 0 120.5 40t45.5 103zM333 375q45 -15 66 -40t21 -62q0 -49 -40.5 -76.5t-102.5 -8.5
l-101 34q-45 16 -66 40.5t-21 61.5q0 49 39.5 77.5t90.5 12.5z" />
    <glyph glyph-name="dieresis" unicode="&#xa8;" horiz-adv-x="526" 
d="M179 591q19 0 33 14.5t14 33.5t-14 33t-33 14t-33 -14t-14 -33t14 -33.5t33 -14.5zM348 591q19 0 32.5 14.5t13.5 33.5t-13.5 33t-32.5 14t-33 -14t-14 -33t14 -33.5t33 -14.5z" />
    <glyph glyph-name="copyright" unicode="&#xa9;" horiz-adv-x="808" 
d="M404 -11q30 0 58.5 4.5t55.5 13.5t52 22t47 29.5t42 36t36 42t29 47.5t22 52t13.5 56t4.5 59t-4.5 58.5t-13.5 55.5t-22 52t-29 47t-36 42t-42 36t-47 29t-52 22t-55.5 13.5t-58.5 4.5t-59 -4.5t-56 -13.5t-51.5 -22t-47 -29.5t-42 -36t-35.5 -42t-29 -47.5t-22 -52
t-13.5 -56t-4.5 -59t4.5 -58.5t13.5 -55.5t22 -52t29 -47t35.5 -42t42 -36t47 -29t51.5 -22t56 -13.5t59 -4.5zM404 37q-26 0 -50.5 4t-47.5 11.5t-44 19t-40 25.5t-35.5 31t-30.5 36t-25 40.5t-18.5 45t-11.5 48.5t-4 51t4 51t11.5 48.5t18.5 45.5t25 41.5t30.5 36.5
t35.5 31t40 25t44 19t47.5 12t50.5 4t50.5 -4t47.5 -11.5t44 -19t40 -25.5t35.5 -31t30.5 -36t25 -40.5t18.5 -45t11.5 -48.5t4 -51t-4 -51t-11.5 -48.5t-18.5 -45.5t-25 -41.5t-30.5 -36.5t-35.5 -31t-40 -25t-44 -19t-47.5 -12t-50.5 -4zM286 350q0 55 37.5 93t88.5 38
q33 0 60.5 -15t44.5 -40l45 32q-25 34 -63 55t-87 21q-20 0 -38.5 -3.5t-35 -10.5t-31.5 -17t-28 -22.5t-23 -27.5t-17 -31.5t-10.5 -34.5t-3.5 -37t3.5 -37.5t10.5 -35t17 -31t23 -27t28 -22.5t31.5 -17t35 -10.5t38.5 -3.5q49 0 87 20.5t63 55.5l-45 32
q-17 -26 -44.5 -40.5t-60.5 -14.5q-51 0 -88.5 38.5t-37.5 92.5z" />
    <glyph glyph-name="ordfeminine" unicode="&#xaa;" horiz-adv-x="372" 
d="M25 444q0 -47 34.5 -76.5t86.5 -29.5q36 0 65 14.5t46 39.5q5 -22 23 -34t43 -12h32v55h-18q-11 0 -16.5 5.5t-5.5 15.5v168q0 53 -35 84.5t-94 31.5q-39 0 -72.5 -11.5t-61.5 -34.5l31 -45q21 18 44.5 26.5t49.5 8.5q37 0 57 -18t20 -50v-28l-113 -8q-55 -4 -85.5 -30.5
t-30.5 -71.5zM86 444q0 24 16.5 38t47.5 16l104 9v-33q0 -35 -28 -60.5t-68 -25.5q-32 0 -52 15.5t-20 40.5z" />
    <glyph glyph-name="guillemotleft" unicode="&#xab;" horiz-adv-x="589" 
d="M341 502h-79l-235 -251l235 -251h82l-232 253zM553 502h-79l-235 -251l235 -251h82l-232 253z" />
    <glyph glyph-name="registered" unicode="&#xae;" horiz-adv-x="481" 
d="M240 306q21 0 40.5 4t37.5 11.5t34 18.5t29.5 24.5t24.5 29.5t18.5 34t11.5 38t4 41t-4 41t-11.5 38t-18.5 34t-24.5 29.5t-29.5 24.5t-34 18.5t-37.5 11.5t-40.5 4t-40.5 -4t-37.5 -11.5t-34 -18.5t-29.5 -24.5t-24.5 -29.5t-18.5 -34t-11.5 -38t-4 -41t4 -41t11.5 -38
t18.5 -34t24.5 -29.5t29.5 -24.5t34 -18.5t37.5 -11.5t40.5 -4zM240 343q-68 0 -114.5 47.5t-46.5 116.5q0 68 46.5 116t114.5 48t115 -48t47 -116q0 -69 -47 -116.5t-115 -47.5zM174 416h37v74h25l43 -74h41l-46 79q15 7 24.5 20.5t9.5 30.5q0 24 -16.5 40.5t-41.5 16.5
h-76v-187zM241 572q13 0 21.5 -7.5t8.5 -18.5q0 -10 -8.5 -18t-21.5 -8h-30v52h30z" />
    <glyph glyph-name="macron" unicode="&#xaf;" horiz-adv-x="510" 
d="M385 658h-252v-53h252v53z" />
    <glyph glyph-name="degree" unicode="&#xb0;" horiz-adv-x="374" 
d="M188 424q58 0 99.5 42.5t41.5 102.5q0 56 -41 98.5t-100 42.5q-61 0 -102 -42.5t-41 -98.5q0 -60 41.5 -102.5t101.5 -42.5zM188 474q-39 0 -65.5 28t-26.5 68q0 37 27 64t65 27q36 0 63 -27t27 -64q0 -40 -26.5 -68t-63.5 -28z" />
    <glyph glyph-name="plusminus" unicode="&#xb1;" horiz-adv-x="516" 
d="M289 171v178h177v61h-177v174h-61v-174h-177v-61h177v-178h61zM466 60h-415v-60h415v60z" />
    <glyph glyph-name="twosuperior" unicode="&#xb2;" horiz-adv-x="307" 
d="M272 594q0 47 -34.5 79.5t-89.5 32.5q-43 0 -76 -20.5t-51 -56.5l45 -25q13 25 33.5 39t45.5 14q30 0 50 -19t20 -48q1 -24 -10 -43.5t-34 -43.5l-139 -151v-37h245v50l-166 -1l103 111q31 33 45 60t13 59z" />
    <glyph glyph-name="threesuperior" unicode="&#xb3;" horiz-adv-x="323" 
d="M154 706q-46 0 -79 -21t-49 -55l47 -23q11 23 31 36.5t46 13.5q30 0 49.5 -17.5t19.5 -44.5q0 -25 -17 -42.5t-43 -17.5h-47v-47h51q30 0 48.5 -18t18.5 -45q0 -29 -20.5 -48.5t-54.5 -19.5q-29 0 -51.5 14t-35.5 39l-47 -25q17 -35 52 -56t84 -21q57 0 94 33t37 80
q0 33 -20 59t-52 36q27 11 43 33.5t16 50.5q0 45 -35 75t-86 31z" />
    <glyph glyph-name="acute" unicode="&#xb4;" horiz-adv-x="510" 
d="M262 696l-105 -118h74l120 118h-89z" />
    <glyph glyph-name="paragraph" unicode="&#xb6;" horiz-adv-x="558" 
d="M33 496q0 -21 4 -41t11.5 -38t18.5 -34.5t25 -30t30.5 -24.5t35.5 -18.5t40 -11.5t43 -4h57v-294h66v294h72v-294h66v700h-261q-22 0 -43 -4t-40 -12t-35.5 -19t-30.5 -24.5t-25 -30t-18.5 -35t-11.5 -38.5t-4 -41z" />
    <glyph glyph-name="periodcentered" unicode="&#xb7;" horiz-adv-x="169" 
d="M85 349q-19 0 -33.5 -14.5t-14.5 -33.5q0 -20 14.5 -34.5t33.5 -14.5t33.5 14.5t14.5 34.5q0 19 -14.5 33.5t-33.5 14.5z" />
    <glyph glyph-name="cedilla" unicode="&#xb8;" horiz-adv-x="510" 
d="M382 -137q0 35 -24 57.5t-64 25.5l18 60h-45l-28 -96h31q28 0 45 -12.5t17 -33.5q0 -20 -15 -33.5t-39 -13.5q-19 0 -36 8.5t-30 24.5l-36 -29q16 -22 44 -35t59 -13q44 0 73.5 26t29.5 64z" />
    <glyph glyph-name="onesuperior" unicode="&#xb9;" horiz-adv-x="272" 
d="M245 365h-80v335h-128v-50h71v-285h-80v-50h217v50z" />
    <glyph glyph-name="ordmasculine" unicode="&#xba;" horiz-adv-x="432" 
d="M404 523q0 19 -3.5 37.5t-11 35t-17.5 31.5t-23 27.5t-28 22.5t-32 17t-35.5 10.5t-38.5 3.5q-19 0 -37.5 -3.5t-35.5 -11t-32.5 -17.5t-28 -22.5t-23 -27t-17.5 -31.5t-11 -35t-4 -37t4 -37t11 -35t17.5 -31.5t23 -27t28 -22.5t32.5 -17.5t35.5 -11t37.5 -3.5
q20 0 38.5 3.5t35.5 11t32 17.5t28 22.5t23 27t17.5 31.5t11 35t3.5 37zM342 523q0 -54 -37 -91.5t-90 -37.5q-51 0 -88.5 37.5t-37.5 91.5t37.5 91.5t88.5 37.5q53 0 90 -37.5t37 -91.5z" />
    <glyph glyph-name="guillemotright" unicode="&#xbb;" horiz-adv-x="589" 
d="M244 0h79l235 251l-235 251h-82l232 -253zM32 0h79l235 251l-235 251h-82l232 -253z" />
    <glyph glyph-name="onequarter" unicode="&#xbc;" horiz-adv-x="686" 
d="M245 365h-80v335h-128v-50h71v-285h-80v-50h217v50zM564 0h58v98h48v48h-48v239h-74l-172 -244v-43h188v-98zM438 146l126 184v-184h-126zM187 0l384 700h-62l-384 -700h62z" />
    <glyph glyph-name="onehalf" unicode="&#xbd;" horiz-adv-x="716" 
d="M245 365h-80v335h-128v-50h71v-285h-80v-50h217v50zM686 279q0 47 -34.5 79.5t-89.5 32.5q-43 0 -76 -20.5t-51 -56.5l45 -25q13 25 33.5 39t45.5 14q30 0 50 -19t20 -48q1 -24 -10 -43.5t-34 -43.5l-139 -151v-37h245v50l-166 -1l103 111q31 33 45 60t13 59zM186 0
l384 700h-62l-384 -700h62z" />
    <glyph glyph-name="threequarters" unicode="&#xbe;" horiz-adv-x="696" 
d="M154 706q-46 0 -79 -21t-49 -55l47 -23q11 23 31 36.5t46 13.5q30 0 49.5 -17.5t19.5 -44.5q0 -25 -17 -42.5t-43 -17.5h-47v-47h51q30 0 48.5 -18t18.5 -45q0 -29 -20.5 -48.5t-54.5 -19.5q-29 0 -51.5 14t-35.5 39l-47 -25q17 -35 52 -56t84 -21q57 0 94 33t37 80
q0 33 -20 59t-52 36q27 11 43 33.5t16 50.5q0 45 -35 75t-86 31zM584 0h58v98h48v48h-48v239h-74l-172 -244v-43h188v-98zM458 146l126 184v-184h-126zM208 0l384 700h-62l-384 -700h62z" />
    <glyph glyph-name="questiondown" unicode="&#xbf;" horiz-adv-x="483" 
d="M29 197q0 -22 4 -42.5t12 -39t19.5 -35t26.5 -30t33 -24.5t38.5 -19t43.5 -12t48 -4q66 0 120.5 29t91.5 78l-54 39q-28 -38 -69 -60t-88 -22q-69 0 -111.5 42t-42.5 102q0 57 39 98t104 41h37l-4 180h-60l-3 -121q-21 -2 -40 -7t-36 -13.5t-31.5 -19.5t-27 -24.5
t-21.5 -29t-15.5 -32.5t-10 -36t-3.5 -38zM250 620q19 0 33 14.5t14 33.5t-14 33t-33 14t-33 -14t-14 -33t14 -33.5t33 -14.5z" />
    <glyph glyph-name="Agrave" unicode="&#xc0;" horiz-adv-x="668" 
d="M371 700h-74l-299 -700h79l82 197h347l83 -197h80zM187 264l146 347l145 -347h-291zM288 894h-89l118 -118h75z" />
    <glyph glyph-name="Aacute" unicode="&#xc1;" horiz-adv-x="668" 
d="M371 700h-74l-299 -700h79l82 197h347l83 -197h80zM187 264l146 347l145 -347h-291zM380 894l-105 -118h74l120 118h-89z" />
    <glyph glyph-name="Acircumflex" unicode="&#xc2;" horiz-adv-x="668" 
d="M371 700h-74l-299 -700h79l82 197h347l83 -197h80zM187 264l146 347l145 -347h-291zM256 776l78 77l78 -77h69l-109 118h-75l-110 -118h69z" />
    <glyph glyph-name="Atilde" unicode="&#xc3;" horiz-adv-x="668" 
d="M371 700h-74l-299 -700h79l82 197h347l83 -197h80zM187 264l146 347l145 -347h-291zM273 889q-32 0 -55 -24.5t-36 -72.5l50 -11q10 32 20.5 44t23.5 12q4 0 9.5 -2t11.5 -5t12.5 -7t13.5 -8.5t14 -9.5t14.5 -9t15 -7t15 -5t14.5 -2q32 0 54.5 25t35.5 72l-49 12
q-10 -33 -20.5 -44.5t-23.5 -11.5q-5 0 -10 2t-11 5t-12.5 7t-13.5 8.5l-14 9t-14.5 8.5t-15 7t-15 5t-14.5 2z" />
    <glyph glyph-name="Adieresis" unicode="&#xc4;" horiz-adv-x="668" 
d="M371 700h-74l-299 -700h79l82 197h347l83 -197h80zM187 264l146 347l145 -347h-291zM250 789q19 0 33 14.5t14 33.5t-14 33t-33 14t-33 -14t-14 -33t14 -33.5t33 -14.5zM419 789q19 0 32.5 14.5t13.5 33.5t-13.5 33t-32.5 14t-33 -14t-14 -33t14 -33.5t33 -14.5z" />
    <glyph glyph-name="Aring" unicode="&#xc5;" horiz-adv-x="668" 
d="M371 700h-74l-299 -700h79l82 197h347l83 -197h80zM187 264l146 347l145 -347h-291zM335 760q43 0 73.5 30t30.5 72q0 41 -30.5 71t-73.5 30t-73.5 -30t-30.5 -71q0 -42 30.5 -72t73.5 -30zM335 799q-26 0 -44 18.5t-18 44.5q0 25 18 43t44 18t44 -18t18 -43
q0 -26 -18 -44.5t-44 -18.5z" />
    <glyph glyph-name="AE" unicode="&#xc6;" horiz-adv-x="903" 
d="M864 66h-333v252h323v66h-323v250h333v66h-437l-432 -700h87l112 187h262v-187h408v66zM235 253l221 368v-368h-221z" />
    <glyph glyph-name="Ccedilla" unicode="&#xc7;" horiz-adv-x="732" 
d="M33 350q0 -30 4.5 -59t13.5 -56t22 -52t29.5 -47.5t36.5 -42t42.5 -35.5t48 -29t53 -22t57 -13.5t60.5 -4.5q98 0 178 46t128 120l-61 38q-39 -61 -103.5 -98t-142.5 -37q-27 0 -52.5 4.5t-49 13t-45 21t-40.5 28.5t-35 35t-28.5 40.5t-21.5 45.5t-13.5 50t-4.5 54
q0 27 4.5 53t13.5 50t21.5 45.5t28.5 40.5t35 35t40.5 28.5t45 21.5t49 13.5t52.5 4.5q76 0 141 -37.5t104 -98.5l61 40q-49 74 -129.5 119.5t-176.5 45.5q-31 0 -60.5 -4.5t-57 -13.5t-52.5 -22t-47.5 -29.5t-42.5 -36t-36.5 -42t-29.5 -47.5t-22 -52t-13.5 -55.5
t-4.5 -58.5zM493 -137q0 35 -24 57.5t-64 25.5l18 60h-45l-28 -96h31q28 0 45 -12.5t17 -33.5q0 -20 -15 -33.5t-39 -13.5q-19 0 -36 8.5t-30 24.5l-36 -29q16 -22 44 -35t59 -13q44 0 73.5 26t29.5 64z" />
    <glyph glyph-name="Egrave" unicode="&#xc8;" horiz-adv-x="504" 
d="M57 0h408v66h-333v252h323v66h-323v250h333v66h-408v-700zM224 894h-89l118 -118h75z" />
    <glyph glyph-name="Eacute" unicode="&#xc9;" horiz-adv-x="504" 
d="M57 0h408v66h-333v252h323v66h-323v250h333v66h-408v-700zM317 894l-105 -118h74l120 118h-89z" />
    <glyph glyph-name="Ecircumflex" unicode="&#xca;" horiz-adv-x="504" 
d="M57 0h408v66h-333v252h323v66h-323v250h333v66h-408v-700zM193 776l78 77l78 -77h69l-109 118h-75l-110 -118h69z" />
    <glyph glyph-name="Edieresis" unicode="&#xcb;" horiz-adv-x="504" 
d="M57 0h408v66h-333v252h323v66h-323v250h333v66h-408v-700zM187 789q19 0 33 14.5t14 33.5t-14 33t-33 14t-33 -14t-14 -33t14 -33.5t33 -14.5zM356 789q19 0 32.5 14.5t13.5 33.5t-13.5 33t-32.5 14t-33 -14t-14 -33t14 -33.5t33 -14.5z" />
    <glyph glyph-name="Igrave" unicode="&#xcc;" horiz-adv-x="188" 
d="M132 0v700h-75v-700h75zM48 894h-89l118 -118h75z" />
    <glyph glyph-name="Iacute" unicode="&#xcd;" horiz-adv-x="188" 
d="M132 0v700h-75v-700h75zM141 894l-105 -118h74l120 118h-89z" />
    <glyph glyph-name="Icircumflex" unicode="&#xce;" horiz-adv-x="188" 
d="M132 0v700h-75v-700h75zM17 776l78 77l78 -77h69l-109 118h-75l-110 -118h69z" />
    <glyph glyph-name="Idieresis" unicode="&#xcf;" horiz-adv-x="188" 
d="M132 0v700h-75v-700h75zM11 789q19 0 33 14.5t14 33.5t-14 33t-33 14t-33 -14t-14 -33t14 -33.5t33 -14.5zM180 789q19 0 32.5 14.5t13.5 33.5t-13.5 33t-32.5 14t-33 -14t-14 -33t14 -33.5t33 -14.5z" />
    <glyph glyph-name="Eth" unicode="&#xd0;" horiz-adv-x="722" 
d="M5 315h71v-315h257q30 0 58 4.5t54.5 13t51 21t47 28.5t41.5 35t35.5 40.5t29 45.5t21.5 50t13.5 54t4.5 57t-4.5 57t-13.5 54.5t-21.5 50.5t-29 46t-35.5 41t-41.5 35t-47 28.5t-51 21t-54.5 13t-58 4.5h-257v-320h-71v-65zM330 634q26 0 51 -4.5t48 -13t44 -21
t39.5 -28.5t34 -34.5t28 -39.5t21 -44.5t13 -48.5t4.5 -51t-4.5 -51t-13 -48t-21 -44t-28 -39.5t-34 -34t-39.5 -28t-44 -21t-48 -13t-51 -4.5h-179v249h180v65h-180v254h179z" />
    <glyph glyph-name="Ntilde" unicode="&#xd1;" horiz-adv-x="690" 
d="M128 0l-1 595l424 -595h82v700h-71l1 -594l-423 594h-83v-700h71zM283 889q-32 0 -55 -24.5t-36 -72.5l50 -11q10 32 20.5 44t23.5 12q4 0 9.5 -2t11.5 -5t12.5 -7t13.5 -8.5t14 -9.5t14.5 -9t15 -7t15 -5t14.5 -2q32 0 54.5 25t35.5 72l-49 12q-10 -33 -20.5 -44.5
t-23.5 -11.5q-5 0 -10 2t-11 5t-12.5 7t-13.5 8.5l-14 9t-14.5 8.5t-15 7t-15 5t-14.5 2z" />
    <glyph glyph-name="Ograve" unicode="&#xd2;" horiz-adv-x="797" 
d="M33 349q0 -30 4.5 -58.5t13.5 -55.5t22 -52t30 -47t36.5 -42t42.5 -36t48 -29t52.5 -22t56.5 -13.5t60 -4.5q30 0 59.5 4.5t56.5 13.5t52.5 22t48 29t42 36t36.5 42t30 47t22 52t13.5 55.5t4.5 58.5t-4.5 59t-13.5 56t-22 52t-30 47.5t-36.5 42t-42 36t-48 29.5t-52.5 22
t-56.5 13.5t-59.5 4.5q-31 0 -60 -4.5t-56.5 -13.5t-52.5 -22t-48 -29.5t-42.5 -36t-36.5 -42t-30 -47.5t-22 -52t-13.5 -56t-4.5 -59zM109 349q0 24 4 47.5t11 45.5t17.5 42t23.5 38.5t28.5 34.5t33.5 29t38 23.5t42 17.5t45 11t47 4q27 0 52.5 -4.5t49 -13.5t45 -21.5
t40.5 -29t34.5 -35.5t28 -40.5t21.5 -45.5t13.5 -50t4.5 -53t-4.5 -53t-13.5 -49.5t-21.5 -45t-28 -40.5t-34.5 -35t-40.5 -28.5t-45 -21.5t-49 -13.5t-52.5 -4.5t-52.5 4.5t-49 13.5t-45 21.5t-40.5 28.5t-35 35t-28.5 40.5t-21.5 45t-13.5 49.5t-4.5 53zM352 894h-89
l118 -118h75z" />
    <glyph glyph-name="Oacute" unicode="&#xd3;" horiz-adv-x="797" 
d="M33 349q0 -30 4.5 -58.5t13.5 -55.5t22 -52t30 -47t36.5 -42t42.5 -36t48 -29t52.5 -22t56.5 -13.5t60 -4.5q30 0 59.5 4.5t56.5 13.5t52.5 22t48 29t42 36t36.5 42t30 47t22 52t13.5 55.5t4.5 58.5t-4.5 59t-13.5 56t-22 52t-30 47.5t-36.5 42t-42 36t-48 29.5t-52.5 22
t-56.5 13.5t-59.5 4.5q-31 0 -60 -4.5t-56.5 -13.5t-52.5 -22t-48 -29.5t-42.5 -36t-36.5 -42t-30 -47.5t-22 -52t-13.5 -56t-4.5 -59zM109 349q0 24 4 47.5t11 45.5t17.5 42t23.5 38.5t28.5 34.5t33.5 29t38 23.5t42 17.5t45 11t47 4q27 0 52.5 -4.5t49 -13.5t45 -21.5
t40.5 -29t34.5 -35.5t28 -40.5t21.5 -45.5t13.5 -50t4.5 -53t-4.5 -53t-13.5 -49.5t-21.5 -45t-28 -40.5t-34.5 -35t-40.5 -28.5t-45 -21.5t-49 -13.5t-52.5 -4.5t-52.5 4.5t-49 13.5t-45 21.5t-40.5 28.5t-35 35t-28.5 40.5t-21.5 45t-13.5 49.5t-4.5 53zM444 894
l-105 -118h74l120 118h-89z" />
    <glyph glyph-name="Ocircumflex" unicode="&#xd4;" horiz-adv-x="797" 
d="M33 349q0 -30 4.5 -58.5t13.5 -55.5t22 -52t30 -47t36.5 -42t42.5 -36t48 -29t52.5 -22t56.5 -13.5t60 -4.5q30 0 59.5 4.5t56.5 13.5t52.5 22t48 29t42 36t36.5 42t30 47t22 52t13.5 55.5t4.5 58.5t-4.5 59t-13.5 56t-22 52t-30 47.5t-36.5 42t-42 36t-48 29.5t-52.5 22
t-56.5 13.5t-59.5 4.5q-31 0 -60 -4.5t-56.5 -13.5t-52.5 -22t-48 -29.5t-42.5 -36t-36.5 -42t-30 -47.5t-22 -52t-13.5 -56t-4.5 -59zM109 349q0 24 4 47.5t11 45.5t17.5 42t23.5 38.5t28.5 34.5t33.5 29t38 23.5t42 17.5t45 11t47 4q27 0 52.5 -4.5t49 -13.5t45 -21.5
t40.5 -29t34.5 -35.5t28 -40.5t21.5 -45.5t13.5 -50t4.5 -53t-4.5 -53t-13.5 -49.5t-21.5 -45t-28 -40.5t-34.5 -35t-40.5 -28.5t-45 -21.5t-49 -13.5t-52.5 -4.5t-52.5 4.5t-49 13.5t-45 21.5t-40.5 28.5t-35 35t-28.5 40.5t-21.5 45t-13.5 49.5t-4.5 53zM320 776l78 77
l78 -77h69l-109 118h-75l-110 -118h69z" />
    <glyph glyph-name="Otilde" unicode="&#xd5;" horiz-adv-x="797" 
d="M33 349q0 -30 4.5 -58.5t13.5 -55.5t22 -52t30 -47t36.5 -42t42.5 -36t48 -29t52.5 -22t56.5 -13.5t60 -4.5q30 0 59.5 4.5t56.5 13.5t52.5 22t48 29t42 36t36.5 42t30 47t22 52t13.5 55.5t4.5 58.5t-4.5 59t-13.5 56t-22 52t-30 47.5t-36.5 42t-42 36t-48 29.5t-52.5 22
t-56.5 13.5t-59.5 4.5q-31 0 -60 -4.5t-56.5 -13.5t-52.5 -22t-48 -29.5t-42.5 -36t-36.5 -42t-30 -47.5t-22 -52t-13.5 -56t-4.5 -59zM109 349q0 24 4 47.5t11 45.5t17.5 42t23.5 38.5t28.5 34.5t33.5 29t38 23.5t42 17.5t45 11t47 4q27 0 52.5 -4.5t49 -13.5t45 -21.5
t40.5 -29t34.5 -35.5t28 -40.5t21.5 -45.5t13.5 -50t4.5 -53t-4.5 -53t-13.5 -49.5t-21.5 -45t-28 -40.5t-34.5 -35t-40.5 -28.5t-45 -21.5t-49 -13.5t-52.5 -4.5t-52.5 4.5t-49 13.5t-45 21.5t-40.5 28.5t-35 35t-28.5 40.5t-21.5 45t-13.5 49.5t-4.5 53zM337 889
q-32 0 -55 -24.5t-36 -72.5l50 -11q10 32 20.5 44t23.5 12q4 0 9.5 -2t11.5 -5t12.5 -7t13.5 -8.5t14 -9.5t14.5 -9t15 -7t15 -5t14.5 -2q32 0 54.5 25t35.5 72l-49 12q-10 -33 -20.5 -44.5t-23.5 -11.5q-5 0 -10 2t-11 5t-12.5 7t-13.5 8.5l-14 9t-14.5 8.5t-15 7t-15 5
t-14.5 2z" />
    <glyph glyph-name="Odieresis" unicode="&#xd6;" horiz-adv-x="797" 
d="M33 349q0 -30 4.5 -58.5t13.5 -55.5t22 -52t30 -47t36.5 -42t42.5 -36t48 -29t52.5 -22t56.5 -13.5t60 -4.5q30 0 59.5 4.5t56.5 13.5t52.5 22t48 29t42 36t36.5 42t30 47t22 52t13.5 55.5t4.5 58.5t-4.5 59t-13.5 56t-22 52t-30 47.5t-36.5 42t-42 36t-48 29.5t-52.5 22
t-56.5 13.5t-59.5 4.5q-31 0 -60 -4.5t-56.5 -13.5t-52.5 -22t-48 -29.5t-42.5 -36t-36.5 -42t-30 -47.5t-22 -52t-13.5 -56t-4.5 -59zM109 349q0 24 4 47.5t11 45.5t17.5 42t23.5 38.5t28.5 34.5t33.5 29t38 23.5t42 17.5t45 11t47 4q27 0 52.5 -4.5t49 -13.5t45 -21.5
t40.5 -29t34.5 -35.5t28 -40.5t21.5 -45.5t13.5 -50t4.5 -53t-4.5 -53t-13.5 -49.5t-21.5 -45t-28 -40.5t-34.5 -35t-40.5 -28.5t-45 -21.5t-49 -13.5t-52.5 -4.5t-52.5 4.5t-49 13.5t-45 21.5t-40.5 28.5t-35 35t-28.5 40.5t-21.5 45t-13.5 49.5t-4.5 53zM315 789
q19 0 33 14.5t14 33.5t-14 33t-33 14t-33 -14t-14 -33t14 -33.5t33 -14.5zM484 789q19 0 32.5 14.5t13.5 33.5t-13.5 33t-32.5 14t-33 -14t-14 -33t14 -33.5t33 -14.5z" />
    <glyph glyph-name="multiply" unicode="&#xd7;" horiz-adv-x="535" 
d="M112 163l155 157l155 -158l40 40l-156 158l155 157l-39 39l-154 -157l-155 157l-40 -40l155 -157l-155 -157z" />
    <glyph glyph-name="Oslash" unicode="&#xd8;" horiz-adv-x="797" 
d="M71 0h74l45 53q44 -30 97.5 -47t111.5 -17q30 0 59.5 4.5t56.5 13.5t52.5 22t48 29t42 36t36.5 42t30 47t22 52t13.5 55.5t4.5 58.5q0 77 -30.5 144.5t-81.5 116.5l75 90h-75l-45 -54q-44 31 -97 48t-111 17q-31 0 -60 -4.5t-56.5 -13.5t-52.5 -22t-48 -29.5t-42.5 -36
t-36.5 -42t-30 -47.5t-22 -52t-13.5 -56t-4.5 -59q0 -76 30.5 -143.5t81.5 -116.5zM109 349q0 24 4 47.5t11 45.5t17.5 42t23.5 38.5t28.5 34.5t33.5 29t38 23.5t42 17.5t45 11t47 4q46 0 87 -13.5t76 -37.5l-371 -445q-37 39 -59.5 91t-22.5 112zM688 349q0 -27 -4.5 -53
t-13.5 -49.5t-21.5 -45t-28 -40.5t-34.5 -35t-40.5 -28.5t-45 -21.5t-49 -13.5t-52.5 -4.5q-46 0 -87.5 13.5t-76.5 36.5l371 446q38 -40 60 -92.5t22 -112.5z" />
    <glyph glyph-name="Ugrave" unicode="&#xd9;" horiz-adv-x="638" 
d="M126 262v438h-75v-440q0 -31 5 -58.5t15 -52.5t23.5 -46t31 -39t38.5 -31.5t44 -23t49 -14.5t53 -5q60 0 111.5 26.5t85.5 73.5v-90h74v700h-75v-438q0 -23 -4 -44t-11 -39.5t-17 -35t-23 -30t-28.5 -23.5t-32.5 -17.5t-36 -11t-39 -3.5q-81 0 -135 55.5t-54 148.5z
M269 894h-89l118 -118h75z" />
    <glyph glyph-name="Uacute" unicode="&#xda;" horiz-adv-x="638" 
d="M126 262v438h-75v-440q0 -31 5 -58.5t15 -52.5t23.5 -46t31 -39t38.5 -31.5t44 -23t49 -14.5t53 -5q60 0 111.5 26.5t85.5 73.5v-90h74v700h-75v-438q0 -23 -4 -44t-11 -39.5t-17 -35t-23 -30t-28.5 -23.5t-32.5 -17.5t-36 -11t-39 -3.5q-81 0 -135 55.5t-54 148.5z
M362 894l-105 -118h74l120 118h-89z" />
    <glyph glyph-name="Ucircumflex" unicode="&#xdb;" horiz-adv-x="638" 
d="M126 262v438h-75v-440q0 -31 5 -58.5t15 -52.5t23.5 -46t31 -39t38.5 -31.5t44 -23t49 -14.5t53 -5q60 0 111.5 26.5t85.5 73.5v-90h74v700h-75v-438q0 -23 -4 -44t-11 -39.5t-17 -35t-23 -30t-28.5 -23.5t-32.5 -17.5t-36 -11t-39 -3.5q-81 0 -135 55.5t-54 148.5z
M238 776l78 77l78 -77h69l-109 118h-75l-110 -118h69z" />
    <glyph glyph-name="Udieresis" unicode="&#xdc;" horiz-adv-x="638" 
d="M126 262v438h-75v-440q0 -31 5 -58.5t15 -52.5t23.5 -46t31 -39t38.5 -31.5t44 -23t49 -14.5t53 -5q60 0 111.5 26.5t85.5 73.5v-90h74v700h-75v-438q0 -23 -4 -44t-11 -39.5t-17 -35t-23 -30t-28.5 -23.5t-32.5 -17.5t-36 -11t-39 -3.5q-81 0 -135 55.5t-54 148.5z
M232 789q19 0 33 14.5t14 33.5t-14 33t-33 14t-33 -14t-14 -33t14 -33.5t33 -14.5zM401 789q19 0 32.5 14.5t13.5 33.5t-13.5 33t-32.5 14t-33 -14t-14 -33t14 -33.5t33 -14.5z" />
    <glyph glyph-name="Yacute" unicode="&#xdd;" horiz-adv-x="593" 
d="M334 0v308l264 392h-85l-215 -324l-216 324h-87l264 -389v-311h75zM344 894l-105 -118h74l120 118h-89z" />
    <glyph glyph-name="Thorn" unicode="&#xde;" horiz-adv-x="541" 
d="M132 700h-75v-700h75v147h172q22 0 43 4t40 11.5t35.5 18.5t30.5 25t25 30t18.5 34t11.5 38t4 41t-4 41.5t-11.5 39t-18.5 34.5t-25 30t-30.5 25t-35.5 19t-40 12t-43 4h-172v146zM300 487q59 0 97.5 -40.5t38.5 -97.5t-38.5 -97t-97.5 -40h-168v275h168z" />
    <glyph glyph-name="germandbls" unicode="&#xdf;" horiz-adv-x="567" 
d="M327 385l66 41q38 24 57.5 51.5t19.5 71.5q0 18 -4 34.5t-11.5 31.5t-18 28t-24 24t-29 19.5t-33.5 14.5t-38 9t-41 3q-95 0 -156.5 -57.5t-61.5 -157.5v-498h73v498q0 67 40 109t103 42q56 0 93 -29.5t37 -73.5q0 -24 -13 -41.5t-36 -32.5l-62 -39q-37 -24 -53 -46.5
t-16 -58.5q0 -40 30 -65t85 -41l71 -21q34 -10 52 -28t18 -46q0 -33 -25 -55.5t-69 -22.5q-46 0 -76 24.5t-37 61.5h-70q10 -60 58.5 -102.5t123.5 -42.5t120 41t45 104q0 49 -31 81.5t-89 49.5l-75 21q-28 8 -45 19t-17 30q0 14 9 25t30 24z" />
    <glyph glyph-name="agrave" unicode="&#xe0;" horiz-adv-x="493" 
d="M26 138q0 -66 48.5 -107t120.5 -41q51 0 92.5 21.5t66.5 57.5q4 -31 27.5 -50t59.5 -19h39v64h-25q-15 0 -23.5 8t-8.5 22v256q0 73 -48 116.5t-129 43.5q-54 0 -99 -16t-83 -50l38 -52q30 27 63.5 40t71.5 13q54 0 84.5 -28t30.5 -77v-47l-165 -11q-76 -5 -118.5 -43
t-42.5 -101zM96 138q0 37 26.5 59.5t75.5 26.5l154 11v-51q0 -55 -42.5 -94.5t-103.5 -39.5q-48 0 -79 25t-31 63zM193 696h-89l118 -118h75z" />
    <glyph glyph-name="aacute" unicode="&#xe1;" horiz-adv-x="493" 
d="M26 138q0 -66 48.5 -107t120.5 -41q51 0 92.5 21.5t66.5 57.5q4 -31 27.5 -50t59.5 -19h39v64h-25q-15 0 -23.5 8t-8.5 22v256q0 73 -48 116.5t-129 43.5q-54 0 -99 -16t-83 -50l38 -52q30 27 63.5 40t71.5 13q54 0 84.5 -28t30.5 -77v-47l-165 -11q-76 -5 -118.5 -43
t-42.5 -101zM96 138q0 37 26.5 59.5t75.5 26.5l154 11v-51q0 -55 -42.5 -94.5t-103.5 -39.5q-48 0 -79 25t-31 63zM286 696l-105 -118h74l120 118h-89z" />
    <glyph glyph-name="acircumflex" unicode="&#xe2;" horiz-adv-x="493" 
d="M26 138q0 -66 48.5 -107t120.5 -41q51 0 92.5 21.5t66.5 57.5q4 -31 27.5 -50t59.5 -19h39v64h-25q-15 0 -23.5 8t-8.5 22v256q0 73 -48 116.5t-129 43.5q-54 0 -99 -16t-83 -50l38 -52q30 27 63.5 40t71.5 13q54 0 84.5 -28t30.5 -77v-47l-165 -11q-76 -5 -118.5 -43
t-42.5 -101zM96 138q0 37 26.5 59.5t75.5 26.5l154 11v-51q0 -55 -42.5 -94.5t-103.5 -39.5q-48 0 -79 25t-31 63zM162 578l78 77l78 -77h69l-109 118h-75l-110 -118h69z" />
    <glyph glyph-name="atilde" unicode="&#xe3;" horiz-adv-x="493" 
d="M26 138q0 -66 48.5 -107t120.5 -41q51 0 92.5 21.5t66.5 57.5q4 -31 27.5 -50t59.5 -19h39v64h-25q-15 0 -23.5 8t-8.5 22v256q0 73 -48 116.5t-129 43.5q-54 0 -99 -16t-83 -50l38 -52q30 27 63.5 40t71.5 13q54 0 84.5 -28t30.5 -77v-47l-165 -11q-76 -5 -118.5 -43
t-42.5 -101zM96 138q0 37 26.5 59.5t75.5 26.5l154 11v-51q0 -55 -42.5 -94.5t-103.5 -39.5q-48 0 -79 25t-31 63zM179 691q-32 0 -55 -24.5t-36 -72.5l50 -11q10 32 20.5 44t23.5 12q4 0 9.5 -2t11.5 -5t12.5 -7t13.5 -8.5t14 -9.5t14.5 -9t15 -7t15 -5t14.5 -2
q32 0 54.5 25t35.5 72l-49 12q-10 -33 -20.5 -44.5t-23.5 -11.5q-5 0 -10 2t-11 5t-12.5 7t-13.5 8.5l-14 9t-14.5 8.5t-15 7t-15 5t-14.5 2z" />
    <glyph glyph-name="adieresis" unicode="&#xe4;" horiz-adv-x="493" 
d="M26 138q0 -66 48.5 -107t120.5 -41q51 0 92.5 21.5t66.5 57.5q4 -31 27.5 -50t59.5 -19h39v64h-25q-15 0 -23.5 8t-8.5 22v256q0 73 -48 116.5t-129 43.5q-54 0 -99 -16t-83 -50l38 -52q30 27 63.5 40t71.5 13q54 0 84.5 -28t30.5 -77v-47l-165 -11q-76 -5 -118.5 -43
t-42.5 -101zM96 138q0 37 26.5 59.5t75.5 26.5l154 11v-51q0 -55 -42.5 -94.5t-103.5 -39.5q-48 0 -79 25t-31 63zM156 591q19 0 33 14.5t14 33.5t-14 33t-33 14t-33 -14t-14 -33t14 -33.5t33 -14.5zM325 591q19 0 32.5 14.5t13.5 33.5t-13.5 33t-32.5 14t-33 -14t-14 -33
t14 -33.5t33 -14.5z" />
    <glyph glyph-name="aring" unicode="&#xe5;" horiz-adv-x="493" 
d="M26 138q0 -66 48.5 -107t120.5 -41q51 0 92.5 21.5t66.5 57.5q4 -31 27.5 -50t59.5 -19h39v64h-25q-15 0 -23.5 8t-8.5 22v256q0 73 -48 116.5t-129 43.5q-54 0 -99 -16t-83 -50l38 -52q30 27 63.5 40t71.5 13q54 0 84.5 -28t30.5 -77v-47l-165 -11q-76 -5 -118.5 -43
t-42.5 -101zM96 138q0 37 26.5 59.5t75.5 26.5l154 11v-51q0 -55 -42.5 -94.5t-103.5 -39.5q-48 0 -79 25t-31 63zM240 562q43 0 73.5 30t30.5 72q0 41 -30.5 71t-73.5 30t-73.5 -30t-30.5 -71q0 -42 30.5 -72t73.5 -30zM240 601q-26 0 -44 18.5t-18 44.5q0 25 18 43t44 18
t44 -18t18 -43q0 -26 -18 -44.5t-44 -18.5z" />
    <glyph glyph-name="ae" unicode="&#xe6;" horiz-adv-x="887" 
d="M617 -9q66 0 120.5 29t90.5 78l-54 39q-28 -40 -69 -61.5t-90 -21.5q-74 0 -128.5 51t-61.5 126h429v26q0 24 -4 46.5t-11 43.5t-17.5 39.5t-24 35t-29 30.5t-34 25t-38.5 18.5t-41.5 11.5t-44.5 4q-62 0 -114 -27.5t-86 -74.5q-16 47 -59 74t-105 27q-54 0 -99 -16
t-83 -50l38 -52q30 27 63.5 40t72.5 13q54 0 84.5 -28t30.5 -77v-50l-165 -10q-76 -5 -119 -42.5t-43 -99.5q0 -66 49 -107t122 -41q76 0 125 36t71 91q34 -57 93 -91.5t131 -34.5zM608 448q64 0 114 -44t60 -113h-354q12 68 63 112.5t117 44.5zM96 138q0 37 26.5 58.5
t76.5 24.5l154 11v-48q0 -55 -43 -94.5t-103 -39.5q-49 0 -80 25t-31 63z" />
    <glyph glyph-name="ccedilla" unicode="&#xe7;" horiz-adv-x="524" 
d="M105 251q0 21 4 40t11 37t17.5 33.5t23.5 29t28.5 23.5t33 17.5t36 11.5t38.5 4q48 0 89 -22.5t68 -59.5l54 39q-36 49 -90 78t-121 29q-25 0 -48.5 -4t-45 -12t-41 -19.5t-37 -25.5t-31.5 -31t-25.5 -36.5t-19.5 -40.5t-12 -44t-4 -47q0 -23 3.5 -44.5t11 -42t17.5 -39
t23 -35t28.5 -31t33.5 -26.5t38 -20.5t41.5 -14t44.5 -7.5l-24 -81h31q28 0 45 -12.5t17 -33.5q0 -20 -15 -33.5t-39 -13.5q-19 0 -36 8.5t-30 24.5l-36 -29q16 -22 44 -35t59 -13q44 0 73.5 26t29.5 64q0 35 -24 57.5t-64 25.5l13 45q60 4 108.5 32.5t81.5 74.5l-54 38
q-27 -37 -68 -59.5t-89 -22.5q-20 0 -38.5 4t-36 11.5t-33 18t-28.5 24t-23.5 29t-17.5 33.5t-11 37t-4 40z" />
    <glyph glyph-name="egrave" unicode="&#xe8;" horiz-adv-x="567" 
d="M33 251q0 -24 4 -47t12 -44.5t19.5 -41t25.5 -36t31.5 -31t37 -25.5t41 -19t44.5 -12t48 -4q66 0 121 29t91 78l-54 38q-28 -39 -69 -60.5t-90 -21.5q-74 0 -128 50.5t-62 124.5h429v28q0 24 -4 46.5t-11 43.5t-17.5 39.5t-24 35t-29.5 30.5t-34 25t-38.5 18.5
t-42.5 11.5t-45 4q-24 0 -46.5 -4t-43.5 -12t-40 -19.5t-35.5 -26t-30.5 -31.5t-25 -36t-18.5 -40.5t-11.5 -44t-4 -46.5zM288 448q65 0 114.5 -45t59.5 -114h-355q12 69 63 114t118 45zM242 696h-89l118 -118h75z" />
    <glyph glyph-name="eacute" unicode="&#xe9;" horiz-adv-x="567" 
d="M33 251q0 -24 4 -47t12 -44.5t19.5 -41t25.5 -36t31.5 -31t37 -25.5t41 -19t44.5 -12t48 -4q66 0 121 29t91 78l-54 38q-28 -39 -69 -60.5t-90 -21.5q-74 0 -128 50.5t-62 124.5h429v28q0 24 -4 46.5t-11 43.5t-17.5 39.5t-24 35t-29.5 30.5t-34 25t-38.5 18.5
t-42.5 11.5t-45 4q-24 0 -46.5 -4t-43.5 -12t-40 -19.5t-35.5 -26t-30.5 -31.5t-25 -36t-18.5 -40.5t-11.5 -44t-4 -46.5zM288 448q65 0 114.5 -45t59.5 -114h-355q12 69 63 114t118 45zM335 696l-105 -118h74l120 118h-89z" />
    <glyph glyph-name="ecircumflex" unicode="&#xea;" horiz-adv-x="567" 
d="M33 251q0 -24 4 -47t12 -44.5t19.5 -41t25.5 -36t31.5 -31t37 -25.5t41 -19t44.5 -12t48 -4q66 0 121 29t91 78l-54 38q-28 -39 -69 -60.5t-90 -21.5q-74 0 -128 50.5t-62 124.5h429v28q0 24 -4 46.5t-11 43.5t-17.5 39.5t-24 35t-29.5 30.5t-34 25t-38.5 18.5
t-42.5 11.5t-45 4q-24 0 -46.5 -4t-43.5 -12t-40 -19.5t-35.5 -26t-30.5 -31.5t-25 -36t-18.5 -40.5t-11.5 -44t-4 -46.5zM288 448q65 0 114.5 -45t59.5 -114h-355q12 69 63 114t118 45zM211 578l78 77l78 -77h69l-109 118h-75l-110 -118h69z" />
    <glyph glyph-name="edieresis" unicode="&#xeb;" horiz-adv-x="567" 
d="M33 251q0 -24 4 -47t12 -44.5t19.5 -41t25.5 -36t31.5 -31t37 -25.5t41 -19t44.5 -12t48 -4q66 0 121 29t91 78l-54 38q-28 -39 -69 -60.5t-90 -21.5q-74 0 -128 50.5t-62 124.5h429v28q0 24 -4 46.5t-11 43.5t-17.5 39.5t-24 35t-29.5 30.5t-34 25t-38.5 18.5
t-42.5 11.5t-45 4q-24 0 -46.5 -4t-43.5 -12t-40 -19.5t-35.5 -26t-30.5 -31.5t-25 -36t-18.5 -40.5t-11.5 -44t-4 -46.5zM288 448q65 0 114.5 -45t59.5 -114h-355q12 69 63 114t118 45zM205 591q19 0 33 14.5t14 33.5t-14 33t-33 14t-33 -14t-14 -33t14 -33.5t33 -14.5z
M374 591q19 0 32.5 14.5t13.5 33.5t-13.5 33t-32.5 14t-33 -14t-14 -33t14 -33.5t33 -14.5z" />
    <glyph glyph-name="igrave" unicode="&#xec;" horiz-adv-x="177" 
d="M124 502h-72v-502h72v502zM42 696h-89l118 -118h75z" />
    <glyph glyph-name="iacute" unicode="&#xed;" horiz-adv-x="177" 
d="M124 502h-72v-502h72v502zM134 696l-105 -118h74l120 118h-89z" />
    <glyph glyph-name="icircumflex" unicode="&#xee;" horiz-adv-x="177" 
d="M124 502h-72v-502h72v502zM11 578l78 77l78 -77h69l-109 118h-75l-110 -118h69z" />
    <glyph glyph-name="idieresis" unicode="&#xef;" horiz-adv-x="177" 
d="M124 502h-72v-502h72v502zM5 591q19 0 33 14.5t14 33.5t-14 33t-33 14t-33 -14t-14 -33t14 -33.5t33 -14.5zM174 591q19 0 32.5 14.5t13.5 33.5t-13.5 33t-32.5 14t-33 -14t-14 -33t14 -33.5t33 -14.5z" />
    <glyph glyph-name="eth" unicode="&#xf0;" horiz-adv-x="585" 
d="M260 530l98 61q44 -40 72 -94.5t37 -117.5q-28 51 -78.5 81.5t-112.5 30.5q-23 0 -44.5 -4t-41.5 -11t-38 -17.5t-34 -24t-29 -29.5t-23.5 -34t-17.5 -38.5t-11 -42t-4 -44.5q0 -24 4 -46.5t11.5 -43.5t18 -40t24 -36t30 -31t35 -25t39 -18.5t42.5 -11.5t45 -4
q29 0 55 5.5t49.5 16t44 25.5t37.5 34.5t30 43t22.5 50.5t14 57t4.5 63v23q0 98 -32 179.5t-92 139.5l92 58l-30 45l-106 -66q-29 21 -63.5 37.5t-73.5 28.5l-28 -56q29 -8 56 -20t50 -27l-83 -52zM284 55q-19 0 -37 3.5t-34.5 10.5t-31 17t-26.5 23t-21.5 28t-16.5 31.5
t-10.5 35t-3.5 38.5q0 78 52.5 132t128.5 54q19 0 36.5 -3.5t34 -10.5t30.5 -17t26.5 -22.5t22 -27.5t16.5 -31.5t10.5 -35t3.5 -38.5t-3.5 -38.5t-10.5 -35t-16.5 -31.5t-21.5 -28t-26.5 -23t-31 -17t-34 -10.5t-36.5 -3.5z" />
    <glyph glyph-name="ntilde" unicode="&#xf1;" 
d="M470 322q0 20 -3.5 38.5t-10 36t-16.5 32.5t-22.5 28t-27.5 23t-32 17t-36.5 11t-40.5 4q-50 0 -91 -21t-66 -58v69h-72v-502h72v303q0 62 40.5 102.5t102.5 40.5q59 0 95 -38.5t36 -97.5v-310h72v322zM201 691q-32 0 -55 -24.5t-36 -72.5l50 -11q10 32 20.5 44t23.5 12
q4 0 9.5 -2t11.5 -5t12.5 -7t13.5 -8.5t14 -9.5t14.5 -9t15 -7t15 -5t14.5 -2q32 0 54.5 25t35.5 72l-49 12q-10 -33 -20.5 -44.5t-23.5 -11.5q-5 0 -10 2t-11 5t-12.5 7t-13.5 8.5l-14 9t-14.5 8.5t-15 7t-15 5t-14.5 2z" />
    <glyph glyph-name="ograve" unicode="&#xf2;" horiz-adv-x="593" 
d="M561 251q0 24 -4 47t-12 44t-19.5 40.5t-26 36.5t-32 31t-37 25.5t-41 19.5t-44.5 12t-48 4t-48 -4t-45 -12t-41.5 -19.5t-36.5 -25.5t-31.5 -31t-26 -36.5t-19.5 -40.5t-12 -44t-4 -47t4 -47t12 -44t19.5 -40.5t26 -36.5t31.5 -31.5t36.5 -26t41.5 -19.5t45 -12t48 -4
t48 4t44.5 12t41 19.5t37 26t32 31.5t26 36.5t19.5 40.5t12 44t4 47zM489 251q0 -20 -4 -39.5t-11.5 -37t-18 -33.5t-23.5 -29t-28 -23.5t-32.5 -18t-36 -11.5t-38.5 -4t-38.5 4t-36 11.5t-33 18t-28.5 23.5t-23.5 29t-17.5 33.5t-11 37t-4 39.5q0 21 4 40t11 37t17.5 33.5
t23.5 29t28.5 23.5t33 17.5t36 11.5t38.5 4t38.5 -4t36 -11.5t32.5 -17.5t28 -23.5t23.5 -29t18 -33.5t11.5 -37t4 -40zM250 696h-89l118 -118h75z" />
    <glyph glyph-name="oacute" unicode="&#xf3;" horiz-adv-x="593" 
d="M561 251q0 24 -4 47t-12 44t-19.5 40.5t-26 36.5t-32 31t-37 25.5t-41 19.5t-44.5 12t-48 4t-48 -4t-45 -12t-41.5 -19.5t-36.5 -25.5t-31.5 -31t-26 -36.5t-19.5 -40.5t-12 -44t-4 -47t4 -47t12 -44t19.5 -40.5t26 -36.5t31.5 -31.5t36.5 -26t41.5 -19.5t45 -12t48 -4
t48 4t44.5 12t41 19.5t37 26t32 31.5t26 36.5t19.5 40.5t12 44t4 47zM489 251q0 -20 -4 -39.5t-11.5 -37t-18 -33.5t-23.5 -29t-28 -23.5t-32.5 -18t-36 -11.5t-38.5 -4t-38.5 4t-36 11.5t-33 18t-28.5 23.5t-23.5 29t-17.5 33.5t-11 37t-4 39.5q0 21 4 40t11 37t17.5 33.5
t23.5 29t28.5 23.5t33 17.5t36 11.5t38.5 4t38.5 -4t36 -11.5t32.5 -17.5t28 -23.5t23.5 -29t18 -33.5t11.5 -37t4 -40zM343 696l-105 -118h74l120 118h-89z" />
    <glyph glyph-name="ocircumflex" unicode="&#xf4;" horiz-adv-x="593" 
d="M561 251q0 24 -4 47t-12 44t-19.5 40.5t-26 36.5t-32 31t-37 25.5t-41 19.5t-44.5 12t-48 4t-48 -4t-45 -12t-41.5 -19.5t-36.5 -25.5t-31.5 -31t-26 -36.5t-19.5 -40.5t-12 -44t-4 -47t4 -47t12 -44t19.5 -40.5t26 -36.5t31.5 -31.5t36.5 -26t41.5 -19.5t45 -12t48 -4
t48 4t44.5 12t41 19.5t37 26t32 31.5t26 36.5t19.5 40.5t12 44t4 47zM489 251q0 -20 -4 -39.5t-11.5 -37t-18 -33.5t-23.5 -29t-28 -23.5t-32.5 -18t-36 -11.5t-38.5 -4t-38.5 4t-36 11.5t-33 18t-28.5 23.5t-23.5 29t-17.5 33.5t-11 37t-4 39.5q0 21 4 40t11 37t17.5 33.5
t23.5 29t28.5 23.5t33 17.5t36 11.5t38.5 4t38.5 -4t36 -11.5t32.5 -17.5t28 -23.5t23.5 -29t18 -33.5t11.5 -37t4 -40zM219 578l78 77l78 -77h69l-109 118h-75l-110 -118h69z" />
    <glyph glyph-name="otilde" unicode="&#xf5;" horiz-adv-x="593" 
d="M561 251q0 24 -4 47t-12 44t-19.5 40.5t-26 36.5t-32 31t-37 25.5t-41 19.5t-44.5 12t-48 4t-48 -4t-45 -12t-41.5 -19.5t-36.5 -25.5t-31.5 -31t-26 -36.5t-19.5 -40.5t-12 -44t-4 -47t4 -47t12 -44t19.5 -40.5t26 -36.5t31.5 -31.5t36.5 -26t41.5 -19.5t45 -12t48 -4
t48 4t44.5 12t41 19.5t37 26t32 31.5t26 36.5t19.5 40.5t12 44t4 47zM489 251q0 -20 -4 -39.5t-11.5 -37t-18 -33.5t-23.5 -29t-28 -23.5t-32.5 -18t-36 -11.5t-38.5 -4t-38.5 4t-36 11.5t-33 18t-28.5 23.5t-23.5 29t-17.5 33.5t-11 37t-4 39.5q0 21 4 40t11 37t17.5 33.5
t23.5 29t28.5 23.5t33 17.5t36 11.5t38.5 4t38.5 -4t36 -11.5t32.5 -17.5t28 -23.5t23.5 -29t18 -33.5t11.5 -37t4 -40zM236 691q-32 0 -55 -24.5t-36 -72.5l50 -11q10 32 20.5 44t23.5 12q4 0 9.5 -2t11.5 -5t12.5 -7t13.5 -8.5t14 -9.5t14.5 -9t15 -7t15 -5t14.5 -2
q32 0 54.5 25t35.5 72l-49 12q-10 -33 -20.5 -44.5t-23.5 -11.5q-5 0 -10 2t-11 5t-12.5 7t-13.5 8.5l-14 9t-14.5 8.5t-15 7t-15 5t-14.5 2z" />
    <glyph glyph-name="odieresis" unicode="&#xf6;" horiz-adv-x="593" 
d="M561 251q0 24 -4 47t-12 44t-19.5 40.5t-26 36.5t-32 31t-37 25.5t-41 19.5t-44.5 12t-48 4t-48 -4t-45 -12t-41.5 -19.5t-36.5 -25.5t-31.5 -31t-26 -36.5t-19.5 -40.5t-12 -44t-4 -47t4 -47t12 -44t19.5 -40.5t26 -36.5t31.5 -31.5t36.5 -26t41.5 -19.5t45 -12t48 -4
t48 4t44.5 12t41 19.5t37 26t32 31.5t26 36.5t19.5 40.5t12 44t4 47zM489 251q0 -20 -4 -39.5t-11.5 -37t-18 -33.5t-23.5 -29t-28 -23.5t-32.5 -18t-36 -11.5t-38.5 -4t-38.5 4t-36 11.5t-33 18t-28.5 23.5t-23.5 29t-17.5 33.5t-11 37t-4 39.5q0 21 4 40t11 37t17.5 33.5
t23.5 29t28.5 23.5t33 17.5t36 11.5t38.5 4t38.5 -4t36 -11.5t32.5 -17.5t28 -23.5t23.5 -29t18 -33.5t11.5 -37t4 -40zM213 591q19 0 33 14.5t14 33.5t-14 33t-33 14t-33 -14t-14 -33t14 -33.5t33 -14.5zM382 591q19 0 32.5 14.5t13.5 33.5t-13.5 33t-32.5 14t-33 -14
t-14 -33t14 -33.5t33 -14.5z" />
    <glyph glyph-name="divide" unicode="&#xf7;" horiz-adv-x="516" 
d="M258 220q-19 0 -33.5 -14.5t-14.5 -33.5q0 -20 14.5 -34.5t33.5 -14.5t33.5 14.5t14.5 34.5q0 19 -14.5 33.5t-33.5 14.5zM465 330h-414v59h414v-59zM258 585q-19 0 -33.5 -14.5t-14.5 -33.5q0 -20 14.5 -34.5t33.5 -14.5t33.5 14.5t14.5 34.5q0 19 -14.5 33.5
t-33.5 14.5z" />
    <glyph glyph-name="oslash" unicode="&#xf8;" horiz-adv-x="593" 
d="M51 0h64l31 36q31 -22 69.5 -34t81.5 -12q25 0 48 4t44.5 12t41 19.5t37 26t32 31.5t26 36.5t19.5 40.5t12 44t4 47q0 54 -20.5 101t-55.5 82l58 68h-64l-31 -37q-32 22 -70.5 34t-80.5 12q-25 0 -48 -4t-45 -12t-41.5 -19.5t-36.5 -25.5t-31.5 -31t-26 -36.5
t-19.5 -40.5t-12 -44t-4 -47q0 -54 20.5 -101t55.5 -83zM105 251q0 21 4 40t11 37t17.5 33.5t23.5 29t28.5 23.5t33 17.5t36 11.5t38.5 4q29 0 56.5 -8.5t50.5 -24.5l-250 -294q-23 26 -36 60t-13 71zM489 251q0 -20 -4 -39.5t-11.5 -37t-18 -33.5t-23.5 -29t-28 -23.5
t-32.5 -18t-36 -11.5t-38.5 -4q-30 0 -57 8.5t-50 24.5l250 294q23 -26 36 -59.5t13 -71.5z" />
    <glyph glyph-name="ugrave" unicode="&#xf9;" 
d="M52 180q0 -20 3.5 -38.5t10.5 -35.5t16.5 -32t22 -28t27.5 -23t32 -17.5t36.5 -11t40.5 -3.5q49 0 90.5 20.5t66.5 57.5v-69h72v502h-72v-303q0 -61 -40 -102t-102 -41q-59 0 -95.5 38.5t-36.5 97.5v310h-72v-322zM215 696h-89l118 -118h75z" />
    <glyph glyph-name="uacute" unicode="&#xfa;" 
d="M52 180q0 -20 3.5 -38.5t10.5 -35.5t16.5 -32t22 -28t27.5 -23t32 -17.5t36.5 -11t40.5 -3.5q49 0 90.5 20.5t66.5 57.5v-69h72v502h-72v-303q0 -61 -40 -102t-102 -41q-59 0 -95.5 38.5t-36.5 97.5v310h-72v-322zM308 696l-105 -118h74l120 118h-89z" />
    <glyph glyph-name="ucircumflex" unicode="&#xfb;" 
d="M52 180q0 -20 3.5 -38.5t10.5 -35.5t16.5 -32t22 -28t27.5 -23t32 -17.5t36.5 -11t40.5 -3.5q49 0 90.5 20.5t66.5 57.5v-69h72v502h-72v-303q0 -61 -40 -102t-102 -41q-59 0 -95.5 38.5t-36.5 97.5v310h-72v-322zM184 578l78 77l78 -77h69l-109 118h-75l-110 -118h69z
" />
    <glyph glyph-name="udieresis" unicode="&#xfc;" 
d="M52 180q0 -20 3.5 -38.5t10.5 -35.5t16.5 -32t22 -28t27.5 -23t32 -17.5t36.5 -11t40.5 -3.5q49 0 90.5 20.5t66.5 57.5v-69h72v502h-72v-303q0 -61 -40 -102t-102 -41q-59 0 -95.5 38.5t-36.5 97.5v310h-72v-322zM178 591q19 0 33 14.5t14 33.5t-14 33t-33 14t-33 -14
t-14 -33t14 -33.5t33 -14.5zM347 591q19 0 32.5 14.5t13.5 33.5t-13.5 33t-32.5 14t-33 -14t-14 -33t14 -33.5t33 -14.5z" />
    <glyph glyph-name="yacute" unicode="&#xfd;" horiz-adv-x="468" 
d="M166 -71q-12 -30 -30.5 -44t-49.5 -14h-45v-64h58q52 0 82 26.5t51 77.5l241 591h-75l-162 -401l-164 401h-77l205 -490zM281 696l-105 -118h74l120 118h-89z" />
    <glyph glyph-name="thorn" unicode="&#xfe;" horiz-adv-x="614" 
d="M52 700v-893h72v278q34 -43 85 -68.5t111 -25.5q24 0 47 4t44.5 12t40.5 19t36.5 25.5t31.5 31.5t25.5 36t19.5 40.5t12 44.5t4 47t-4 47t-12 44.5t-19 41t-25.5 36.5t-31.5 31.5t-36.5 25.5t-41 19t-44.5 12t-47 4q-60 0 -111 -25t-85 -68v281h-72zM123 251q0 20 4 39.5
t11 37t17.5 33.5t23.5 29.5t28.5 24t33 18t36.5 11.5t39 4t39 -4t36.5 -11.5t33 -18t28.5 -24t23.5 -29.5t17.5 -33.5t11 -37t4 -39.5t-4 -39.5t-11 -37t-17.5 -33.5t-23.5 -29t-28.5 -23.5t-33 -18t-36.5 -11.5t-39 -4t-39 4t-36 11.5t-32.5 18t-28.5 23.5t-23.5 29
t-18 33.5t-11.5 37t-4 39.5z" />
    <glyph glyph-name="ydieresis" unicode="&#xff;" horiz-adv-x="468" 
d="M166 -71q-12 -30 -30.5 -44t-49.5 -14h-45v-64h58q52 0 82 26.5t51 77.5l241 591h-75l-162 -401l-164 401h-77l205 -490zM151 591q19 0 33 14.5t14 33.5t-14 33t-33 14t-33 -14t-14 -33t14 -33.5t33 -14.5zM320 591q19 0 32.5 14.5t13.5 33.5t-13.5 33t-32.5 14t-33 -14
t-14 -33t14 -33.5t33 -14.5z" />
    <glyph glyph-name="Amacron" unicode="&#x100;" horiz-adv-x="668" 
d="M371 700h-74l-299 -700h79l82 197h347l83 -197h80zM187 264l146 347l145 -347h-291zM460 856h-252v-53h252v53z" />
    <glyph glyph-name="amacron" unicode="&#x101;" horiz-adv-x="493" 
d="M26 138q0 -66 48.5 -107t120.5 -41q51 0 92.5 21.5t66.5 57.5q4 -31 27.5 -50t59.5 -19h39v64h-25q-15 0 -23.5 8t-8.5 22v256q0 73 -48 116.5t-129 43.5q-54 0 -99 -16t-83 -50l38 -52q30 27 63.5 40t71.5 13q54 0 84.5 -28t30.5 -77v-47l-165 -11q-76 -5 -118.5 -43
t-42.5 -101zM96 138q0 37 26.5 59.5t75.5 26.5l154 11v-51q0 -55 -42.5 -94.5t-103.5 -39.5q-48 0 -79 25t-31 63zM366 658h-252v-53h252v53z" />
    <glyph glyph-name="Abreve" unicode="&#x102;" horiz-adv-x="668" 
d="M371 700h-74l-299 -700h79l82 197h347l83 -197h80zM187 264l146 347l145 -347h-291zM335 823q-27 0 -53 15t-39 61l-52 -16q13 -54 53.5 -82.5t90.5 -28.5t90.5 29t53.5 82l-52 16q-13 -46 -39.5 -61t-52.5 -15z" />
    <glyph glyph-name="abreve" unicode="&#x103;" horiz-adv-x="493" 
d="M26 138q0 -66 48.5 -107t120.5 -41q51 0 92.5 21.5t66.5 57.5q4 -31 27.5 -50t59.5 -19h39v64h-25q-15 0 -23.5 8t-8.5 22v256q0 73 -48 116.5t-129 43.5q-54 0 -99 -16t-83 -50l38 -52q30 27 63.5 40t71.5 13q54 0 84.5 -28t30.5 -77v-47l-165 -11q-76 -5 -118.5 -43
t-42.5 -101zM96 138q0 37 26.5 59.5t75.5 26.5l154 11v-51q0 -55 -42.5 -94.5t-103.5 -39.5q-48 0 -79 25t-31 63zM240 625q-27 0 -53 15t-39 61l-52 -16q13 -54 53.5 -82.5t90.5 -28.5t90.5 29t53.5 82l-52 16q-13 -46 -39.5 -61t-52.5 -15z" />
    <glyph glyph-name="Aogonek" unicode="&#x104;" horiz-adv-x="668" 
d="M371 700h-74l-299 -700h79l82 197h347l83 -197h80zM187 264l146 347l145 -347h-291zM669 0l-33 19q-58 -49 -78 -85t-20 -71q0 -36 23.5 -60t70.5 -24q14 0 27 2t24 5l-7 44q-8 -3 -17.5 -4t-19.5 -1q-23 0 -36.5 13t-13.5 37q0 23 15 52.5t65 72.5z" />
    <glyph glyph-name="aogonek" unicode="&#x105;" horiz-adv-x="493" 
d="M26 138q0 -66 48.5 -107t120.5 -41q51 0 92.5 21.5t66.5 57.5q4 -28 23 -46t49 -22q-46 -42 -61.5 -74t-15.5 -64q0 -36 23.5 -60t70.5 -24q14 0 27 2t24 5l-7 44q-8 -3 -17.5 -4t-19.5 -1q-23 0 -36.5 13t-13.5 37q0 23 15 52.5t65 72.5v64h-25q-15 0 -23.5 8t-8.5 22
v256q0 73 -48 116.5t-129 43.5q-54 0 -99 -16t-83 -50l38 -52q30 27 63.5 40t71.5 13q54 0 84.5 -28t30.5 -77v-47l-165 -11q-76 -5 -118.5 -43t-42.5 -101zM96 138q0 37 26.5 59.5t75.5 26.5l154 11v-51q0 -55 -42.5 -94.5t-103.5 -39.5q-48 0 -79 25t-31 63z" />
    <glyph glyph-name="Cacute" unicode="&#x106;" horiz-adv-x="732" 
d="M33 350q0 -30 4.5 -59t13.5 -56t22 -52t29.5 -47.5t36.5 -42t42.5 -35.5t48 -29t53 -22t57 -13.5t60.5 -4.5q98 0 178 46t128 120l-61 38q-39 -61 -103.5 -98t-142.5 -37q-27 0 -52.5 4.5t-49 13t-45 21t-40.5 28.5t-35 35t-28.5 40.5t-21.5 45.5t-13.5 50t-4.5 54
q0 27 4.5 53t13.5 50t21.5 45.5t28.5 40.5t35 35t40.5 28.5t45 21.5t49 13.5t52.5 4.5q76 0 141 -37.5t104 -98.5l61 40q-49 74 -129.5 119.5t-176.5 45.5q-31 0 -60.5 -4.5t-57 -13.5t-52.5 -22t-47.5 -29.5t-42.5 -36t-36.5 -42t-29.5 -47.5t-22 -52t-13.5 -55.5
t-4.5 -58.5zM444 894l-105 -118h74l120 118h-89z" />
    <glyph glyph-name="cacute" unicode="&#x107;" horiz-adv-x="524" 
d="M105 251q0 21 4 40t11 37t17.5 33.5t23.5 29t28.5 23.5t33 17.5t36 11.5t38.5 4q48 0 89 -22.5t68 -59.5l54 39q-36 49 -90 78t-121 29q-25 0 -48.5 -4t-45 -12t-41 -19.5t-37 -25.5t-31.5 -31t-25.5 -36.5t-19.5 -40.5t-12 -44t-4 -47t4 -47t12 -44t19.5 -40.5
t25.5 -36.5t31.5 -31.5t37 -26t41 -19.5t45 -12t48.5 -4q67 0 121 29.5t90 78.5l-54 38q-27 -37 -68 -59.5t-89 -22.5q-20 0 -38.5 4t-36 11.5t-33 18t-28.5 24t-23.5 29t-17.5 33.5t-11 37t-4 40zM343 696l-105 -118h74l120 118h-89z" />
    <glyph glyph-name="Ccircumflex" unicode="&#x108;" horiz-adv-x="732" 
d="M33 350q0 -30 4.5 -59t13.5 -56t22 -52t29.5 -47.5t36.5 -42t42.5 -35.5t48 -29t53 -22t57 -13.5t60.5 -4.5q98 0 178 46t128 120l-61 38q-39 -61 -103.5 -98t-142.5 -37q-27 0 -52.5 4.5t-49 13t-45 21t-40.5 28.5t-35 35t-28.5 40.5t-21.5 45.5t-13.5 50t-4.5 54
q0 27 4.5 53t13.5 50t21.5 45.5t28.5 40.5t35 35t40.5 28.5t45 21.5t49 13.5t52.5 4.5q76 0 141 -37.5t104 -98.5l61 40q-49 74 -129.5 119.5t-176.5 45.5q-31 0 -60.5 -4.5t-57 -13.5t-52.5 -22t-47.5 -29.5t-42.5 -36t-36.5 -42t-29.5 -47.5t-22 -52t-13.5 -55.5
t-4.5 -58.5zM320 776l78 77l78 -77h69l-109 118h-75l-110 -118h69z" />
    <glyph glyph-name="ccircumflex" unicode="&#x109;" horiz-adv-x="524" 
d="M105 251q0 21 4 40t11 37t17.5 33.5t23.5 29t28.5 23.5t33 17.5t36 11.5t38.5 4q48 0 89 -22.5t68 -59.5l54 39q-36 49 -90 78t-121 29q-25 0 -48.5 -4t-45 -12t-41 -19.5t-37 -25.5t-31.5 -31t-25.5 -36.5t-19.5 -40.5t-12 -44t-4 -47t4 -47t12 -44t19.5 -40.5
t25.5 -36.5t31.5 -31.5t37 -26t41 -19.5t45 -12t48.5 -4q67 0 121 29.5t90 78.5l-54 38q-27 -37 -68 -59.5t-89 -22.5q-20 0 -38.5 4t-36 11.5t-33 18t-28.5 24t-23.5 29t-17.5 33.5t-11 37t-4 40zM219 578l78 77l78 -77h69l-109 118h-75l-110 -118h69z" />
    <glyph glyph-name="Cdotaccent" unicode="&#x10a;" horiz-adv-x="732" 
d="M33 350q0 -30 4.5 -59t13.5 -56t22 -52t29.5 -47.5t36.5 -42t42.5 -35.5t48 -29t53 -22t57 -13.5t60.5 -4.5q98 0 178 46t128 120l-61 38q-39 -61 -103.5 -98t-142.5 -37q-27 0 -52.5 4.5t-49 13t-45 21t-40.5 28.5t-35 35t-28.5 40.5t-21.5 45.5t-13.5 50t-4.5 54
q0 27 4.5 53t13.5 50t21.5 45.5t28.5 40.5t35 35t40.5 28.5t45 21.5t49 13.5t52.5 4.5q76 0 141 -37.5t104 -98.5l61 40q-49 74 -129.5 119.5t-176.5 45.5q-31 0 -60.5 -4.5t-57 -13.5t-52.5 -22t-47.5 -29.5t-42.5 -36t-36.5 -42t-29.5 -47.5t-22 -52t-13.5 -55.5
t-4.5 -58.5zM398 789q19 0 32.5 14.5t13.5 33.5t-13.5 33t-32.5 14t-33 -14t-14 -33t14 -33.5t33 -14.5z" />
    <glyph glyph-name="cdotaccent" unicode="&#x10b;" horiz-adv-x="524" 
d="M105 251q0 21 4 40t11 37t17.5 33.5t23.5 29t28.5 23.5t33 17.5t36 11.5t38.5 4q48 0 89 -22.5t68 -59.5l54 39q-36 49 -90 78t-121 29q-25 0 -48.5 -4t-45 -12t-41 -19.5t-37 -25.5t-31.5 -31t-25.5 -36.5t-19.5 -40.5t-12 -44t-4 -47t4 -47t12 -44t19.5 -40.5
t25.5 -36.5t31.5 -31.5t37 -26t41 -19.5t45 -12t48.5 -4q67 0 121 29.5t90 78.5l-54 38q-27 -37 -68 -59.5t-89 -22.5q-20 0 -38.5 4t-36 11.5t-33 18t-28.5 24t-23.5 29t-17.5 33.5t-11 37t-4 40zM297 591q19 0 32.5 14.5t13.5 33.5t-13.5 33t-32.5 14t-33 -14t-14 -33
t14 -33.5t33 -14.5z" />
    <glyph glyph-name="Ccaron" unicode="&#x10c;" horiz-adv-x="732" 
d="M33 350q0 -30 4.5 -59t13.5 -56t22 -52t29.5 -47.5t36.5 -42t42.5 -35.5t48 -29t53 -22t57 -13.5t60.5 -4.5q98 0 178 46t128 120l-61 38q-39 -61 -103.5 -98t-142.5 -37q-27 0 -52.5 4.5t-49 13t-45 21t-40.5 28.5t-35 35t-28.5 40.5t-21.5 45.5t-13.5 50t-4.5 54
q0 27 4.5 53t13.5 50t21.5 45.5t28.5 40.5t35 35t40.5 28.5t45 21.5t49 13.5t52.5 4.5q76 0 141 -37.5t104 -98.5l61 40q-49 74 -129.5 119.5t-176.5 45.5q-31 0 -60.5 -4.5t-57 -13.5t-52.5 -22t-47.5 -29.5t-42.5 -36t-36.5 -42t-29.5 -47.5t-22 -52t-13.5 -55.5
t-4.5 -58.5zM477 894l-79 -77l-78 77h-69l111 -118h72l111 118h-68z" />
    <glyph glyph-name="ccaron" unicode="&#x10d;" horiz-adv-x="524" 
d="M105 251q0 21 4 40t11 37t17.5 33.5t23.5 29t28.5 23.5t33 17.5t36 11.5t38.5 4q48 0 89 -22.5t68 -59.5l54 39q-36 49 -90 78t-121 29q-25 0 -48.5 -4t-45 -12t-41 -19.5t-37 -25.5t-31.5 -31t-25.5 -36.5t-19.5 -40.5t-12 -44t-4 -47t4 -47t12 -44t19.5 -40.5
t25.5 -36.5t31.5 -31.5t37 -26t41 -19.5t45 -12t48.5 -4q67 0 121 29.5t90 78.5l-54 38q-27 -37 -68 -59.5t-89 -22.5q-20 0 -38.5 4t-36 11.5t-33 18t-28.5 24t-23.5 29t-17.5 33.5t-11 37t-4 40zM376 696l-79 -77l-78 77h-69l111 -118h72l111 118h-68z" />
    <glyph glyph-name="Dcaron" unicode="&#x10e;" horiz-adv-x="703" 
d="M670 349q0 29 -4.5 57t-13.5 54.5t-21.5 50.5t-28.5 46t-35.5 41t-41.5 35t-46.5 28.5t-51 21t-54.5 13t-58 4.5h-258v-700h258q30 0 58 4.5t54.5 13t51 21t46.5 28.5t41.5 35t35.5 40.5t28.5 45.5t21.5 50t13.5 54t4.5 57zM311 634q26 0 51 -4.5t48 -13t44 -21
t39.5 -28.5t34 -34.5t28 -39.5t21 -44.5t13 -48.5t4.5 -51t-4.5 -51t-13 -48t-21 -44t-28 -39.5t-34 -34t-39.5 -28t-44 -21t-48 -13t-51 -4.5h-179v568h179zM433 894l-79 -77l-78 77h-69l111 -118h72l111 118h-68z" />
    <glyph glyph-name="dcaron" unicode="&#x10f;" horiz-adv-x="701" 
d="M561 0v700h-72v-282q-34 43 -84.5 68t-110.5 25q-24 0 -47 -4t-44.5 -12t-41 -19t-36.5 -25.5t-31.5 -31.5t-25.5 -36t-19 -40.5t-12 -44.5t-4 -47t4 -47t12 -44.5t19 -41t25.5 -36.5t31.5 -31.5t36.5 -25.5t41 -19t44.5 -12t47 -4q60 0 110.5 24.5t84.5 67.5v-82h72z
M490 251q0 -20 -4 -39.5t-11 -37t-17.5 -33.5t-23.5 -29.5t-28.5 -24t-32.5 -18t-36 -11.5t-39 -4t-39 4t-36.5 11.5t-33 18t-28.5 24t-23.5 29t-17.5 33.5t-11 37t-4 40q0 20 4 39.5t11 37t17.5 33.5t23.5 29t28.5 23.5t33 18t36.5 11.5t39 4t38.5 -4t36 -11.5t33 -18
t28.5 -23.5t23.5 -29t17.5 -33.5t11 -37t4 -39.5zM616 520h55l38 180h-72z" />
    <glyph glyph-name="Dcroat" unicode="&#x110;" horiz-adv-x="722" 
d="M5 315h71v-315h257q30 0 58 4.5t54.5 13t51 21t47 28.5t41.5 35t35.5 40.5t29 45.5t21.5 50t13.5 54t4.5 57t-4.5 57t-13.5 54.5t-21.5 50.5t-29 46t-35.5 41t-41.5 35t-47 28.5t-51 21t-54.5 13t-58 4.5h-257v-320h-71v-65zM330 634q26 0 51 -4.5t48 -13t44 -21
t39.5 -28.5t34 -34.5t28 -39.5t21 -44.5t13 -48.5t4.5 -51t-4.5 -51t-13 -48t-21 -44t-28 -39.5t-34 -34t-39.5 -28t-44 -21t-48 -13t-51 -4.5h-179v249h180v65h-180v254h179z" />
    <glyph glyph-name="dcroat" unicode="&#x111;" horiz-adv-x="624" 
d="M561 0v571h68v55h-68v74h-72v-74h-142v-55h142v-153q-34 43 -84.5 68t-110.5 25q-24 0 -47 -4t-44.5 -12t-41 -19t-36.5 -25.5t-31.5 -31.5t-25.5 -36t-19 -40.5t-12 -44.5t-4 -47t4 -47t12 -44.5t19 -41t25.5 -36.5t31.5 -31.5t36.5 -25.5t41 -19t44.5 -12t47 -4
q60 0 110.5 24.5t84.5 67.5v-82h72zM490 251q0 -20 -4 -39.5t-11 -37t-17.5 -33.5t-23.5 -29.5t-28.5 -24t-32.5 -18t-36 -11.5t-39 -4t-39 4t-36.5 11.5t-33 18t-28.5 24t-23.5 29t-17.5 33.5t-11 37t-4 40q0 20 4 39.5t11 37t17.5 33.5t23.5 29t28.5 23.5t33 18t36.5 11.5
t39 4t38.5 -4t36 -11.5t33 -18t28.5 -23.5t23.5 -29t17.5 -33.5t11 -37t4 -39.5z" />
    <glyph glyph-name="Emacron" unicode="&#x112;" horiz-adv-x="504" 
d="M57 0h408v66h-333v252h323v66h-323v250h333v66h-408v-700zM397 856h-252v-53h252v53z" />
    <glyph glyph-name="emacron" unicode="&#x113;" horiz-adv-x="567" 
d="M33 251q0 -24 4 -47t12 -44.5t19.5 -41t25.5 -36t31.5 -31t37 -25.5t41 -19t44.5 -12t48 -4q66 0 121 29t91 78l-54 38q-28 -39 -69 -60.5t-90 -21.5q-74 0 -128 50.5t-62 124.5h429v28q0 24 -4 46.5t-11 43.5t-17.5 39.5t-24 35t-29.5 30.5t-34 25t-38.5 18.5
t-42.5 11.5t-45 4q-24 0 -46.5 -4t-43.5 -12t-40 -19.5t-35.5 -26t-30.5 -31.5t-25 -36t-18.5 -40.5t-11.5 -44t-4 -46.5zM288 448q65 0 114.5 -45t59.5 -114h-355q12 69 63 114t118 45zM415 658h-252v-53h252v53z" />
    <glyph glyph-name="Ebreve" unicode="&#x114;" horiz-adv-x="504" 
d="M57 0h408v66h-333v252h323v66h-323v250h333v66h-408v-700zM271 823q-27 0 -53 15t-39 61l-52 -16q13 -54 53.5 -82.5t90.5 -28.5t90.5 29t53.5 82l-52 16q-13 -46 -39.5 -61t-52.5 -15z" />
    <glyph glyph-name="ebreve" unicode="&#x115;" horiz-adv-x="567" 
d="M33 251q0 -24 4 -47t12 -44.5t19.5 -41t25.5 -36t31.5 -31t37 -25.5t41 -19t44.5 -12t48 -4q66 0 121 29t91 78l-54 38q-28 -39 -69 -60.5t-90 -21.5q-74 0 -128 50.5t-62 124.5h429v28q0 24 -4 46.5t-11 43.5t-17.5 39.5t-24 35t-29.5 30.5t-34 25t-38.5 18.5
t-42.5 11.5t-45 4q-24 0 -46.5 -4t-43.5 -12t-40 -19.5t-35.5 -26t-30.5 -31.5t-25 -36t-18.5 -40.5t-11.5 -44t-4 -46.5zM288 448q65 0 114.5 -45t59.5 -114h-355q12 69 63 114t118 45zM289 625q-27 0 -53 15t-39 61l-52 -16q13 -54 53.5 -82.5t90.5 -28.5t90.5 29t53.5 82
l-52 16q-13 -46 -39.5 -61t-52.5 -15z" />
    <glyph glyph-name="Edotaccent" unicode="&#x116;" horiz-adv-x="504" 
d="M57 0h408v66h-333v252h323v66h-323v250h333v66h-408v-700zM271 789q19 0 32.5 14.5t13.5 33.5t-13.5 33t-32.5 14t-33 -14t-14 -33t14 -33.5t33 -14.5z" />
    <glyph glyph-name="edotaccent" unicode="&#x117;" horiz-adv-x="567" 
d="M33 251q0 -24 4 -47t12 -44.5t19.5 -41t25.5 -36t31.5 -31t37 -25.5t41 -19t44.5 -12t48 -4q66 0 121 29t91 78l-54 38q-28 -39 -69 -60.5t-90 -21.5q-74 0 -128 50.5t-62 124.5h429v28q0 24 -4 46.5t-11 43.5t-17.5 39.5t-24 35t-29.5 30.5t-34 25t-38.5 18.5
t-42.5 11.5t-45 4q-24 0 -46.5 -4t-43.5 -12t-40 -19.5t-35.5 -26t-30.5 -31.5t-25 -36t-18.5 -40.5t-11.5 -44t-4 -46.5zM288 448q65 0 114.5 -45t59.5 -114h-355q12 69 63 114t118 45zM289 591q19 0 32.5 14.5t13.5 33.5t-13.5 33t-32.5 14t-33 -14t-14 -33t14 -33.5
t33 -14.5z" />
    <glyph glyph-name="Eogonek" unicode="&#x118;" horiz-adv-x="504" 
d="M57 0h408v66h-333v252h323v66h-323v250h333v66h-408v-700zM465 0l-33 19q-58 -49 -78 -85t-20 -71q0 -36 23.5 -60t70.5 -24q14 0 27 2t24 5l-7 44q-8 -3 -17.5 -4t-19.5 -1q-23 0 -36.5 13t-13.5 37q0 23 15 52.5t65 72.5z" />
    <glyph glyph-name="eogonek" unicode="&#x119;" horiz-adv-x="567" 
d="M33 251q0 -24 4 -47t12 -44.5t19.5 -41t25.5 -36t31.5 -31t37 -25.5t41 -19t44.5 -12t48 -4h8q-39 -38 -53 -68t-14 -60q0 -36 23.5 -60t70.5 -24q14 0 27 2t24 5l-7 44q-8 -3 -17.5 -4t-19.5 -1q-23 0 -36.5 13t-13.5 37q0 23 15 52.5t65 72.5h-1q43 12 79.5 37.5
t61.5 60.5l-54 38q-28 -39 -69 -60.5t-90 -21.5q-74 0 -128 50.5t-62 124.5h429v28q0 24 -4 46.5t-11 43.5t-17.5 39.5t-24 35t-29.5 30.5t-34 25t-38.5 18.5t-42.5 11.5t-45 4q-24 0 -46.5 -4t-43.5 -12t-40 -19.5t-35.5 -26t-30.5 -31.5t-25 -36t-18.5 -40.5t-11.5 -44
t-4 -46.5zM288 448q65 0 114.5 -45t59.5 -114h-355q12 69 63 114t118 45z" />
    <glyph glyph-name="Ecaron" unicode="&#x11a;" horiz-adv-x="504" 
d="M57 0h408v66h-333v252h323v66h-323v250h333v66h-408v-700zM350 894l-79 -77l-78 77h-69l111 -118h72l111 118h-68z" />
    <glyph glyph-name="ecaron" unicode="&#x11b;" horiz-adv-x="567" 
d="M33 251q0 -24 4 -47t12 -44.5t19.5 -41t25.5 -36t31.5 -31t37 -25.5t41 -19t44.5 -12t48 -4q66 0 121 29t91 78l-54 38q-28 -39 -69 -60.5t-90 -21.5q-74 0 -128 50.5t-62 124.5h429v28q0 24 -4 46.5t-11 43.5t-17.5 39.5t-24 35t-29.5 30.5t-34 25t-38.5 18.5
t-42.5 11.5t-45 4q-24 0 -46.5 -4t-43.5 -12t-40 -19.5t-35.5 -26t-30.5 -31.5t-25 -36t-18.5 -40.5t-11.5 -44t-4 -46.5zM288 448q65 0 114.5 -45t59.5 -114h-355q12 69 63 114t118 45zM368 696l-79 -77l-78 77h-69l111 -118h72l111 118h-68z" />
    <glyph glyph-name="Gcircumflex" unicode="&#x11c;" horiz-adv-x="767" 
d="M33 350q0 -30 4.5 -59t13 -56t21 -52t28.5 -47.5t35.5 -42t41.5 -35.5t46.5 -29t51 -22t55 -13.5t58.5 -4.5q80 0 147.5 37.5t106.5 98.5v-125h72v360h-338v-66h266q0 -22 -4 -43t-11.5 -40.5t-18 -37t-24 -33t-30 -28.5t-35 -23t-39 -17.5t-43 -11t-46.5 -3.5
q-26 0 -51 4.5t-48 13t-44 21t-39.5 28.5t-34 35t-27.5 41t-20.5 46t-13 50t-4.5 54t4.5 54t13 50t21 45.5t28 40.5t34.5 35t40 28.5t44 21t48 13t51 4.5q78 0 144.5 -37.5t104.5 -98.5l61 40q-49 74 -130 119.5t-180 45.5q-30 0 -59 -4.5t-56 -13.5t-51.5 -22t-47 -29.5
t-42 -36t-35.5 -42t-29 -47t-22 -51.5t-13.5 -56t-4.5 -59zM325 776l78 77l78 -77h69l-109 118h-75l-110 -118h69z" />
    <glyph glyph-name="gcircumflex" unicode="&#x11d;" horiz-adv-x="608" 
d="M555 502h-71v-83q-34 43 -84 68t-109 25q-24 0 -47 -4t-44 -12t-40 -19t-36 -25t-31.5 -31t-25.5 -36t-19 -40.5t-12 -44t-4 -46.5t4 -47t12 -44t19 -40.5t25 -36.5t31 -31t36.5 -25t40.5 -19t44 -12t47 -4q59 0 108.5 24.5t83.5 66.5v-92q0 -61 -30.5 -92t-93.5 -31h-96
v-64h111q84 0 132.5 48.5t48.5 132.5v514zM104 254q0 20 4 39t11 36.5t17.5 33t23.5 28.5t28 23.5t32 18t35.5 11.5t38.5 4t38.5 -4t35.5 -11.5t32.5 -18t28.5 -23.5t23.5 -28.5t17.5 -33t11 -36.5t4 -39t-4 -39t-11 -37t-17.5 -33.5t-23.5 -28.5t-28 -23.5t-32.5 -18
t-36 -11.5t-38.5 -4t-38.5 4t-36 11t-32.5 17.5t-28 24t-23 29t-17 33t-11 37t-4 39.5zM216 578l78 77l78 -77h69l-109 118h-75l-110 -118h69z" />
    <glyph glyph-name="Gbreve" unicode="&#x11e;" horiz-adv-x="767" 
d="M33 350q0 -30 4.5 -59t13 -56t21 -52t28.5 -47.5t35.5 -42t41.5 -35.5t46.5 -29t51 -22t55 -13.5t58.5 -4.5q80 0 147.5 37.5t106.5 98.5v-125h72v360h-338v-66h266q0 -22 -4 -43t-11.5 -40.5t-18 -37t-24 -33t-30 -28.5t-35 -23t-39 -17.5t-43 -11t-46.5 -3.5
q-26 0 -51 4.5t-48 13t-44 21t-39.5 28.5t-34 35t-27.5 41t-20.5 46t-13 50t-4.5 54t4.5 54t13 50t21 45.5t28 40.5t34.5 35t40 28.5t44 21t48 13t51 4.5q78 0 144.5 -37.5t104.5 -98.5l61 40q-49 74 -130 119.5t-180 45.5q-30 0 -59 -4.5t-56 -13.5t-51.5 -22t-47 -29.5
t-42 -36t-35.5 -42t-29 -47t-22 -51.5t-13.5 -56t-4.5 -59zM403 823q-27 0 -53 15t-39 61l-52 -16q13 -54 53.5 -82.5t90.5 -28.5t90.5 29t53.5 82l-52 16q-13 -46 -39.5 -61t-52.5 -15z" />
    <glyph glyph-name="gbreve" unicode="&#x11f;" horiz-adv-x="608" 
d="M555 502h-71v-83q-34 43 -84 68t-109 25q-24 0 -47 -4t-44 -12t-40 -19t-36 -25t-31.5 -31t-25.5 -36t-19 -40.5t-12 -44t-4 -46.5t4 -47t12 -44t19 -40.5t25 -36.5t31 -31t36.5 -25t40.5 -19t44 -12t47 -4q59 0 108.5 24.5t83.5 66.5v-92q0 -61 -30.5 -92t-93.5 -31h-96
v-64h111q84 0 132.5 48.5t48.5 132.5v514zM104 254q0 20 4 39t11 36.5t17.5 33t23.5 28.5t28 23.5t32 18t35.5 11.5t38.5 4t38.5 -4t35.5 -11.5t32.5 -18t28.5 -23.5t23.5 -28.5t17.5 -33t11 -36.5t4 -39t-4 -39t-11 -37t-17.5 -33.5t-23.5 -28.5t-28 -23.5t-32.5 -18
t-36 -11.5t-38.5 -4t-38.5 4t-36 11t-32.5 17.5t-28 24t-23 29t-17 33t-11 37t-4 39.5zM294 625q-27 0 -53 15t-39 61l-52 -16q13 -54 53.5 -82.5t90.5 -28.5t90.5 29t53.5 82l-52 16q-13 -46 -39.5 -61t-52.5 -15z" />
    <glyph glyph-name="Gdotaccent" unicode="&#x120;" horiz-adv-x="767" 
d="M33 350q0 -30 4.5 -59t13 -56t21 -52t28.5 -47.5t35.5 -42t41.5 -35.5t46.5 -29t51 -22t55 -13.5t58.5 -4.5q80 0 147.5 37.5t106.5 98.5v-125h72v360h-338v-66h266q0 -22 -4 -43t-11.5 -40.5t-18 -37t-24 -33t-30 -28.5t-35 -23t-39 -17.5t-43 -11t-46.5 -3.5
q-26 0 -51 4.5t-48 13t-44 21t-39.5 28.5t-34 35t-27.5 41t-20.5 46t-13 50t-4.5 54t4.5 54t13 50t21 45.5t28 40.5t34.5 35t40 28.5t44 21t48 13t51 4.5q78 0 144.5 -37.5t104.5 -98.5l61 40q-49 74 -130 119.5t-180 45.5q-30 0 -59 -4.5t-56 -13.5t-51.5 -22t-47 -29.5
t-42 -36t-35.5 -42t-29 -47t-22 -51.5t-13.5 -56t-4.5 -59zM403 789q19 0 32.5 14.5t13.5 33.5t-13.5 33t-32.5 14t-33 -14t-14 -33t14 -33.5t33 -14.5z" />
    <glyph glyph-name="gdotaccent" unicode="&#x121;" horiz-adv-x="608" 
d="M555 502h-71v-83q-34 43 -84 68t-109 25q-24 0 -47 -4t-44 -12t-40 -19t-36 -25t-31.5 -31t-25.5 -36t-19 -40.5t-12 -44t-4 -46.5t4 -47t12 -44t19 -40.5t25 -36.5t31 -31t36.5 -25t40.5 -19t44 -12t47 -4q59 0 108.5 24.5t83.5 66.5v-92q0 -61 -30.5 -92t-93.5 -31h-96
v-64h111q84 0 132.5 48.5t48.5 132.5v514zM104 254q0 20 4 39t11 36.5t17.5 33t23.5 28.5t28 23.5t32 18t35.5 11.5t38.5 4t38.5 -4t35.5 -11.5t32.5 -18t28.5 -23.5t23.5 -28.5t17.5 -33t11 -36.5t4 -39t-4 -39t-11 -37t-17.5 -33.5t-23.5 -28.5t-28 -23.5t-32.5 -18
t-36 -11.5t-38.5 -4t-38.5 4t-36 11t-32.5 17.5t-28 24t-23 29t-17 33t-11 37t-4 39.5zM294 591q19 0 32.5 14.5t13.5 33.5t-13.5 33t-32.5 14t-33 -14t-14 -33t14 -33.5t33 -14.5z" />
    <glyph glyph-name="uni0122" unicode="&#x122;" horiz-adv-x="767" 
d="M33 350q0 -30 4.5 -59t13 -56t21 -52t28.5 -47.5t35.5 -42t41.5 -35.5t46.5 -29t51 -22t55 -13.5t58.5 -4.5q80 0 147.5 37.5t106.5 98.5v-125h72v360h-338v-66h266q0 -22 -4 -43t-11.5 -40.5t-18 -37t-24 -33t-30 -28.5t-35 -23t-39 -17.5t-43 -11t-46.5 -3.5
q-26 0 -51 4.5t-48 13t-44 21t-39.5 28.5t-34 35t-27.5 41t-20.5 46t-13 50t-4.5 54t4.5 54t13 50t21 45.5t28 40.5t34.5 35t40 28.5t44 21t48 13t51 4.5q78 0 144.5 -37.5t104.5 -98.5l61 40q-49 74 -130 119.5t-180 45.5q-30 0 -59 -4.5t-56 -13.5t-51.5 -22t-47 -29.5
t-42 -36t-35.5 -42t-29 -47t-22 -51.5t-13.5 -56t-4.5 -59zM343 -201v-33q44 5 69.5 36t25.5 70q0 31 -13.5 48.5t-35.5 17.5q-16 0 -28 -11.5t-12 -27.5q0 -6 1.5 -11t4 -9t6 -7t7.5 -5.5t7.5 -4.5t7 -4.5t6 -4.5t4 -5t1.5 -6q0 -13 -14.5 -26.5t-36.5 -16.5z" />
    <glyph glyph-name="uni0123" unicode="&#x123;" horiz-adv-x="611" 
d="M339 718v33q-44 -5 -69.5 -36t-25.5 -70q0 -31 13.5 -48.5t35.5 -17.5q16 0 28 11.5t12 27.5q0 6 -1.5 11t-4 9t-6 7t-7 5.5t-7.5 4.5t-7.5 4.5t-6 4.5t-4 5t-1.5 6q0 13 14.5 26.5t36.5 16.5zM555 502h-71v-83q-34 43 -84 68t-109 25q-24 0 -47 -4t-44 -12t-40 -19
t-36 -25t-31.5 -31t-25.5 -36t-19 -40.5t-12 -44t-4 -46.5t4 -47t12 -44t19 -40.5t25 -36.5t31 -31t36.5 -25t40.5 -19t44 -12t47 -4q59 0 108.5 24.5t83.5 66.5v-92q0 -61 -30.5 -92t-93.5 -31h-96v-64h111q84 0 132.5 48.5t48.5 132.5v514zM104 254q0 20 4 39t11 36.5
t17.5 33t23.5 28.5t28 23.5t32 18t35.5 11.5t38.5 4t38.5 -4t35.5 -11.5t32.5 -18t28.5 -23.5t23.5 -28.5t17.5 -33t11 -36.5t4 -39t-4 -39t-11 -37t-17.5 -33.5t-23.5 -28.5t-28 -23.5t-32.5 -18t-36 -11.5t-38.5 -4t-38.5 4t-36 11t-32.5 17.5t-28 24t-23 29t-17 33
t-11 37t-4 39.5z" />
    <glyph glyph-name="Hcircumflex" unicode="&#x124;" horiz-adv-x="643" 
d="M132 0v318h380v-318h75v700h-75v-316h-380v316h-75v-700h75zM244 776l78 77l78 -77h69l-109 118h-75l-110 -118h69z" />
    <glyph glyph-name="hcircumflex" unicode="&#x125;" 
d="M124 303q0 62 40.5 102.5t102.5 40.5q59 0 95 -38.5t36 -97.5v-310h72v322q0 20 -3.5 38.5t-10 36t-16.5 32.5t-22 28t-27 23t-32.5 17t-36.5 11t-40 4q-50 0 -91.5 -21.5t-66.5 -58.5v268h-72v-700h72v303zM10 776l78 77l78 -77h69l-109 118h-75l-110 -118h69z" />
    <glyph glyph-name="Hbar" unicode="&#x126;" horiz-adv-x="676" 
d="M148 0v318h380v-318h75v508h65v62h-65v130h-75v-130h-380v130h-75v-130h-65v-62h65v-508h75zM148 384v124h380v-124h-380z" />
    <glyph glyph-name="hbar" unicode="&#x127;" horiz-adv-x="534" 
d="M277 571v55h-142v74h-72v-74h-68v-55h68v-571h72v303q0 62 40.5 102.5t102.5 40.5q59 0 95 -38.5t36 -97.5v-310h72v322q0 20 -3.5 38.5t-10 36t-16.5 32.5t-22 28t-27 23t-32.5 17t-36.5 11t-40 4q-50 0 -91.5 -21.5t-66.5 -58.5v139h142z" />
    <glyph glyph-name="Itilde" unicode="&#x128;" horiz-adv-x="188" 
d="M132 0v700h-75v-700h75zM33 889q-32 0 -55 -24.5t-36 -72.5l50 -11q10 32 20.5 44t23.5 12q4 0 9.5 -2t11.5 -5t12.5 -7t13.5 -8.5t14 -9.5t14.5 -9t15 -7t15 -5t14.5 -2q32 0 54.5 25t35.5 72l-49 12q-10 -33 -20.5 -44.5t-23.5 -11.5q-5 0 -10 2t-11 5t-12.5 7
t-13.5 8.5l-14 9t-14.5 8.5t-15 7t-15 5t-14.5 2z" />
    <glyph glyph-name="itilde" unicode="&#x129;" horiz-adv-x="177" 
d="M124 502h-72v-502h72v502zM28 691q-32 0 -55 -24.5t-36 -72.5l50 -11q10 32 20.5 44t23.5 12q4 0 9.5 -2t11.5 -5t12.5 -7t13.5 -8.5t14 -9.5t14.5 -9t15 -7t15 -5t14.5 -2q32 0 54.5 25t35.5 72l-49 12q-10 -33 -20.5 -44.5t-23.5 -11.5q-5 0 -10 2t-11 5t-12.5 7
t-13.5 8.5l-14 9t-14.5 8.5t-15 7t-15 5t-14.5 2z" />
    <glyph glyph-name="Imacron" unicode="&#x12a;" horiz-adv-x="188" 
d="M132 0v700h-75v-700h75zM221 856h-252v-53h252v53z" />
    <glyph glyph-name="imacron" unicode="&#x12b;" horiz-adv-x="177" 
d="M124 502h-72v-502h72v502zM215 658h-252v-53h252v53z" />
    <glyph glyph-name="Ibreve" unicode="&#x12c;" horiz-adv-x="188" 
d="M132 0v700h-75v-700h75zM95 823q-27 0 -53 15t-39 61l-52 -16q13 -54 53.5 -82.5t90.5 -28.5t90.5 29t53.5 82l-52 16q-13 -46 -39.5 -61t-52.5 -15z" />
    <glyph glyph-name="ibreve" unicode="&#x12d;" horiz-adv-x="177" 
d="M124 502h-72v-502h72v502zM89 625q-27 0 -53 15t-39 61l-52 -16q13 -54 53.5 -82.5t90.5 -28.5t90.5 29t53.5 82l-52 16q-13 -46 -39.5 -61t-52.5 -15z" />
    <glyph glyph-name="Iogonek" unicode="&#x12e;" horiz-adv-x="188" 
d="M132 0v700h-75v-700h75zM131 0l-33 19q-58 -49 -78 -85t-20 -71q0 -36 23.5 -60t70.5 -24q14 0 27 2t24 5l-7 44q-8 -3 -17.5 -4t-19.5 -1q-23 0 -36.5 13t-13.5 37q0 23 15 52.5t65 72.5z" />
    <glyph glyph-name="iogonek" unicode="&#x12f;" horiz-adv-x="177" 
d="M89 591q19 0 33 14t14 33q0 20 -14 34t-33 14t-33.5 -14t-14.5 -34q0 -19 14.5 -33t33.5 -14zM124 0v502h-72v-502h17q-45 -42 -60.5 -74t-15.5 -63q0 -36 23.5 -60t70.5 -24q14 0 27 2t24 5l-7 44q-8 -3 -17.5 -4t-19.5 -1q-23 0 -36.5 13t-13.5 37q0 23 15 52.5
t65 72.5z" />
    <glyph glyph-name="Idotaccent" unicode="&#x130;" horiz-adv-x="188" 
d="M132 0v700h-75v-700h75zM95 789q19 0 32.5 14.5t13.5 33.5t-13.5 33t-32.5 14t-33 -14t-14 -33t14 -33.5t33 -14.5z" />
    <glyph glyph-name="dotlessi" unicode="&#x131;" horiz-adv-x="177" 
d="M124 502h-72v-502h72v502z" />
    <glyph glyph-name="IJ" unicode="&#x132;" horiz-adv-x="641" 
d="M132 0v700h-75v-700h75zM194 47q33 -27 77 -42t93 -15q24 0 46.5 4t42.5 11.5t38 19t33.5 26.5t27.5 33t20 39.5t12.5 46t4.5 52.5v478h-75v-472q0 -81 -43.5 -125t-108.5 -44q-35 0 -67.5 11.5t-57.5 31.5z" />
    <glyph glyph-name="ij" unicode="&#x133;" horiz-adv-x="354" 
d="M89 591q19 0 33 14t14 33q0 20 -14 34t-33 14t-33.5 -14t-14.5 -34q0 -19 14.5 -33t33.5 -14zM124 502h-72v-502h72v502zM266 591q19 0 33 14t14 33q0 20 -14 34t-33 14t-33.5 -14t-14.5 -34q0 -19 14.5 -33t33.5 -14zM202 -193q46 0 72.5 26t26.5 66v603h-72v-592
q0 -19 -11 -29t-31 -10h-32v-64h47z" />
    <glyph glyph-name="Jcircumflex" unicode="&#x134;" horiz-adv-x="451" 
d="M5 47q33 -27 77 -42t93 -15q24 0 46.5 4t42.5 11.5t38 19t33.5 26.5t27.5 33t20 39.5t12.5 46t4.5 52.5v478h-75v-472q0 -81 -43.5 -125t-108.5 -44q-35 0 -67.5 11.5t-57.5 31.5zM286 776l78 77l78 -77h69l-109 118h-75l-110 -118h69z" />
    <glyph glyph-name="jcircumflex" unicode="&#x135;" horiz-adv-x="177" 
d="M25 -193q46 0 72.5 26t26.5 66v603h-72v-592q0 -19 -11 -29t-31 -10h-32v-64h47zM11 578l78 77l78 -77h69l-109 118h-75l-110 -118h69z" />
    <glyph glyph-name="uni0136" unicode="&#x136;" horiz-adv-x="542" 
d="M57 700v-700h75v319l320 -319h102l-356 355l350 345h-96l-320 -317v317h-75zM229 -201v-33q44 5 69.5 36t25.5 70q0 31 -13.5 48.5t-35.5 17.5q-16 0 -28 -11.5t-12 -27.5q0 -6 1.5 -11t4 -9t6 -7t7.5 -5.5t7.5 -4.5t7 -4.5t6 -4.5t4 -5t1.5 -6q0 -13 -14.5 -26.5
t-36.5 -16.5z" />
    <glyph glyph-name="uni0137" unicode="&#x137;" horiz-adv-x="446" 
d="M52 700v-700h72v236l237 -236h95l-266 259l256 243h-91l-231 -225v423h-72zM183 -201v-33q44 5 69.5 36t25.5 70q0 31 -13.5 48.5t-35.5 17.5q-16 0 -28 -11.5t-12 -27.5q0 -6 1.5 -11t4 -9t6 -7t7.5 -5.5t7.5 -4.5t7 -4.5t6 -4.5t4 -5t1.5 -6q0 -13 -14.5 -26.5
t-36.5 -16.5z" />
    <glyph glyph-name="kgreenlandic" unicode="&#x138;" horiz-adv-x="446" 
d="M52 502v-502h72v236l237 -236h95l-266 259l256 243h-91l-231 -225v225h-72z" />
    <glyph glyph-name="Lacute" unicode="&#x139;" horiz-adv-x="491" 
d="M465 66h-333v634h-75v-700h408v66zM138 894l-105 -118h74l120 118h-89z" />
    <glyph glyph-name="lacute" unicode="&#x13a;" horiz-adv-x="177" 
d="M124 0v700h-72v-700h72zM134 894l-105 -118h74l120 118h-89z" />
    <glyph glyph-name="uni013B" unicode="&#x13b;" horiz-adv-x="491" 
d="M465 66h-333v634h-75v-700h408v66zM213 -201v-33q44 5 69.5 36t25.5 70q0 31 -13.5 48.5t-35.5 17.5q-16 0 -28 -11.5t-12 -27.5q0 -6 1.5 -11t4 -9t6 -7t7.5 -5.5t7.5 -4.5t7 -4.5t6 -4.5t4 -5t1.5 -6q0 -13 -14.5 -26.5t-36.5 -16.5z" />
    <glyph glyph-name="uni013C" unicode="&#x13c;" horiz-adv-x="177" 
d="M124 0v700h-72v-700h72zM38 -201v-33q44 5 69.5 36t25.5 70q0 31 -13.5 48.5t-35.5 17.5q-16 0 -28 -11.5t-12 -27.5q0 -6 1.5 -11t4 -9t6 -7t7.5 -5.5t7.5 -4.5t7 -4.5t6 -4.5t4 -5t1.5 -6q0 -13 -14.5 -26.5t-36.5 -16.5z" />
    <glyph glyph-name="Lcaron" unicode="&#x13d;" horiz-adv-x="499" 
d="M465 66h-333v634h-75v-700h408v66zM316 520h55l38 180h-72z" />
    <glyph glyph-name="lcaron" unicode="&#x13e;" horiz-adv-x="264" 
d="M124 0v700h-72v-700h72zM179 520h55l38 180h-72z" />
    <glyph glyph-name="Ldot" unicode="&#x13f;" horiz-adv-x="499" 
d="M465 66h-333v634h-75v-700h408v66zM336 307q19 0 32.5 14.5t13.5 33.5t-13.5 33t-32.5 14t-33 -14t-14 -33t14 -33.5t33 -14.5z" />
    <glyph glyph-name="ldot" unicode="&#x140;" horiz-adv-x="285" 
d="M124 0v700h-72v-700h72zM224 296q19 0 32.5 14.5t13.5 33.5t-13.5 33t-32.5 14t-33 -14t-14 -33t14 -33.5t33 -14.5z" />
    <glyph glyph-name="Lslash" unicode="&#x141;" horiz-adv-x="513" 
d="M5 183l73 62v-245h409v66h-334v239l168 142v69l-168 -141v325h-75v-386l-73 -61v-70z" />
    <glyph glyph-name="lslash" unicode="&#x142;" horiz-adv-x="232" 
d="M145 0v343l76 70v68l-76 -70v289h-72v-354l-63 -58v-68l63 58v-278h72z" />
    <glyph glyph-name="Nacute" unicode="&#x143;" horiz-adv-x="690" 
d="M128 0l-1 595l424 -595h82v700h-71l1 -594l-423 594h-83v-700h71zM391 894l-105 -118h74l120 118h-89z" />
    <glyph glyph-name="nacute" unicode="&#x144;" 
d="M470 322q0 20 -3.5 38.5t-10 36t-16.5 32.5t-22.5 28t-27.5 23t-32 17t-36.5 11t-40.5 4q-50 0 -91 -21t-66 -58v69h-72v-502h72v303q0 62 40.5 102.5t102.5 40.5q59 0 95 -38.5t36 -97.5v-310h72v322zM308 696l-105 -118h74l120 118h-89z" />
    <glyph glyph-name="uni0145" unicode="&#x145;" horiz-adv-x="690" 
d="M128 0l-1 595l424 -595h82v700h-71l1 -594l-423 594h-83v-700h71zM295 -201v-33q44 5 69.5 36t25.5 70q0 31 -13.5 48.5t-35.5 17.5q-16 0 -28 -11.5t-12 -27.5q0 -6 1.5 -11t4 -9t6 -7t7.5 -5.5t7.5 -4.5t7 -4.5t6 -4.5t4 -5t1.5 -6q0 -13 -14.5 -26.5t-36.5 -16.5z" />
    <glyph glyph-name="uni0146" unicode="&#x146;" 
d="M470 322q0 20 -3.5 38.5t-10 36t-16.5 32.5t-22.5 28t-27.5 23t-32 17t-36.5 11t-40.5 4q-50 0 -91 -21t-66 -58v69h-72v-502h72v303q0 62 40.5 102.5t102.5 40.5q59 0 95 -38.5t36 -97.5v-310h72v322zM212 -201v-33q44 5 69.5 36t25.5 70q0 31 -13.5 48.5t-35.5 17.5
q-16 0 -28 -11.5t-12 -27.5q0 -6 1.5 -11t4 -9t6 -7t7.5 -5.5t7.5 -4.5t7 -4.5t6 -4.5t4 -5t1.5 -6q0 -13 -14.5 -26.5t-36.5 -16.5z" />
    <glyph glyph-name="Ncaron" unicode="&#x147;" horiz-adv-x="690" 
d="M128 0l-1 595l424 -595h82v700h-71l1 -594l-423 594h-83v-700h71zM424 894l-79 -77l-78 77h-69l111 -118h72l111 118h-68z" />
    <glyph glyph-name="ncaron" unicode="&#x148;" 
d="M470 322q0 20 -3.5 38.5t-10 36t-16.5 32.5t-22.5 28t-27.5 23t-32 17t-36.5 11t-40.5 4q-50 0 -91 -21t-66 -58v69h-72v-502h72v303q0 62 40.5 102.5t102.5 40.5q59 0 95 -38.5t36 -97.5v-310h72v322zM341 696l-79 -77l-78 77h-69l111 -118h72l111 118h-68z" />
    <glyph glyph-name="Eng" unicode="&#x14a;" horiz-adv-x="690" 
d="M633 -116v816h-70v-589l-423 589h-83v-700h71l-1 595l436 -607v-92q0 -19 -11.5 -28.5t-32.5 -9.5h-32v-64h48q46 0 72 25t26 65z" />
    <glyph glyph-name="eng" unicode="&#x14b;" 
d="M371 -193q46 0 72.5 26t26.5 66v423q0 20 -3.5 38.5t-10 36t-16.5 32.5t-22.5 28t-27.5 23t-32 17t-36.5 11t-40.5 4q-50 0 -91 -21t-66 -58v69h-72v-502h72v303q0 62 40.5 102.5t102.5 40.5q59 0 95 -38.5t36 -97.5v-400q0 -19 -11 -29t-31 -10h-32v-64h47z" />
    <glyph glyph-name="Omacron" unicode="&#x14c;" horiz-adv-x="797" 
d="M33 349q0 -30 4.5 -58.5t13.5 -55.5t22 -52t30 -47t36.5 -42t42.5 -36t48 -29t52.5 -22t56.5 -13.5t60 -4.5q30 0 59.5 4.5t56.5 13.5t52.5 22t48 29t42 36t36.5 42t30 47t22 52t13.5 55.5t4.5 58.5t-4.5 59t-13.5 56t-22 52t-30 47.5t-36.5 42t-42 36t-48 29.5t-52.5 22
t-56.5 13.5t-59.5 4.5q-31 0 -60 -4.5t-56.5 -13.5t-52.5 -22t-48 -29.5t-42.5 -36t-36.5 -42t-30 -47.5t-22 -52t-13.5 -56t-4.5 -59zM109 349q0 24 4 47.5t11 45.5t17.5 42t23.5 38.5t28.5 34.5t33.5 29t38 23.5t42 17.5t45 11t47 4q27 0 52.5 -4.5t49 -13.5t45 -21.5
t40.5 -29t34.5 -35.5t28 -40.5t21.5 -45.5t13.5 -50t4.5 -53t-4.5 -53t-13.5 -49.5t-21.5 -45t-28 -40.5t-34.5 -35t-40.5 -28.5t-45 -21.5t-49 -13.5t-52.5 -4.5t-52.5 4.5t-49 13.5t-45 21.5t-40.5 28.5t-35 35t-28.5 40.5t-21.5 45t-13.5 49.5t-4.5 53zM525 856h-252v-53
h252v53z" />
    <glyph glyph-name="omacron" unicode="&#x14d;" horiz-adv-x="593" 
d="M561 251q0 24 -4 47t-12 44t-19.5 40.5t-26 36.5t-32 31t-37 25.5t-41 19.5t-44.5 12t-48 4t-48 -4t-45 -12t-41.5 -19.5t-36.5 -25.5t-31.5 -31t-26 -36.5t-19.5 -40.5t-12 -44t-4 -47t4 -47t12 -44t19.5 -40.5t26 -36.5t31.5 -31.5t36.5 -26t41.5 -19.5t45 -12t48 -4
t48 4t44.5 12t41 19.5t37 26t32 31.5t26 36.5t19.5 40.5t12 44t4 47zM489 251q0 -20 -4 -39.5t-11.5 -37t-18 -33.5t-23.5 -29t-28 -23.5t-32.5 -18t-36 -11.5t-38.5 -4t-38.5 4t-36 11.5t-33 18t-28.5 23.5t-23.5 29t-17.5 33.5t-11 37t-4 39.5q0 21 4 40t11 37t17.5 33.5
t23.5 29t28.5 23.5t33 17.5t36 11.5t38.5 4t38.5 -4t36 -11.5t32.5 -17.5t28 -23.5t23.5 -29t18 -33.5t11.5 -37t4 -40zM423 658h-252v-53h252v53z" />
    <glyph glyph-name="Obreve" unicode="&#x14e;" horiz-adv-x="797" 
d="M33 349q0 -30 4.5 -58.5t13.5 -55.5t22 -52t30 -47t36.5 -42t42.5 -36t48 -29t52.5 -22t56.5 -13.5t60 -4.5q30 0 59.5 4.5t56.5 13.5t52.5 22t48 29t42 36t36.5 42t30 47t22 52t13.5 55.5t4.5 58.5t-4.5 59t-13.5 56t-22 52t-30 47.5t-36.5 42t-42 36t-48 29.5t-52.5 22
t-56.5 13.5t-59.5 4.5q-31 0 -60 -4.5t-56.5 -13.5t-52.5 -22t-48 -29.5t-42.5 -36t-36.5 -42t-30 -47.5t-22 -52t-13.5 -56t-4.5 -59zM109 349q0 24 4 47.5t11 45.5t17.5 42t23.5 38.5t28.5 34.5t33.5 29t38 23.5t42 17.5t45 11t47 4q27 0 52.5 -4.5t49 -13.5t45 -21.5
t40.5 -29t34.5 -35.5t28 -40.5t21.5 -45.5t13.5 -50t4.5 -53t-4.5 -53t-13.5 -49.5t-21.5 -45t-28 -40.5t-34.5 -35t-40.5 -28.5t-45 -21.5t-49 -13.5t-52.5 -4.5t-52.5 4.5t-49 13.5t-45 21.5t-40.5 28.5t-35 35t-28.5 40.5t-21.5 45t-13.5 49.5t-4.5 53zM399 823
q-27 0 -53 15t-39 61l-52 -16q13 -54 53.5 -82.5t90.5 -28.5t90.5 29t53.5 82l-52 16q-13 -46 -39.5 -61t-52.5 -15z" />
    <glyph glyph-name="obreve" unicode="&#x14f;" horiz-adv-x="593" 
d="M561 251q0 24 -4 47t-12 44t-19.5 40.5t-26 36.5t-32 31t-37 25.5t-41 19.5t-44.5 12t-48 4t-48 -4t-45 -12t-41.5 -19.5t-36.5 -25.5t-31.5 -31t-26 -36.5t-19.5 -40.5t-12 -44t-4 -47t4 -47t12 -44t19.5 -40.5t26 -36.5t31.5 -31.5t36.5 -26t41.5 -19.5t45 -12t48 -4
t48 4t44.5 12t41 19.5t37 26t32 31.5t26 36.5t19.5 40.5t12 44t4 47zM489 251q0 -20 -4 -39.5t-11.5 -37t-18 -33.5t-23.5 -29t-28 -23.5t-32.5 -18t-36 -11.5t-38.5 -4t-38.5 4t-36 11.5t-33 18t-28.5 23.5t-23.5 29t-17.5 33.5t-11 37t-4 39.5q0 21 4 40t11 37t17.5 33.5
t23.5 29t28.5 23.5t33 17.5t36 11.5t38.5 4t38.5 -4t36 -11.5t32.5 -17.5t28 -23.5t23.5 -29t18 -33.5t11.5 -37t4 -40zM297 625q-27 0 -53 15t-39 61l-52 -16q13 -54 53.5 -82.5t90.5 -28.5t90.5 29t53.5 82l-52 16q-13 -46 -39.5 -61t-52.5 -15z" />
    <glyph glyph-name="Ohungarumlaut" unicode="&#x150;" horiz-adv-x="797" 
d="M33 349q0 -30 4.5 -58.5t13.5 -55.5t22 -52t30 -47t36.5 -42t42.5 -36t48 -29t52.5 -22t56.5 -13.5t60 -4.5q30 0 59.5 4.5t56.5 13.5t52.5 22t48 29t42 36t36.5 42t30 47t22 52t13.5 55.5t4.5 58.5t-4.5 59t-13.5 56t-22 52t-30 47.5t-36.5 42t-42 36t-48 29.5t-52.5 22
t-56.5 13.5t-59.5 4.5q-31 0 -60 -4.5t-56.5 -13.5t-52.5 -22t-48 -29.5t-42.5 -36t-36.5 -42t-30 -47.5t-22 -52t-13.5 -56t-4.5 -59zM109 349q0 24 4 47.5t11 45.5t17.5 42t23.5 38.5t28.5 34.5t33.5 29t38 23.5t42 17.5t45 11t47 4q27 0 52.5 -4.5t49 -13.5t45 -21.5
t40.5 -29t34.5 -35.5t28 -40.5t21.5 -45.5t13.5 -50t4.5 -53t-4.5 -53t-13.5 -49.5t-21.5 -45t-28 -40.5t-34.5 -35t-40.5 -28.5t-45 -21.5t-49 -13.5t-52.5 -4.5t-52.5 4.5t-49 13.5t-45 21.5t-40.5 28.5t-35 35t-28.5 40.5t-21.5 45t-13.5 49.5t-4.5 53zM372 894
l-106 -118h71l117 118h-82zM539 894l-106 -118h71l116 118h-81z" />
    <glyph glyph-name="ohungarumlaut" unicode="&#x151;" horiz-adv-x="593" 
d="M561 251q0 24 -4 47t-12 44t-19.5 40.5t-26 36.5t-32 31t-37 25.5t-41 19.5t-44.5 12t-48 4t-48 -4t-45 -12t-41.5 -19.5t-36.5 -25.5t-31.5 -31t-26 -36.5t-19.5 -40.5t-12 -44t-4 -47t4 -47t12 -44t19.5 -40.5t26 -36.5t31.5 -31.5t36.5 -26t41.5 -19.5t45 -12t48 -4
t48 4t44.5 12t41 19.5t37 26t32 31.5t26 36.5t19.5 40.5t12 44t4 47zM489 251q0 -20 -4 -39.5t-11.5 -37t-18 -33.5t-23.5 -29t-28 -23.5t-32.5 -18t-36 -11.5t-38.5 -4t-38.5 4t-36 11.5t-33 18t-28.5 23.5t-23.5 29t-17.5 33.5t-11 37t-4 39.5q0 21 4 40t11 37t17.5 33.5
t23.5 29t28.5 23.5t33 17.5t36 11.5t38.5 4t38.5 -4t36 -11.5t32.5 -17.5t28 -23.5t23.5 -29t18 -33.5t11.5 -37t4 -40zM271 696l-106 -118h71l117 118h-82zM438 696l-106 -118h71l116 118h-81z" />
    <glyph glyph-name="OE" unicode="&#x152;" horiz-adv-x="977" 
d="M33 351q0 -29 4.5 -57t13.5 -54.5t21.5 -50.5t29 -46t35.5 -41t41.5 -35t47 -28.5t51 -21t54.5 -13t58 -4.5h549v66h-333v252h323v66h-323v250h333v66h-549q-30 0 -58 -4.5t-54.5 -13t-51 -21t-47 -28.5t-41.5 -35t-35.5 -40.5t-29 -45.5t-21.5 -50t-13.5 -54t-4.5 -57z
M393 66q-26 0 -51 4.5t-48.5 13t-44.5 21t-39.5 28.5t-34 34.5t-28 39.5t-21 44.5t-13 48.5t-4.5 51t4.5 51t13 48t21 44t28 39.5t34 34t39.5 28t44.5 21t48.5 13t51 4.5h137v-568h-137z" />
    <glyph glyph-name="oe" unicode="&#x153;" horiz-adv-x="1024" 
d="M752 -9q66 0 121.5 29t91.5 78l-54 38q-28 -39 -69.5 -60.5t-89.5 -21.5q-75 0 -128.5 50.5t-61.5 124.5h429v28q0 24 -4 46.5t-11 43.5t-17.5 39.5t-24 35t-29.5 30.5t-34.5 25t-38.5 18.5t-42 11.5t-45 4q-72 0 -130.5 -36.5t-90.5 -95.5q-33 59 -93.5 95.5
t-133.5 36.5q-25 0 -48 -4t-45 -12t-41.5 -19.5t-36.5 -25.5t-31.5 -31t-26 -36.5t-19.5 -40.5t-12 -44t-4 -47t4 -47t12 -44t19.5 -40.5t26 -36.5t31.5 -31.5t36.5 -26t41.5 -19.5t45 -12t48 -4q73 0 133.5 37t94.5 96q33 -59 93 -95.5t134 -36.5zM744 448q66 0 115 -45
t59 -114h-354q12 69 63 114t117 45zM489 251q0 -20 -4 -39.5t-11.5 -37t-18 -33.5t-23.5 -29t-28 -23.5t-32.5 -18t-36 -11.5t-38.5 -4t-38.5 4t-36 11.5t-33 18t-28.5 23.5t-23.5 29t-17.5 33.5t-11 37t-4 39.5q0 21 4 40t11 37t17.5 33.5t23.5 29t28.5 23.5t33 17.5
t36 11.5t38.5 4t38.5 -4t36 -11.5t32.5 -17.5t28 -23.5t23.5 -29t18 -33.5t11.5 -37t4 -40z" />
    <glyph glyph-name="Racute" unicode="&#x154;" horiz-adv-x="538" 
d="M132 0v304h135l183 -304h85l-189 311q68 16 111 68.5t43 120.5q0 21 -4 40.5t-11.5 37.5t-18.5 34t-25 29.5t-30.5 24.5t-35.5 18.5t-40 11.5t-43 4h-235v-700h75zM286 634q60 0 99.5 -39.5t39.5 -94.5q0 -54 -39.5 -93t-99.5 -39h-154v266h154zM319 894l-105 -118h74
l120 118h-89z" />
    <glyph glyph-name="racute" unicode="&#x155;" horiz-adv-x="296" 
d="M280 439v67h-35q-41 0 -72 -19t-49 -51v66h-72v-502h72v302q0 58 33 97.5t85 39.5h38zM218 696l-105 -118h74l120 118h-89z" />
    <glyph glyph-name="uni0156" unicode="&#x156;" horiz-adv-x="538" 
d="M132 0v304h135l183 -304h85l-189 311q68 16 111 68.5t43 120.5q0 21 -4 40.5t-11.5 37.5t-18.5 34t-25 29.5t-30.5 24.5t-35.5 18.5t-40 11.5t-43 4h-235v-700h75zM286 634q60 0 99.5 -39.5t39.5 -94.5q0 -54 -39.5 -93t-99.5 -39h-154v266h154zM230 -201v-33
q44 5 69.5 36t25.5 70q0 31 -13.5 48.5t-35.5 17.5q-16 0 -28 -11.5t-12 -27.5q0 -6 1.5 -11t4 -9t6 -7t7.5 -5.5t7.5 -4.5t7 -4.5t6 -4.5t4 -5t1.5 -6q0 -13 -14.5 -26.5t-36.5 -16.5z" />
    <glyph glyph-name="uni0157" unicode="&#x157;" horiz-adv-x="296" 
d="M280 439v67h-35q-41 0 -72 -19t-49 -51v66h-72v-502h72v302q0 58 33 97.5t85 39.5h38zM40 -201v-33q44 5 69.5 36t25.5 70q0 31 -13.5 48.5t-35.5 17.5q-16 0 -28 -11.5t-12 -27.5q0 -6 1.5 -11t4 -9t6 -7t7.5 -5.5t7.5 -4.5t7 -4.5t6 -4.5t4 -5t1.5 -6
q0 -13 -14.5 -26.5t-36.5 -16.5z" />
    <glyph glyph-name="Rcaron" unicode="&#x158;" horiz-adv-x="538" 
d="M132 0v304h135l183 -304h85l-189 311q68 16 111 68.5t43 120.5q0 21 -4 40.5t-11.5 37.5t-18.5 34t-25 29.5t-30.5 24.5t-35.5 18.5t-40 11.5t-43 4h-235v-700h75zM286 634q60 0 99.5 -39.5t39.5 -94.5q0 -54 -39.5 -93t-99.5 -39h-154v266h154zM352 894l-79 -77l-78 77
h-69l111 -118h72l111 118h-68z" />
    <glyph glyph-name="rcaron" unicode="&#x159;" horiz-adv-x="296" 
d="M280 439v67h-35q-41 0 -72 -19t-49 -51v66h-72v-502h72v302q0 58 33 97.5t85 39.5h38zM251 696l-79 -77l-78 77h-69l111 -118h72l111 118h-68z" />
    <glyph glyph-name="Sacute" unicode="&#x15a;" horiz-adv-x="546" 
d="M29 208q10 -98 82 -158t178 -60q101 0 162.5 55t61.5 141q0 69 -41.5 114t-127.5 70l-118 35q-57 16 -86 45.5t-29 73.5q0 54 40 87.5t100 33.5q72 0 117 -40.5t56 -112.5h73q-12 98 -78.5 158t-165.5 60q-94 0 -155 -53.5t-61 -139.5q0 -66 42 -112t123 -69l114 -33
q62 -18 92.5 -48.5t30.5 -77.5q0 -55 -41 -88.5t-110 -33.5q-76 0 -124.5 40.5t-60.5 112.5h-74zM308 894l-105 -118h74l120 118h-89z" />
    <glyph glyph-name="sacute" unicode="&#x15b;" horiz-adv-x="424" 
d="M227 -10q78 0 125.5 41t47.5 104q0 51 -35 87t-103 54l-79 21q-41 12 -61.5 31.5t-20.5 47.5q0 34 25 55t67 21q46 0 81 -27t44 -74h70q-10 69 -63 114.5t-133 45.5q-70 0 -115.5 -39t-45.5 -103q0 -50 33 -84t97 -51l81 -22q46 -13 66.5 -33.5t20.5 -50.5
q0 -34 -28.5 -56t-75.5 -22q-51 0 -88 27t-47 75h-69q11 -71 67 -116.5t139 -45.5zM250 696l-105 -118h74l120 118h-89z" />
    <glyph glyph-name="Scircumflex" unicode="&#x15c;" horiz-adv-x="546" 
d="M29 208q10 -98 82 -158t178 -60q101 0 162.5 55t61.5 141q0 69 -41.5 114t-127.5 70l-118 35q-57 16 -86 45.5t-29 73.5q0 54 40 87.5t100 33.5q72 0 117 -40.5t56 -112.5h73q-12 98 -78.5 158t-165.5 60q-94 0 -155 -53.5t-61 -139.5q0 -66 42 -112t123 -69l114 -33
q62 -18 92.5 -48.5t30.5 -77.5q0 -55 -41 -88.5t-110 -33.5q-76 0 -124.5 40.5t-60.5 112.5h-74zM184 776l78 77l78 -77h69l-109 118h-75l-110 -118h69z" />
    <glyph glyph-name="scircumflex" unicode="&#x15d;" horiz-adv-x="424" 
d="M227 -10q78 0 125.5 41t47.5 104q0 51 -35 87t-103 54l-79 21q-41 12 -61.5 31.5t-20.5 47.5q0 34 25 55t67 21q46 0 81 -27t44 -74h70q-10 69 -63 114.5t-133 45.5q-70 0 -115.5 -39t-45.5 -103q0 -50 33 -84t97 -51l81 -22q46 -13 66.5 -33.5t20.5 -50.5
q0 -34 -28.5 -56t-75.5 -22q-51 0 -88 27t-47 75h-69q11 -71 67 -116.5t139 -45.5zM126 578l78 77l78 -77h69l-109 118h-75l-110 -118h69z" />
    <glyph glyph-name="uni015E" unicode="&#x15e;" horiz-adv-x="546" 
d="M29 208q10 -98 82 -158t178 -60q101 0 162.5 55t61.5 141q0 69 -41.5 114t-127.5 70l-118 35q-57 16 -86 45.5t-29 73.5q0 54 40 87.5t100 33.5q72 0 117 -40.5t56 -112.5h73q-12 98 -78.5 158t-165.5 60q-94 0 -155 -53.5t-61 -139.5q0 -66 42 -112t123 -69l114 -33
q62 -18 92.5 -48.5t30.5 -77.5q0 -55 -41 -88.5t-110 -33.5q-76 0 -124.5 40.5t-60.5 112.5h-74zM376 -137q0 35 -24 57.5t-64 25.5l18 60h-45l-28 -96h31q28 0 45 -12.5t17 -33.5q0 -20 -15 -33.5t-39 -13.5q-19 0 -36 8.5t-30 24.5l-36 -29q16 -22 44 -35t59 -13
q44 0 73.5 26t29.5 64z" />
    <glyph glyph-name="uni015F" unicode="&#x15f;" horiz-adv-x="424" 
d="M314 -137q0 35 -24 57.5t-64 25.5l13 44q72 4 116.5 44t44.5 101q0 51 -35 87t-103 54l-79 21q-41 12 -61.5 31.5t-20.5 47.5q0 34 25 55t67 21q46 0 81 -27t44 -74h70q-10 69 -63 114.5t-133 45.5q-70 0 -115.5 -39t-45.5 -103q0 -50 33 -84t97 -51l81 -22
q46 -13 66.5 -33.5t20.5 -50.5q0 -34 -28.5 -56t-75.5 -22q-51 0 -88 27t-47 75h-69q10 -64 57 -107.5t117 -52.5l-24 -82h31q28 0 45 -12.5t17 -33.5q0 -20 -15 -33.5t-39 -13.5q-19 0 -36 8.5t-30 24.5l-36 -29q16 -22 44 -35t59 -13q44 0 73.5 26t29.5 64z" />
    <glyph glyph-name="Scaron" unicode="&#x160;" horiz-adv-x="546" 
d="M29 208q10 -98 82 -158t178 -60q101 0 162.5 55t61.5 141q0 69 -41.5 114t-127.5 70l-118 35q-57 16 -86 45.5t-29 73.5q0 54 40 87.5t100 33.5q72 0 117 -40.5t56 -112.5h73q-12 98 -78.5 158t-165.5 60q-94 0 -155 -53.5t-61 -139.5q0 -66 42 -112t123 -69l114 -33
q62 -18 92.5 -48.5t30.5 -77.5q0 -55 -41 -88.5t-110 -33.5q-76 0 -124.5 40.5t-60.5 112.5h-74zM341 894l-79 -77l-78 77h-69l111 -118h72l111 118h-68z" />
    <glyph glyph-name="scaron" unicode="&#x161;" horiz-adv-x="424" 
d="M227 -10q78 0 125.5 41t47.5 104q0 51 -35 87t-103 54l-79 21q-41 12 -61.5 31.5t-20.5 47.5q0 34 25 55t67 21q46 0 81 -27t44 -74h70q-10 69 -63 114.5t-133 45.5q-70 0 -115.5 -39t-45.5 -103q0 -50 33 -84t97 -51l81 -22q46 -13 66.5 -33.5t20.5 -50.5
q0 -34 -28.5 -56t-75.5 -22q-51 0 -88 27t-47 75h-69q11 -71 67 -116.5t139 -45.5zM283 696l-79 -77l-78 77h-69l111 -118h72l111 118h-68z" />
    <glyph glyph-name="uni0162" unicode="&#x162;" horiz-adv-x="538" 
d="M10 634h221v-634h75v634h222v66h-518v-66zM366 -137q0 35 -24 57.5t-64 25.5l18 60h-45l-28 -96h31q28 0 45 -12.5t17 -33.5q0 -20 -15 -33.5t-39 -13.5q-19 0 -36 8.5t-30 24.5l-36 -29q16 -22 44 -35t59 -13q44 0 73.5 26t29.5 64z" />
    <glyph glyph-name="uni0163" unicode="&#x163;" horiz-adv-x="313" 
d="M14 438h94v-339q0 -37 21 -63t58 -33l-27 -93h31q28 0 45 -12.5t17 -33.5q0 -20 -15 -33.5t-39 -13.5q-19 0 -36 8.5t-30 24.5l-36 -29q16 -22 44 -35t59 -13q44 0 73.5 26t29.5 64q0 35 -24 57.5t-64 25.5l16 54h68v64h-67q-25 0 -38.5 12t-13.5 34v328h119v64h-119v151
h-72v-151h-94v-64z" />
    <glyph glyph-name="Tcaron" unicode="&#x164;" horiz-adv-x="538" 
d="M10 634h221v-634h75v634h222v66h-518v-66zM348 894l-79 -77l-78 77h-69l111 -118h72l111 118h-68z" />
    <glyph glyph-name="tcaron" unicode="&#x165;" horiz-adv-x="313" 
d="M216 0h83v64h-67q-25 0 -38.5 12t-13.5 34v328h119v64h-119v151h-72v-151h-94v-64h94v-339q0 -44 28.5 -71.5t79.5 -27.5zM244 570h55l38 180h-72z" />
    <glyph glyph-name="Tbar" unicode="&#x166;" horiz-adv-x="538" 
d="M454 316v64h-355v-64h355zM10 634h221v-634h75v634h222v66h-518v-66z" />
    <glyph glyph-name="tbar" unicode="&#x167;" horiz-adv-x="318" 
d="M216 0h83v64h-67q-25 0 -38.5 12t-13.5 34v133h122v60h-122v135h119v64h-119v151h-72v-151h-94v-64h94v-135h-92v-60h92v-144q0 -44 28.5 -71.5t79.5 -27.5z" />
    <glyph glyph-name="Utilde" unicode="&#x168;" horiz-adv-x="638" 
d="M126 262v438h-75v-440q0 -31 5 -58.5t15 -52.5t23.5 -46t31 -39t38.5 -31.5t44 -23t49 -14.5t53 -5q60 0 111.5 26.5t85.5 73.5v-90h74v700h-75v-438q0 -23 -4 -44t-11 -39.5t-17 -35t-23 -30t-28.5 -23.5t-32.5 -17.5t-36 -11t-39 -3.5q-81 0 -135 55.5t-54 148.5z
M255 889q-32 0 -55 -24.5t-36 -72.5l50 -11q10 32 20.5 44t23.5 12q4 0 9.5 -2t11.5 -5t12.5 -7t13.5 -8.5t14 -9.5t14.5 -9t15 -7t15 -5t14.5 -2q32 0 54.5 25t35.5 72l-49 12q-10 -33 -20.5 -44.5t-23.5 -11.5q-5 0 -10 2t-11 5t-12.5 7t-13.5 8.5l-14 9t-14.5 8.5t-15 7
t-15 5t-14.5 2z" />
    <glyph glyph-name="utilde" unicode="&#x169;" 
d="M52 180q0 -20 3.5 -38.5t10.5 -35.5t16.5 -32t22 -28t27.5 -23t32 -17.5t36.5 -11t40.5 -3.5q49 0 90.5 20.5t66.5 57.5v-69h72v502h-72v-303q0 -61 -40 -102t-102 -41q-59 0 -95.5 38.5t-36.5 97.5v310h-72v-322zM201 691q-32 0 -55 -24.5t-36 -72.5l50 -11
q10 32 20.5 44t23.5 12q4 0 9.5 -2t11.5 -5t12.5 -7t13.5 -8.5t14 -9.5t14.5 -9t15 -7t15 -5t14.5 -2q32 0 54.5 25t35.5 72l-49 12q-10 -33 -20.5 -44.5t-23.5 -11.5q-5 0 -10 2t-11 5t-12.5 7t-13.5 8.5l-14 9t-14.5 8.5t-15 7t-15 5t-14.5 2z" />
    <glyph glyph-name="Umacron" unicode="&#x16a;" horiz-adv-x="638" 
d="M126 262v438h-75v-440q0 -31 5 -58.5t15 -52.5t23.5 -46t31 -39t38.5 -31.5t44 -23t49 -14.5t53 -5q60 0 111.5 26.5t85.5 73.5v-90h74v700h-75v-438q0 -23 -4 -44t-11 -39.5t-17 -35t-23 -30t-28.5 -23.5t-32.5 -17.5t-36 -11t-39 -3.5q-81 0 -135 55.5t-54 148.5z
M442 856h-252v-53h252v53z" />
    <glyph glyph-name="umacron" unicode="&#x16b;" 
d="M52 180q0 -20 3.5 -38.5t10.5 -35.5t16.5 -32t22 -28t27.5 -23t32 -17.5t36.5 -11t40.5 -3.5q49 0 90.5 20.5t66.5 57.5v-69h72v502h-72v-303q0 -61 -40 -102t-102 -41q-59 0 -95.5 38.5t-36.5 97.5v310h-72v-322zM388 658h-252v-53h252v53z" />
    <glyph glyph-name="Ubreve" unicode="&#x16c;" horiz-adv-x="638" 
d="M126 262v438h-75v-440q0 -31 5 -58.5t15 -52.5t23.5 -46t31 -39t38.5 -31.5t44 -23t49 -14.5t53 -5q60 0 111.5 26.5t85.5 73.5v-90h74v700h-75v-438q0 -23 -4 -44t-11 -39.5t-17 -35t-23 -30t-28.5 -23.5t-32.5 -17.5t-36 -11t-39 -3.5q-81 0 -135 55.5t-54 148.5z
M316 823q-27 0 -53 15t-39 61l-52 -16q13 -54 53.5 -82.5t90.5 -28.5t90.5 29t53.5 82l-52 16q-13 -46 -39.5 -61t-52.5 -15z" />
    <glyph glyph-name="ubreve" unicode="&#x16d;" 
d="M52 180q0 -20 3.5 -38.5t10.5 -35.5t16.5 -32t22 -28t27.5 -23t32 -17.5t36.5 -11t40.5 -3.5q49 0 90.5 20.5t66.5 57.5v-69h72v502h-72v-303q0 -61 -40 -102t-102 -41q-59 0 -95.5 38.5t-36.5 97.5v310h-72v-322zM262 625q-27 0 -53 15t-39 61l-52 -16
q13 -54 53.5 -82.5t90.5 -28.5t90.5 29t53.5 82l-52 16q-13 -46 -39.5 -61t-52.5 -15z" />
    <glyph glyph-name="Uring" unicode="&#x16e;" horiz-adv-x="638" 
d="M126 262v438h-75v-440q0 -31 5 -58.5t15 -52.5t23.5 -46t31 -39t38.5 -31.5t44 -23t49 -14.5t53 -5q60 0 111.5 26.5t85.5 73.5v-90h74v700h-75v-438q0 -23 -4 -44t-11 -39.5t-17 -35t-23 -30t-28.5 -23.5t-32.5 -17.5t-36 -11t-39 -3.5q-81 0 -135 55.5t-54 148.5z
M316 760q43 0 73.5 30t30.5 72q0 41 -30.5 71t-73.5 30t-73.5 -30t-30.5 -71q0 -42 30.5 -72t73.5 -30zM316 799q-26 0 -44 18.5t-18 44.5q0 25 18 43t44 18t44 -18t18 -43q0 -26 -18 -44.5t-44 -18.5z" />
    <glyph glyph-name="uring" unicode="&#x16f;" 
d="M52 180q0 -20 3.5 -38.5t10.5 -35.5t16.5 -32t22 -28t27.5 -23t32 -17.5t36.5 -11t40.5 -3.5q49 0 90.5 20.5t66.5 57.5v-69h72v502h-72v-303q0 -61 -40 -102t-102 -41q-59 0 -95.5 38.5t-36.5 97.5v310h-72v-322zM262 562q43 0 73.5 30t30.5 72q0 41 -30.5 71t-73.5 30
t-73.5 -30t-30.5 -71q0 -42 30.5 -72t73.5 -30zM262 601q-26 0 -44 18.5t-18 44.5q0 25 18 43t44 18t44 -18t18 -43q0 -26 -18 -44.5t-44 -18.5z" />
    <glyph glyph-name="Uhungarumlaut" unicode="&#x170;" horiz-adv-x="638" 
d="M126 262v438h-75v-440q0 -31 5 -58.5t15 -52.5t23.5 -46t31 -39t38.5 -31.5t44 -23t49 -14.5t53 -5q60 0 111.5 26.5t85.5 73.5v-90h74v700h-75v-438q0 -23 -4 -44t-11 -39.5t-17 -35t-23 -30t-28.5 -23.5t-32.5 -17.5t-36 -11t-39 -3.5q-81 0 -135 55.5t-54 148.5z
M290 894l-106 -118h71l117 118h-82zM457 894l-106 -118h71l116 118h-81z" />
    <glyph glyph-name="uhungarumlaut" unicode="&#x171;" 
d="M52 180q0 -20 3.5 -38.5t10.5 -35.5t16.5 -32t22 -28t27.5 -23t32 -17.5t36.5 -11t40.5 -3.5q49 0 90.5 20.5t66.5 57.5v-69h72v502h-72v-303q0 -61 -40 -102t-102 -41q-59 0 -95.5 38.5t-36.5 97.5v310h-72v-322zM236 696l-106 -118h71l117 118h-82zM403 696l-106 -118
h71l116 118h-81z" />
    <glyph glyph-name="Uogonek" unicode="&#x172;" horiz-adv-x="638" 
d="M126 262v438h-75v-440q0 -31 5 -58.5t15 -52.5t23.5 -46t31 -39t38.5 -31.5t44 -23t49 -14.5t53 -5q60 0 111.5 26.5t85.5 73.5v-90h74v700h-75v-438q0 -23 -4 -44t-11 -39.5t-17 -35t-23 -30t-28.5 -23.5t-32.5 -17.5t-36 -11t-39 -3.5q-81 0 -135 55.5t-54 148.5z
M581 0l-33 19q-58 -49 -78 -85t-20 -71q0 -36 23.5 -60t70.5 -24q14 0 27 2t24 5l-7 44q-8 -3 -17.5 -4t-19.5 -1q-23 0 -36.5 13t-13.5 37q0 23 15 52.5t65 72.5z" />
    <glyph glyph-name="uogonek" unicode="&#x173;" 
d="M52 180q0 -20 3.5 -38.5t10.5 -35.5t16.5 -32t22 -28t27.5 -23t32 -17.5t36.5 -11t40.5 -3.5q49 0 90.5 20.5t66.5 57.5v-69h17q-45 -42 -60.5 -74t-15.5 -63q0 -36 23.5 -60t70.5 -24q14 0 27 2t24 5l-7 44q-8 -3 -17.5 -4t-19.5 -1q-23 0 -36.5 13t-13.5 37
q0 23 15 52.5t65 72.5v502h-72v-303q0 -61 -40 -102t-102 -41q-59 0 -95.5 38.5t-36.5 97.5v310h-72v-322z" />
    <glyph glyph-name="Wcircumflex" unicode="&#x174;" horiz-adv-x="938" 
d="M504 700h-68l-195 -584l-151 584h-80l190 -700h73l196 585l197 -585h73l189 700h-77l-152 -584zM391 776l78 77l78 -77h69l-109 118h-75l-110 -118h69z" />
    <glyph glyph-name="wcircumflex" unicode="&#x175;" horiz-adv-x="705" 
d="M322 502l-132 -391l-115 391h-75l153 -502h63l137 401l136 -401h63l153 502h-74l-114 -390l-133 390h-62zM274 578l78 77l78 -77h69l-109 118h-75l-110 -118h69z" />
    <glyph glyph-name="Ycircumflex" unicode="&#x176;" horiz-adv-x="593" 
d="M334 0v308l264 392h-85l-215 -324l-216 324h-87l264 -389v-311h75zM220 776l78 77l78 -77h69l-109 118h-75l-110 -118h69z" />
    <glyph glyph-name="ycircumflex" unicode="&#x177;" horiz-adv-x="468" 
d="M166 -71q-12 -30 -30.5 -44t-49.5 -14h-45v-64h58q52 0 82 26.5t51 77.5l241 591h-75l-162 -401l-164 401h-77l205 -490zM157 578l78 77l78 -77h69l-109 118h-75l-110 -118h69z" />
    <glyph glyph-name="Ydieresis" unicode="&#x178;" horiz-adv-x="593" 
d="M334 0v308l264 392h-85l-215 -324l-216 324h-87l264 -389v-311h75zM214 789q19 0 33 14.5t14 33.5t-14 33t-33 14t-33 -14t-14 -33t14 -33.5t33 -14.5zM383 789q19 0 32.5 14.5t13.5 33.5t-13.5 33t-32.5 14t-33 -14t-14 -33t14 -33.5t33 -14.5z" />
    <glyph glyph-name="Zacute" unicode="&#x179;" horiz-adv-x="531" 
d="M35 634h374l-386 -583v-51h478v66h-383l386 583v51h-469v-66zM316 894l-105 -118h74l120 118h-89z" />
    <glyph glyph-name="zacute" unicode="&#x17a;" horiz-adv-x="434" 
d="M30 438h284l-287 -385v-53h382v64h-292l286 385v53h-373v-64zM262 696l-105 -118h74l120 118h-89z" />
    <glyph glyph-name="Zdotaccent" unicode="&#x17b;" horiz-adv-x="531" 
d="M35 634h374l-386 -583v-51h478v66h-383l386 583v51h-469v-66zM271 789q19 0 32.5 14.5t13.5 33.5t-13.5 33t-32.5 14t-33 -14t-14 -33t14 -33.5t33 -14.5z" />
    <glyph glyph-name="zdotaccent" unicode="&#x17c;" horiz-adv-x="434" 
d="M30 438h284l-287 -385v-53h382v64h-292l286 385v53h-373v-64zM216 591q19 0 32.5 14.5t13.5 33.5t-13.5 33t-32.5 14t-33 -14t-14 -33t14 -33.5t33 -14.5z" />
    <glyph glyph-name="Zcaron" unicode="&#x17d;" horiz-adv-x="531" 
d="M35 634h374l-386 -583v-51h478v66h-383l386 583v51h-469v-66zM350 894l-79 -77l-78 77h-69l111 -118h72l111 118h-68z" />
    <glyph glyph-name="zcaron" unicode="&#x17e;" horiz-adv-x="434" 
d="M30 438h284l-287 -385v-53h382v64h-292l286 385v53h-373v-64zM295 696l-79 -77l-78 77h-69l111 -118h72l111 118h-68z" />
    <glyph glyph-name="florin" unicode="&#x192;" horiz-adv-x="312" 
d="M293 438v64h-99l15 97q4 24 13.5 36.5t30.5 12.5h63v64h-75q-46 0 -71 -27t-32 -75l-16 -108h-104v-64h94l-77 -517q-4 -24 -14 -37t-32 -13h-58v-64h72q46 0 71 29.5t31 73.5l80 528h108z" />
    <glyph glyph-name="uni0218" unicode="&#x218;" horiz-adv-x="546" 
d="M29 208q10 -98 82 -158t178 -60q101 0 162.5 55t61.5 141q0 69 -41.5 114t-127.5 70l-118 35q-57 16 -86 45.5t-29 73.5q0 54 40 87.5t100 33.5q72 0 117 -40.5t56 -112.5h73q-12 98 -78.5 158t-165.5 60q-94 0 -155 -53.5t-61 -139.5q0 -66 42 -112t123 -69l114 -33
q62 -18 92.5 -48.5t30.5 -77.5q0 -55 -41 -88.5t-110 -33.5q-76 0 -124.5 40.5t-60.5 112.5h-74zM229 -201v-33q44 5 69.5 36t25.5 70q0 31 -13.5 48.5t-35.5 17.5q-16 0 -28 -11.5t-12 -27.5q0 -6 1.5 -11t4 -9t6 -7t7.5 -5.5t7.5 -4.5t7 -4.5t6 -4.5t4 -5t1.5 -6
q0 -13 -14.5 -26.5t-36.5 -16.5z" />
    <glyph glyph-name="uni0219" unicode="&#x219;" horiz-adv-x="424" 
d="M227 -10q78 0 125.5 41t47.5 104q0 51 -35 87t-103 54l-79 21q-41 12 -61.5 31.5t-20.5 47.5q0 34 25 55t67 21q46 0 81 -27t44 -74h70q-10 69 -63 114.5t-133 45.5q-70 0 -115.5 -39t-45.5 -103q0 -50 33 -84t97 -51l81 -22q46 -13 66.5 -33.5t20.5 -50.5
q0 -34 -28.5 -56t-75.5 -22q-51 0 -88 27t-47 75h-69q11 -71 67 -116.5t139 -45.5zM168 -201v-33q44 5 69.5 36t25.5 70q0 31 -13.5 48.5t-35.5 17.5q-16 0 -28 -11.5t-12 -27.5q0 -6 1.5 -11t4 -9t6 -7t7.5 -5.5t7.5 -4.5t7 -4.5t6 -4.5t4 -5t1.5 -6q0 -13 -14.5 -26.5
t-36.5 -16.5z" />
    <glyph glyph-name="uni021A" unicode="&#x21a;" horiz-adv-x="538" 
d="M10 634h221v-634h75v634h222v66h-518v-66zM219 -201v-33q44 5 69.5 36t25.5 70q0 31 -13.5 48.5t-35.5 17.5q-16 0 -28 -11.5t-12 -27.5q0 -6 1.5 -11t4 -9t6 -7t7.5 -5.5t7.5 -4.5t7 -4.5t6 -4.5t4 -5t1.5 -6q0 -13 -14.5 -26.5t-36.5 -16.5z" />
    <glyph glyph-name="uni021B" unicode="&#x21b;" horiz-adv-x="313" 
d="M216 0h83v64h-67q-25 0 -38.5 12t-13.5 34v328h119v64h-119v151h-72v-151h-94v-64h94v-339q0 -44 28.5 -71.5t79.5 -27.5zM157 -201v-33q44 5 69.5 36t25.5 70q0 31 -13.5 48.5t-35.5 17.5q-16 0 -28 -11.5t-12 -27.5q0 -6 1.5 -11t4 -9t6 -7t7.5 -5.5t7.5 -4.5t7 -4.5
t6 -4.5t4 -5t1.5 -6q0 -13 -14.5 -26.5t-36.5 -16.5z" />
    <glyph glyph-name="uni0237" unicode="&#x237;" horiz-adv-x="177" 
d="M25 -193q46 0 72.5 26t26.5 66v603h-72v-592q0 -19 -11 -29t-31 -10h-32v-64h47z" />
    <glyph glyph-name="circumflex" unicode="&#x2c6;" horiz-adv-x="510" 
d="M178 578l78 77l78 -77h69l-109 118h-75l-110 -118h69z" />
    <glyph glyph-name="caron" unicode="&#x2c7;" horiz-adv-x="510" 
d="M335 696l-79 -77l-78 77h-69l111 -118h72l111 118h-68z" />
    <glyph glyph-name="breve" unicode="&#x2d8;" horiz-adv-x="510" 
d="M255 625q-27 0 -53 15t-39 61l-52 -16q13 -54 53.5 -82.5t90.5 -28.5t90.5 29t53.5 82l-52 16q-13 -46 -39.5 -61t-52.5 -15z" />
    <glyph glyph-name="dotaccent" unicode="&#x2d9;" horiz-adv-x="257" 
d="M127 591q19 0 32.5 14.5t13.5 33.5t-13.5 33t-32.5 14t-33 -14t-14 -33t14 -33.5t33 -14.5z" />
    <glyph glyph-name="ring" unicode="&#x2da;" horiz-adv-x="510" 
d="M255 562q43 0 73.5 30t30.5 72q0 41 -30.5 71t-73.5 30t-73.5 -30t-30.5 -71q0 -42 30.5 -72t73.5 -30zM255 601q-26 0 -44 18.5t-18 44.5q0 25 18 43t44 18t44 -18t18 -43q0 -26 -18 -44.5t-44 -18.5z" />
    <glyph glyph-name="ogonek" unicode="&#x2db;" horiz-adv-x="510" 
d="M312 0l-33 19q-58 -49 -78 -85t-20 -71q0 -36 23.5 -60t70.5 -24q14 0 27 2t24 5l-7 44q-8 -3 -17.5 -4t-19.5 -1q-23 0 -36.5 13t-13.5 37q0 23 15 52.5t65 72.5z" />
    <glyph glyph-name="tilde" unicode="&#x2dc;" horiz-adv-x="510" 
d="M187 691q-32 0 -55 -24.5t-36 -72.5l50 -11q10 32 20.5 44t23.5 12q4 0 9.5 -2t11.5 -5t12.5 -7t13.5 -8.5t14 -9.5t14.5 -9t15 -7t15 -5t14.5 -2q32 0 54.5 25t35.5 72l-49 12q-10 -33 -20.5 -44.5t-23.5 -11.5q-5 0 -10 2t-11 5t-12.5 7t-13.5 8.5l-14 9t-14.5 8.5
t-15 7t-15 5t-14.5 2z" />
    <glyph glyph-name="hungarumlaut" unicode="&#x2dd;" horiz-adv-x="517" 
d="M222 696l-106 -118h71l117 118h-82zM389 696l-106 -118h71l116 118h-81z" />
    <glyph glyph-name="uni09F3" unicode="&#x9f3;" horiz-adv-x="613" 
d="M183 160v247h69v62h-69v148q0 37 -24 60t-66 23h-59v-65h43q16 0 25.5 -8t9.5 -24v-134h-78v-62h78v-259q0 -18 3.5 -35t11 -33t18.5 -29.5t26 -24.5t33 -19t40 -12.5t47 -4.5q27 0 53 4.5t50 13t45.5 20.5t40.5 27.5t35 34t28.5 39t21.5 43t13.5 47t4.5 50.5
q0 23 -3.5 45t-10.5 42t-17 37.5t-22.5 32.5t-27 27t-31 20.5t-35 13t-37.5 4.5q-25 0 -46 -6.5t-43 -19.5l29 -58q13 8 28 13.5t31 5.5q47 0 80.5 -45.5t33.5 -111.5q0 -20 -3.5 -39t-10.5 -37t-16.5 -34t-21.5 -30t-26.5 -26t-30.5 -21.5t-34 -16t-37 -10t-39 -3.5
q-51 0 -80.5 27t-29.5 81z" />
    <glyph glyph-name="Wgrave" unicode="&#x1e80;" horiz-adv-x="938" 
d="M504 700h-68l-195 -584l-151 584h-80l190 -700h73l196 585l197 -585h73l189 700h-77l-152 -584zM422 894h-89l118 -118h75z" />
    <glyph glyph-name="wgrave" unicode="&#x1e81;" horiz-adv-x="705" 
d="M322 502l-132 -391l-115 391h-75l153 -502h63l137 401l136 -401h63l153 502h-74l-114 -390l-133 390h-62zM305 696h-89l118 -118h75z" />
    <glyph glyph-name="Wacute" unicode="&#x1e82;" horiz-adv-x="938" 
d="M504 700h-68l-195 -584l-151 584h-80l190 -700h73l196 585l197 -585h73l189 700h-77l-152 -584zM515 894l-105 -118h74l120 118h-89z" />
    <glyph glyph-name="wacute" unicode="&#x1e83;" horiz-adv-x="705" 
d="M322 502l-132 -391l-115 391h-75l153 -502h63l137 401l136 -401h63l153 502h-74l-114 -390l-133 390h-62zM398 696l-105 -118h74l120 118h-89z" />
    <glyph glyph-name="Wdieresis" unicode="&#x1e84;" horiz-adv-x="938" 
d="M504 700h-68l-195 -584l-151 584h-80l190 -700h73l196 585l197 -585h73l189 700h-77l-152 -584zM385 789q19 0 33 14.5t14 33.5t-14 33t-33 14t-33 -14t-14 -33t14 -33.5t33 -14.5zM554 789q19 0 32.5 14.5t13.5 33.5t-13.5 33t-32.5 14t-33 -14t-14 -33t14 -33.5
t33 -14.5z" />
    <glyph glyph-name="wdieresis" unicode="&#x1e85;" horiz-adv-x="705" 
d="M322 502l-132 -391l-115 391h-75l153 -502h63l137 401l136 -401h63l153 502h-74l-114 -390l-133 390h-62zM268 591q19 0 33 14.5t14 33.5t-14 33t-33 14t-33 -14t-14 -33t14 -33.5t33 -14.5zM437 591q19 0 32.5 14.5t13.5 33.5t-13.5 33t-32.5 14t-33 -14t-14 -33
t14 -33.5t33 -14.5z" />
    <glyph glyph-name="Ygrave" unicode="&#x1ef2;" horiz-adv-x="593" 
d="M334 0v308l264 392h-85l-215 -324l-216 324h-87l264 -389v-311h75zM251 894h-89l118 -118h75z" />
    <glyph glyph-name="ygrave" unicode="&#x1ef3;" horiz-adv-x="468" 
d="M166 -71q-12 -30 -30.5 -44t-49.5 -14h-45v-64h58q52 0 82 26.5t51 77.5l241 591h-75l-162 -401l-164 401h-77l205 -490zM188 696h-89l118 -118h75z" />
    <glyph glyph-name="uni2002" unicode="&#x2002;" horiz-adv-x="500" 
 />
    <glyph glyph-name="uni2003" unicode="&#x2003;" horiz-adv-x="1000" 
 />
    <glyph glyph-name="uni2009" unicode="&#x2009;" horiz-adv-x="175" 
 />
    <glyph glyph-name="uni200A" unicode="&#x200a;" horiz-adv-x="100" 
 />
    <glyph glyph-name="uni200B" unicode="&#x200b;" horiz-adv-x="0" 
 />
    <glyph glyph-name="endash" unicode="&#x2013;" horiz-adv-x="555" 
d="M37 267h481v64h-481v-64z" />
    <glyph glyph-name="emdash" unicode="&#x2014;" horiz-adv-x="760" 
d="M37 267h686v64h-686v-64z" />
    <glyph glyph-name="uni2015" unicode="&#x2015;" horiz-adv-x="960" 
d="M37 267h886v64h-886v-64z" />
    <glyph glyph-name="quoteleft" unicode="&#x2018;" horiz-adv-x="169" 
d="M132 681v38q-49 -8 -77 -46t-28 -87q0 -34 15 -53.5t40 -19.5q18 0 31.5 13t13.5 32q0 7 -1.5 12.5t-4.5 10t-7 8t-8 6.5t-8 5.5t-8 4.5t-7 4.5t-4.5 5.5t-1.5 7q0 18 16 36.5t39 22.5z" />
    <glyph glyph-name="quoteright" unicode="&#x2019;" horiz-adv-x="169" 
d="M41 553v-38q49 8 77 46t28 87q0 34 -15 53.5t-40 19.5q-18 0 -31.5 -13t-13.5 -32q0 -7 1.5 -12.5t4.5 -10t7 -8t8 -6.5t8 -5.5t8 -4.5t7 -4.5t4.5 -5.5t1.5 -7q0 -18 -16 -36.5t-39 -22.5z" />
    <glyph glyph-name="quotesinglbase" unicode="&#x201a;" horiz-adv-x="169" 
d="M34 -82v-38q49 8 77 46t28 87q0 34 -15 53.5t-40 19.5q-18 0 -31.5 -13t-13.5 -32q0 -7 1.5 -12.5t4.5 -10t7 -8t8 -6.5t8 -5.5t8 -4.5t7 -4.5t4.5 -5.5t1.5 -7q0 -18 -16 -36.5t-39 -22.5z" />
    <glyph glyph-name="quotedblleft" unicode="&#x201c;" horiz-adv-x="310" 
d="M132 679v38q-49 -8 -77 -46t-28 -87q0 -34 15 -53.5t40 -19.5q18 0 31.5 13t13.5 32q0 7 -1.5 12.5t-4.5 10t-7 8t-8 6.5t-8 5.5t-8 4.5t-7 4.5t-4.5 5.5t-1.5 7q0 18 16 36.5t39 22.5zM272 679v38q-49 -8 -77 -46t-28 -87q0 -34 15 -53.5t40 -19.5q18 0 31.5 13t13.5 32
q0 7 -1.5 12.5t-4.5 10t-7 8t-8 6.5t-8 5.5t-8 4.5t-7 4.5t-4.5 5.5t-1.5 7q0 18 16 36.5t39 22.5z" />
    <glyph glyph-name="quotedblright" unicode="&#x201d;" horiz-adv-x="310" 
d="M178 551v-38q49 8 77 46t28 87q0 34 -15 53.5t-40 19.5q-18 0 -31.5 -13t-13.5 -32q0 -7 1.5 -12.5t4.5 -10t7 -8t8 -6.5t8 -5.5t8 -4.5t7 -4.5t4.5 -5.5t1.5 -7q0 -18 -16 -36.5t-39 -22.5zM38 551v-38q49 8 77 46t28 87q0 34 -15 53.5t-40 19.5q-18 0 -31.5 -13
t-13.5 -32q0 -7 1.5 -12.5t4.5 -10t7 -8t8 -6.5t8 -5.5t8 -4.5t7 -4.5t4.5 -5.5t1.5 -7q0 -18 -16 -36.5t-39 -22.5z" />
    <glyph glyph-name="quotedblbase" unicode="&#x201e;" horiz-adv-x="310" 
d="M174 -82v-38q49 8 77 46t28 87q0 34 -15 53.5t-40 19.5q-18 0 -31.5 -13t-13.5 -32q0 -7 1.5 -12.5t4.5 -10t7 -8t8 -6.5t8 -5.5t8 -4.5t7 -4.5t4.5 -5.5t1.5 -7q0 -18 -16 -36.5t-39 -22.5zM34 -82v-38q49 8 77 46t28 87q0 34 -15 53.5t-40 19.5q-18 0 -31.5 -13
t-13.5 -32q0 -7 1.5 -12.5t4.5 -10t7 -8t8 -6.5t8 -5.5t8 -4.5t7 -4.5t4.5 -5.5t1.5 -7q0 -18 -16 -36.5t-39 -22.5z" />
    <glyph glyph-name="dagger" unicode="&#x2020;" horiz-adv-x="405" 
d="M171 0h64v443h127v59h-127v198h-64v-198h-126v-59h126v-443z" />
    <glyph glyph-name="daggerdbl" unicode="&#x2021;" horiz-adv-x="405" 
d="M171 0h64v198h127v59h-127v186h127v59h-127v198h-64v-198h-126v-59h126v-186h-126v-59h126v-198z" />
    <glyph glyph-name="bullet" unicode="&#x2022;" horiz-adv-x="257" 
d="M129 409q-38 0 -65 -27.5t-27 -64.5q0 -38 27 -65t65 -27q37 0 63.5 27t26.5 65q0 37 -26.5 64.5t-63.5 27.5z" />
    <glyph glyph-name="ellipsis" unicode="&#x2026;" horiz-adv-x="488" 
d="M85 87q-19 0 -33.5 -14.5t-14.5 -33.5q0 -20 14.5 -34.5t33.5 -14.5t33.5 14.5t14.5 34.5q0 19 -14.5 33.5t-33.5 14.5zM244 87q-19 0 -33.5 -14.5t-14.5 -33.5q0 -20 14.5 -34.5t33.5 -14.5t33.5 14.5t14.5 34.5q0 19 -14.5 33.5t-33.5 14.5zM404 87q-19 0 -33.5 -14.5
t-14.5 -33.5q0 -20 14.5 -34.5t33.5 -14.5t33.5 14.5t14.5 34.5q0 19 -14.5 33.5t-33.5 14.5z" />
    <glyph glyph-name="guilsinglleft" unicode="&#x2039;" horiz-adv-x="378" 
d="M341 502h-79l-235 -251l235 -251h82l-232 253z" />
    <glyph glyph-name="guilsinglright" unicode="&#x203a;" horiz-adv-x="378" 
d="M32 0h79l235 251l-235 251h-82l232 -253z" />
    <glyph glyph-name="fraction" unicode="&#x2044;" horiz-adv-x="561" 
d="M110 0l384 700h-62l-384 -700h62z" />
    <glyph glyph-name="uni2070" unicode="&#x2070;" horiz-adv-x="359" 
d="M39 458q0 -68 38.5 -109t101.5 -41t102 41t39 109v100q0 68 -39 108.5t-102 40.5t-101.5 -40.5t-38.5 -108.5v-100zM263 460q0 -48 -23 -74.5t-61 -26.5t-61 26.5t-23 74.5v96q0 47 23 74t61 27t61 -26.5t23 -74.5v-96z" />
    <glyph glyph-name="uni2074" unicode="&#x2074;" horiz-adv-x="343" 
d="M211 315h58v98h48v48h-48v239h-74l-172 -244v-43h188v-98zM85 461l126 184v-184h-126z" />
    <glyph glyph-name="uni2075" unicode="&#x2075;" horiz-adv-x="326" 
d="M169 559q-21 0 -40 -6.5t-35 -21.5l5 119h166v50h-214l-9 -209l46 -6q14 13 30.5 19.5t37.5 6.5q36 0 57.5 -21.5t21.5 -53.5q0 -33 -22.5 -56t-56.5 -23q-28 0 -49.5 14t-33.5 39l-46 -25q16 -35 50.5 -56t81.5 -21q57 0 94.5 38t37.5 92q0 51 -34 86t-88 35z" />
    <glyph glyph-name="uni2076" unicode="&#x2076;" horiz-adv-x="344" 
d="M183 657q24 0 44 -12t33 -34l40 30q-19 31 -48.5 48t-69.5 17q-66 0 -105.5 -49.5t-39.5 -137.5v-30q0 -81 39.5 -130.5t104.5 -49.5q55 0 92 38t37 96q0 51 -35 87t-86 36q-30 0 -57.5 -16.5t-38.5 -50.5v21q0 69 25.5 103t64.5 34zM178 358q-33 0 -55 23t-22 57
q0 35 22 58t55 23q34 0 56 -23t22 -58q0 -34 -22 -57t-56 -23z" />
    <glyph glyph-name="uni2077" unicode="&#x2077;" horiz-adv-x="312" 
d="M290 657v43h-267v-50h203l-176 -335h66z" />
    <glyph glyph-name="uni2078" unicode="&#x2078;" horiz-adv-x="339" 
d="M170 308q57 0 94.5 31.5t37.5 80.5q0 34 -21 59t-54 35q28 10 45.5 33t17.5 54q0 44 -34.5 74t-85.5 31q-52 -1 -86.5 -31t-34.5 -74q0 -31 17.5 -54t45.5 -33q-34 -10 -55 -35t-21 -59q0 -49 38.5 -80.5t95.5 -31.5zM170 535q-28 0 -47 17.5t-19 43.5q0 28 19 44.5
t47 16.5t46 -16.5t18 -44.5q0 -26 -18 -43.5t-46 -17.5zM170 489q32 0 54 -18.5t22 -48.5q0 -29 -21.5 -47.5t-54.5 -18.5t-55 18.5t-22 47.5q0 30 22 48.5t55 18.5z" />
    <glyph glyph-name="uni2079" unicode="&#x2079;" horiz-adv-x="344" 
d="M163 358q-23 0 -43 13t-33 36l-46 -26q19 -34 50 -53t73 -19q65 0 104 49.5t39 137.5v30q0 81 -39.5 130.5t-104.5 49.5q-54 0 -91 -38t-37 -96q0 -51 34.5 -87t85.5 -36q30 0 57 17t39 51v-22q0 -69 -25 -103t-63 -34zM166 657q33 0 55 -23t22 -57q0 -35 -22 -58
t-55 -23q-34 0 -56 23t-22 58q0 34 22 57t56 23z" />
    <glyph glyph-name="uni2080" unicode="&#x2080;" horiz-adv-x="359" 
d="M39 143q0 -68 38.5 -109t101.5 -41t102 41t39 109v100q0 68 -39 108.5t-102 40.5t-101.5 -40.5t-38.5 -108.5v-100zM263 145q0 -48 -23 -74.5t-61 -26.5t-61 26.5t-23 74.5v96q0 47 23 74t61 27t61 -26.5t23 -74.5v-96z" />
    <glyph glyph-name="uni2081" unicode="&#x2081;" horiz-adv-x="272" 
d="M245 50h-80v335h-128v-50h71v-285h-80v-50h217v50z" />
    <glyph glyph-name="uni2082" unicode="&#x2082;" horiz-adv-x="307" 
d="M272 279q0 47 -34.5 79.5t-89.5 32.5q-43 0 -76 -20.5t-51 -56.5l45 -25q13 25 33.5 39t45.5 14q30 0 50 -19t20 -48q1 -24 -10 -43.5t-34 -43.5l-139 -151v-37h245v50l-166 -1l103 111q31 33 45 60t13 59z" />
    <glyph glyph-name="uni2083" unicode="&#x2083;" horiz-adv-x="323" 
d="M154 391q-46 0 -79 -21t-49 -55l47 -23q11 23 31 36.5t46 13.5q30 0 49.5 -17.5t19.5 -44.5q0 -25 -17 -42.5t-43 -17.5h-47v-47h51q30 0 48.5 -18t18.5 -45q0 -29 -20.5 -48.5t-54.5 -19.5q-29 0 -51.5 14t-35.5 39l-47 -25q17 -35 52 -56t84 -21q57 0 94 33t37 80
q0 33 -20 59t-52 36q27 11 43 33.5t16 50.5q0 45 -35 75t-86 31z" />
    <glyph glyph-name="uni2084" unicode="&#x2084;" horiz-adv-x="343" 
d="M211 0h58v98h48v48h-48v239h-74l-172 -244v-43h188v-98zM85 146l126 184v-184h-126z" />
    <glyph glyph-name="uni2085" unicode="&#x2085;" horiz-adv-x="326" 
d="M169 244q-21 0 -40 -6.5t-35 -21.5l5 119h166v50h-214l-9 -209l46 -6q14 13 30.5 19.5t37.5 6.5q36 0 57.5 -21.5t21.5 -53.5q0 -33 -22.5 -56t-56.5 -23q-28 0 -49.5 14t-33.5 39l-46 -25q16 -35 50.5 -56t81.5 -21q57 0 94.5 38t37.5 92q0 51 -34 86t-88 35z" />
    <glyph glyph-name="uni2086" unicode="&#x2086;" horiz-adv-x="344" 
d="M183 342q24 0 44 -12t33 -34l40 30q-19 31 -48.5 48t-69.5 17q-66 0 -105.5 -49.5t-39.5 -137.5v-30q0 -81 39.5 -130.5t104.5 -49.5q55 0 92 38t37 96q0 51 -35 87t-86 36q-30 0 -57.5 -16.5t-38.5 -50.5v21q0 69 25.5 103t64.5 34zM178 43q-33 0 -55 23t-22 57
q0 35 22 58t55 23q34 0 56 -23t22 -58q0 -34 -22 -57t-56 -23z" />
    <glyph glyph-name="uni2087" unicode="&#x2087;" horiz-adv-x="312" 
d="M290 342v43h-267v-50h203l-176 -335h66z" />
    <glyph glyph-name="uni2088" unicode="&#x2088;" horiz-adv-x="339" 
d="M170 -7q57 0 94.5 31.5t37.5 80.5q0 34 -21 59t-54 35q28 10 45.5 33t17.5 54q0 44 -34.5 74t-85.5 31q-52 -1 -86.5 -31t-34.5 -74q0 -31 17.5 -54t45.5 -33q-34 -10 -55 -35t-21 -59q0 -49 38.5 -80.5t95.5 -31.5zM170 220q-28 0 -47 17.5t-19 43.5q0 28 19 44.5
t47 16.5t46 -16.5t18 -44.5q0 -26 -18 -43.5t-46 -17.5zM170 174q32 0 54 -18.5t22 -48.5q0 -29 -21.5 -47.5t-54.5 -18.5t-55 18.5t-22 47.5q0 30 22 48.5t55 18.5z" />
    <glyph glyph-name="uni2089" unicode="&#x2089;" horiz-adv-x="344" 
d="M163 43q-23 0 -43 13t-33 36l-46 -26q19 -34 50 -53t73 -19q65 0 104 49.5t39 137.5v30q0 81 -39.5 130.5t-104.5 49.5q-54 0 -91 -38t-37 -96q0 -51 34.5 -87t85.5 -36q30 0 57 17t39 51v-22q0 -69 -25 -103t-63 -34zM166 342q33 0 55 -23t22 -57q0 -35 -22 -58t-55 -23
q-34 0 -56 23t-22 58q0 34 22 57t56 23z" />
    <glyph glyph-name="uni20A9" unicode="&#x20a9;" horiz-adv-x="947" 
d="M12 310v-54h124l70 -256h69l85 256h227l85 -256h69l70 256h124v54h-109l22 82h87v54h-72l69 254h-77l-64 -254h-200l-85 254h-63l-85 -254h-201l-64 254h-78l69 -254h-72v-54h87l22 -82h-109zM423 446l51 150l50 -150h-101zM192 310l-21 82h169l-27 -82h-121zM378 310
l27 82h137l27 -82h-191zM636 310l-27 82h168l-21 -82h-120zM206 256h89l-51 -151zM654 256h88l-38 -151z" />
    <glyph glyph-name="Euro" unicode="&#x20ac;" horiz-adv-x="713" 
d="M16 310v-54h102q6 -29 16.5 -56t24 -51.5t30.5 -45.5t37 -39t42.5 -32t47.5 -23.5t52 -14.5t56 -5q80 0 142 33.5t117 96.5l-58 45q-43 -53 -92.5 -79.5t-107.5 -26.5q-84 0 -146.5 53.5t-84.5 144.5h199l18 54h-226q-1 10 -1.5 20.5t-0.5 20.5t0.5 20.5t1.5 20.5h255
l20 54h-266q22 90 84.5 143t145.5 53q60 0 109.5 -26.5t92.5 -78.5l57 45q-55 63 -116.5 96t-141.5 33q-29 0 -56.5 -5t-52.5 -14.5t-47.5 -23t-42.5 -31.5t-37 -39t-30.5 -45t-24 -51t-16.5 -56h-102v-54h94q-1 -10 -1.5 -20.5t-0.5 -20.5t0.5 -20.5t1.5 -20.5h-94z" />
    <glyph glyph-name="uni20B9" unicode="&#x20b9;" horiz-adv-x="571" 
d="M485 0l-335 296h81q81 0 138.5 48t69.5 119h90v61h-89q-5 34 -21.5 63.5t-41.5 51.5h152v61h-484v-61h182q56 0 94 -33t47 -82h-323v-61h322q-10 -47 -48 -77.5t-92 -30.5h-182v-48l348 -307h92z" />
    <glyph glyph-name="trademark" unicode="&#x2122;" horiz-adv-x="665" 
d="M320 700v-279h45l-1 207l83 -207h34l84 209l-2 -209h47v279h-60l-85 -213l-86 213h-59zM29 700v-40h96v-239h49v239h97v40h-242z" />
    <glyph glyph-name="uni2190" unicode="&#x2190;" horiz-adv-x="1001" 
d="M104 350l273 -375h85l-249 339h709v72h-709l249 339h-85z" />
    <glyph glyph-name="uni2191" unicode="&#x2191;" horiz-adv-x="1000" 
d="M500 735l-375 -273v-85l339 248v-708h72v708l339 -248v85z" />
    <glyph glyph-name="uni2192" unicode="&#x2192;" horiz-adv-x="1001" 
d="M539 725l249 -340h-709v-70h709l-249 -340h84l274 375l-274 375h-84z" />
    <glyph glyph-name="uni2193" unicode="&#x2193;" horiz-adv-x="1000" 
d="M875 240l-340 -249v709h-70v-709l-340 249v-84l375 -274l375 274v84z" />
    <glyph glyph-name="minus" unicode="&#x2212;" horiz-adv-x="516" 
d="M465 390h-414v-59h414v59z" />
    <glyph glyph-name="approxequal" unicode="&#x2248;" horiz-adv-x="516" 
d="M149 436q12 0 24 -2t23.5 -5t23.5 -7t24 -8.5l24 -9t24 -8.5t23.5 -7t23.5 -5t24 -2q25 0 48.5 7t53.5 25v57q-29 -17 -50.5 -25.5t-46.5 -8.5q-12 0 -24 2t-24 5t-24 7t-24 8.5t-24 9.5t-24 9t-24 7t-23.5 5t-23.5 2q-25 0 -49.5 -8t-52.5 -25v-58q28 17 50.5 26t47.5 9
zM149 277q12 0 24 -2t23.5 -5t23.5 -7t24 -8.5t24 -9.5t24 -9t23.5 -7t23.5 -5t24 -2q25 0 48.5 7.5t53.5 25.5v58q-29 -17 -50.5 -26t-46.5 -9q-12 0 -24 2t-24 5t-24 7t-24 8.5l-24 9t-24 8.5t-24 7t-23.5 5t-23.5 2q-25 0 -49.5 -7.5t-52.5 -24.5v-58q28 17 50.5 26
t47.5 9z" />
    <glyph glyph-name="notequal" unicode="&#x2260;" horiz-adv-x="516" 
d="M50 134h69l90 116h256v56h-212l79 101h133v56h-89l90 116h-69l-90 -116h-256v-56h212l-79 -101h-133v-56h89z" />
    <glyph glyph-name="lessequal" unicode="&#x2264;" horiz-adv-x="521" 
d="M451 510v68l-400 -184v-62l400 -184v70l-325 145zM51 244v-68l400 -184v68z" />
    <glyph glyph-name="greaterequal" unicode="&#x2265;" horiz-adv-x="521" 
d="M58 509l326 -147l-326 -145v-69l400 184v62l-400 184v-69zM458 244l-400 -184v-68l400 184v68z" />
    <glyph glyph-name="uni25A0" unicode="&#x25a0;" horiz-adv-x="850" 
d="M775 700h-700v-700h700v700z" />
    <glyph glyph-name="uni25CF" unicode="&#x25cf;" horiz-adv-x="819" 
d="M769 351q0 30 -4.5 58t-13.5 55t-22 51.5t-29.5 47t-36 42t-42 36t-47 29.5t-51.5 22t-55 13.5t-58 4.5t-58.5 -4.5t-55 -13.5t-51.5 -22t-47.5 -29.5t-42 -36t-36 -42t-29.5 -47t-22 -51.5t-13.5 -55t-4.5 -58t4.5 -58.5t13.5 -55t22 -51.5t29.5 -47.5t36 -42t42 -36
t47.5 -29.5t51.5 -22t55 -13.5t58.5 -4.5t58 4.5t55 13.5t51.5 22t47 29.5t42 36t36 42t29.5 47.5t22 51.5t13.5 55t4.5 58.5z" />
    <glyph glyph-name="check" unicode="&#x2713;" horiz-adv-x="1002" 
d="M918 634l-542 -541l-292 291v-101l292 -291l542 541v101z" />
    <glyph glyph-name="close" unicode="&#x2715;" horiz-adv-x="1002" 
d="M861 659l-51 51l-308 -309l-308 309l-51 -51l309 -307l-309 -308l51 -51l308 309l308 -309l51 51l-309 308z" />
    <glyph glyph-name="fi" unicode="&#xfb01;" horiz-adv-x="478" 
d="M14 438h95v-438h72v438h173v-438h72v502h-245v97q0 22 11.5 35t32.5 13h141v64h-154q-48 0 -75.5 -28.5t-27.5 -72.5v-108h-95v-64z" />
    <glyph glyph-name="fl" unicode="&#xfb02;" horiz-adv-x="478" 
d="M426 0v711h-214q-48 0 -75.5 -28.5t-27.5 -72.5v-108h-95v-64h95v-438h72v438h108v64h-108v97q0 22 11.5 35t32.5 13h129v-647h72z" />
    <glyph glyph-name="Uber" horiz-adv-x="2119" 
d="M154 268v432h-105v-438q0 -31 5 -59t15 -53.5t24 -47t32 -39.5t39 -32t45 -23.5t50.5 -14.5t54.5 -5q54 0 102 20t83 57v-65h104v700h-105v-432q0 -83 -50 -134.5t-122 -51.5q-73 0 -122.5 51t-49.5 135zM681 0h100v64q34 -35 81.5 -55.5t100.5 -20.5q25 0 48.5 4.5
t45.5 12.5t42 19.5t37.5 26t32 32t26 37t20 41.5t12.5 45.5t4 47.5q0 25 -4 48.5t-12.5 45t-20 41.5t-26 37.5t-32 32t-37.5 26t-42 19.5t-45.5 12.5t-48.5 4.5q-53 0 -100 -20.5t-81 -55.5v255h-101v-700zM780 254q0 19 3.5 36t10.5 33t16.5 30.5t21.5 26.5t26 21.5
t29.5 16t33 10t35.5 3.5t35 -3.5t33 -10t30 -16t25.5 -21.5t21 -26.5t16.5 -30.5t10.5 -33t3.5 -36q0 -18 -3.5 -35.5t-10.5 -33.5t-16.5 -30t-21 -26t-25.5 -21.5t-30 -16.5t-33 -10.5t-35 -3.5t-35.5 3.5t-33.5 10.5t-30 16.5t-26 21.5t-21.5 26t-16 30t-10 33.5
t-3.5 35.5zM1271 255q0 -25 4 -49t12.5 -46t20 -41.5t26 -37t32.5 -32t38 -25.5t42 -19t46 -12t50 -4q69 0 125.5 29t94.5 80l-73 54q-28 -38 -65.5 -56.5t-81.5 -18.5q-64 0 -111.5 41.5t-57.5 103.5h415v33q0 25 -4 49t-11.5 46t-18 41.5t-24.5 36.5t-30.5 31.5t-35 25.5
t-40 19t-44 12t-47.5 4t-48.5 -4.5t-45 -12.5t-41 -19.5t-36.5 -26.5t-31 -32.5t-25 -37t-19 -41t-12 -44.5t-4 -47zM1531 432q56 0 99 -36t56 -94h-311q13 58 56.5 94t99.5 36zM2101 420v94h-35q-42 0 -72.5 -18t-49.5 -49v63h-100v-510h101v290q0 59 32.5 94.5t81.5 35.5
h42z" />
    <glyph glyph-name="idotaccent" horiz-adv-x="177" 
d="M89 591q19 0 33 14t14 33q0 20 -14 34t-33 14t-33.5 -14t-14.5 -34q0 -19 14.5 -33t33.5 -14zM124 502h-72v-502h72v502z" />
    <glyph glyph-name="cordinal" horiz-adv-x="384" 
d="M89 523q0 54 37.5 91.5t88.5 37.5q33 0 60 -14.5t45 -39.5l46 33q-25 34 -63 55.5t-88 21.5q-20 0 -38.5 -3.5t-35.5 -10.5t-32 -17t-28 -22.5t-23 -27.5t-17.5 -31.5t-11 -35t-3.5 -37.5t3.5 -37t11 -35t17.5 -31.5t23 -27t28 -22.5t32 -17.5t35.5 -11t38.5 -3.5
q50 0 88 21t63 55l-46 33q-18 -25 -45 -39t-60 -14q-51 0 -88.5 37.5t-37.5 91.5z" />
    <glyph glyph-name="a.school" horiz-adv-x="614" 
d="M561 0v502h-72v-84q-34 43 -84.5 68t-110.5 25q-24 0 -47 -4t-44.5 -12t-41 -19t-36.5 -25.5t-31.5 -31.5t-25.5 -36t-19 -40.5t-12 -44.5t-4 -47t4 -47t12 -44.5t19 -41t25.5 -36.5t31.5 -31.5t36.5 -25.5t41 -19t44.5 -12t47 -4q60 0 110.5 24.5t84.5 67.5v-82h72z
M490 251q0 -20 -4 -39.5t-11 -37t-17.5 -33.5t-23.5 -29.5t-28.5 -24t-32.5 -18t-36 -11.5t-39 -4t-39 4t-36.5 11.5t-33 18t-28.5 24t-23.5 29t-17.5 33.5t-11 37t-4 40q0 20 4 39.5t11 37t17.5 33.5t23.5 29t28.5 23.5t33 18t36.5 11.5t39 4t38.5 -4t36 -11.5t33 -18
t28.5 -23.5t23.5 -29t17.5 -33.5t11 -37t4 -39.5z" />
    <glyph glyph-name="aacute.school" horiz-adv-x="614" 
d="M561 0v502h-72v-84q-34 43 -84.5 68t-110.5 25q-24 0 -47 -4t-44.5 -12t-41 -19t-36.5 -25.5t-31.5 -31.5t-25.5 -36t-19 -40.5t-12 -44.5t-4 -47t4 -47t12 -44.5t19 -41t25.5 -36.5t31.5 -31.5t36.5 -25.5t41 -19t44.5 -12t47 -4q60 0 110.5 24.5t84.5 67.5v-82h72z
M490 251q0 -20 -4 -39.5t-11 -37t-17.5 -33.5t-23.5 -29.5t-28.5 -24t-32.5 -18t-36 -11.5t-39 -4t-39 4t-36.5 11.5t-33 18t-28.5 24t-23.5 29t-17.5 33.5t-11 37t-4 40q0 20 4 39.5t11 37t17.5 33.5t23.5 29t28.5 23.5t33 18t36.5 11.5t39 4t38.5 -4t36 -11.5t33 -18
t28.5 -23.5t23.5 -29t17.5 -33.5t11 -37t4 -39.5zM345 696l-105 -118h74l120 118h-89z" />
    <glyph glyph-name="abreve.school" horiz-adv-x="614" 
d="M561 0v502h-72v-84q-34 43 -84.5 68t-110.5 25q-24 0 -47 -4t-44.5 -12t-41 -19t-36.5 -25.5t-31.5 -31.5t-25.5 -36t-19 -40.5t-12 -44.5t-4 -47t4 -47t12 -44.5t19 -41t25.5 -36.5t31.5 -31.5t36.5 -25.5t41 -19t44.5 -12t47 -4q60 0 110.5 24.5t84.5 67.5v-82h72z
M490 251q0 -20 -4 -39.5t-11 -37t-17.5 -33.5t-23.5 -29.5t-28.5 -24t-32.5 -18t-36 -11.5t-39 -4t-39 4t-36.5 11.5t-33 18t-28.5 24t-23.5 29t-17.5 33.5t-11 37t-4 40q0 20 4 39.5t11 37t17.5 33.5t23.5 29t28.5 23.5t33 18t36.5 11.5t39 4t38.5 -4t36 -11.5t33 -18
t28.5 -23.5t23.5 -29t17.5 -33.5t11 -37t4 -39.5zM300 625q-27 0 -53 15t-39 61l-52 -16q13 -54 53.5 -82.5t90.5 -28.5t90.5 29t53.5 82l-52 16q-13 -46 -39.5 -61t-52.5 -15z" />
    <glyph glyph-name="acircumflex.school" horiz-adv-x="614" 
d="M561 0v502h-72v-84q-34 43 -84.5 68t-110.5 25q-24 0 -47 -4t-44.5 -12t-41 -19t-36.5 -25.5t-31.5 -31.5t-25.5 -36t-19 -40.5t-12 -44.5t-4 -47t4 -47t12 -44.5t19 -41t25.5 -36.5t31.5 -31.5t36.5 -25.5t41 -19t44.5 -12t47 -4q60 0 110.5 24.5t84.5 67.5v-82h72z
M490 251q0 -20 -4 -39.5t-11 -37t-17.5 -33.5t-23.5 -29.5t-28.5 -24t-32.5 -18t-36 -11.5t-39 -4t-39 4t-36.5 11.5t-33 18t-28.5 24t-23.5 29t-17.5 33.5t-11 37t-4 40q0 20 4 39.5t11 37t17.5 33.5t23.5 29t28.5 23.5t33 18t36.5 11.5t39 4t38.5 -4t36 -11.5t33 -18
t28.5 -23.5t23.5 -29t17.5 -33.5t11 -37t4 -39.5zM222 578l78 77l78 -77h69l-109 118h-75l-110 -118h69z" />
    <glyph glyph-name="adieresis.school" horiz-adv-x="614" 
d="M561 0v502h-72v-84q-34 43 -84.5 68t-110.5 25q-24 0 -47 -4t-44.5 -12t-41 -19t-36.5 -25.5t-31.5 -31.5t-25.5 -36t-19 -40.5t-12 -44.5t-4 -47t4 -47t12 -44.5t19 -41t25.5 -36.5t31.5 -31.5t36.5 -25.5t41 -19t44.5 -12t47 -4q60 0 110.5 24.5t84.5 67.5v-82h72z
M490 251q0 -20 -4 -39.5t-11 -37t-17.5 -33.5t-23.5 -29.5t-28.5 -24t-32.5 -18t-36 -11.5t-39 -4t-39 4t-36.5 11.5t-33 18t-28.5 24t-23.5 29t-17.5 33.5t-11 37t-4 40q0 20 4 39.5t11 37t17.5 33.5t23.5 29t28.5 23.5t33 18t36.5 11.5t39 4t38.5 -4t36 -11.5t33 -18
t28.5 -23.5t23.5 -29t17.5 -33.5t11 -37t4 -39.5zM216 591q19 0 33 14.5t14 33.5t-14 33t-33 14t-33 -14t-14 -33t14 -33.5t33 -14.5zM385 591q19 0 32.5 14.5t13.5 33.5t-13.5 33t-32.5 14t-33 -14t-14 -33t14 -33.5t33 -14.5z" />
    <glyph glyph-name="agrave.school" horiz-adv-x="614" 
d="M561 0v502h-72v-84q-34 43 -84.5 68t-110.5 25q-24 0 -47 -4t-44.5 -12t-41 -19t-36.5 -25.5t-31.5 -31.5t-25.5 -36t-19 -40.5t-12 -44.5t-4 -47t4 -47t12 -44.5t19 -41t25.5 -36.5t31.5 -31.5t36.5 -25.5t41 -19t44.5 -12t47 -4q60 0 110.5 24.5t84.5 67.5v-82h72z
M490 251q0 -20 -4 -39.5t-11 -37t-17.5 -33.5t-23.5 -29.5t-28.5 -24t-32.5 -18t-36 -11.5t-39 -4t-39 4t-36.5 11.5t-33 18t-28.5 24t-23.5 29t-17.5 33.5t-11 37t-4 40q0 20 4 39.5t11 37t17.5 33.5t23.5 29t28.5 23.5t33 18t36.5 11.5t39 4t38.5 -4t36 -11.5t33 -18
t28.5 -23.5t23.5 -29t17.5 -33.5t11 -37t4 -39.5zM253 696h-89l118 -118h75z" />
    <glyph glyph-name="amacron.school" horiz-adv-x="614" 
d="M561 0v502h-72v-84q-34 43 -84.5 68t-110.5 25q-24 0 -47 -4t-44.5 -12t-41 -19t-36.5 -25.5t-31.5 -31.5t-25.5 -36t-19 -40.5t-12 -44.5t-4 -47t4 -47t12 -44.5t19 -41t25.5 -36.5t31.5 -31.5t36.5 -25.5t41 -19t44.5 -12t47 -4q60 0 110.5 24.5t84.5 67.5v-82h72z
M490 251q0 -20 -4 -39.5t-11 -37t-17.5 -33.5t-23.5 -29.5t-28.5 -24t-32.5 -18t-36 -11.5t-39 -4t-39 4t-36.5 11.5t-33 18t-28.5 24t-23.5 29t-17.5 33.5t-11 37t-4 40q0 20 4 39.5t11 37t17.5 33.5t23.5 29t28.5 23.5t33 18t36.5 11.5t39 4t38.5 -4t36 -11.5t33 -18
t28.5 -23.5t23.5 -29t17.5 -33.5t11 -37t4 -39.5zM426 658h-252v-53h252v53z" />
    <glyph glyph-name="aogonek.school" horiz-adv-x="614" 
d="M561 0v502h-72v-84q-34 43 -84.5 68t-110.5 25q-24 0 -47 -4t-44.5 -12t-41 -19t-36.5 -25.5t-31.5 -31.5t-25.5 -36t-19 -40.5t-12 -44.5t-4 -47t4 -47t12 -44.5t19 -41t25.5 -36.5t31.5 -31.5t36.5 -25.5t41 -19t44.5 -12t47 -4q60 0 110.5 24.5t84.5 67.5v-82h17
q-45 -42 -60.5 -74t-15.5 -63q0 -36 23.5 -60t70.5 -24q14 0 27 2t24 5l-7 44q-8 -3 -17.5 -4t-19.5 -1q-23 0 -36.5 13t-13.5 37q0 23 15 52.5t65 72.5zM490 251q0 -20 -4 -39.5t-11 -37t-17.5 -33.5t-23.5 -29.5t-28.5 -24t-32.5 -18t-36 -11.5t-39 -4t-39 4t-36.5 11.5
t-33 18t-28.5 24t-23.5 29t-17.5 33.5t-11 37t-4 40q0 20 4 39.5t11 37t17.5 33.5t23.5 29t28.5 23.5t33 18t36.5 11.5t39 4t38.5 -4t36 -11.5t33 -18t28.5 -23.5t23.5 -29t17.5 -33.5t11 -37t4 -39.5z" />
    <glyph glyph-name="aring.school" horiz-adv-x="614" 
d="M561 0v502h-72v-84q-34 43 -84.5 68t-110.5 25q-24 0 -47 -4t-44.5 -12t-41 -19t-36.5 -25.5t-31.5 -31.5t-25.5 -36t-19 -40.5t-12 -44.5t-4 -47t4 -47t12 -44.5t19 -41t25.5 -36.5t31.5 -31.5t36.5 -25.5t41 -19t44.5 -12t47 -4q60 0 110.5 24.5t84.5 67.5v-82h72z
M490 251q0 -20 -4 -39.5t-11 -37t-17.5 -33.5t-23.5 -29.5t-28.5 -24t-32.5 -18t-36 -11.5t-39 -4t-39 4t-36.5 11.5t-33 18t-28.5 24t-23.5 29t-17.5 33.5t-11 37t-4 40q0 20 4 39.5t11 37t17.5 33.5t23.5 29t28.5 23.5t33 18t36.5 11.5t39 4t38.5 -4t36 -11.5t33 -18
t28.5 -23.5t23.5 -29t17.5 -33.5t11 -37t4 -39.5zM300 562q43 0 73.5 30t30.5 72q0 41 -30.5 71t-73.5 30t-73.5 -30t-30.5 -71q0 -42 30.5 -72t73.5 -30zM300 601q-26 0 -44 18.5t-18 44.5q0 25 18 43t44 18t44 -18t18 -43q0 -26 -18 -44.5t-44 -18.5z" />
    <glyph glyph-name="atilde.school" horiz-adv-x="614" 
d="M561 0v502h-72v-84q-34 43 -84.5 68t-110.5 25q-24 0 -47 -4t-44.5 -12t-41 -19t-36.5 -25.5t-31.5 -31.5t-25.5 -36t-19 -40.5t-12 -44.5t-4 -47t4 -47t12 -44.5t19 -41t25.5 -36.5t31.5 -31.5t36.5 -25.5t41 -19t44.5 -12t47 -4q60 0 110.5 24.5t84.5 67.5v-82h72z
M490 251q0 -20 -4 -39.5t-11 -37t-17.5 -33.5t-23.5 -29.5t-28.5 -24t-32.5 -18t-36 -11.5t-39 -4t-39 4t-36.5 11.5t-33 18t-28.5 24t-23.5 29t-17.5 33.5t-11 37t-4 40q0 20 4 39.5t11 37t17.5 33.5t23.5 29t28.5 23.5t33 18t36.5 11.5t39 4t38.5 -4t36 -11.5t33 -18
t28.5 -23.5t23.5 -29t17.5 -33.5t11 -37t4 -39.5zM239 691q-32 0 -55 -24.5t-36 -72.5l50 -11q10 32 20.5 44t23.5 12q4 0 9.5 -2t11.5 -5t12.5 -7t13.5 -8.5t14 -9.5t14.5 -9t15 -7t15 -5t14.5 -2q32 0 54.5 25t35.5 72l-49 12q-10 -33 -20.5 -44.5t-23.5 -11.5q-5 0 -10 2
t-11 5t-12.5 7t-13.5 8.5l-14 9t-14.5 8.5t-15 7t-15 5t-14.5 2z" />
    <glyph glyph-name="caronSlovak" horiz-adv-x="177" 
d="M33 520h55l38 180h-72z" />
    <glyph glyph-name="uni00200326" horiz-adv-x="217" 
d="M53 -201v-33q44 5 69.5 36t25.5 70q0 31 -13.5 48.5t-35.5 17.5q-16 0 -28 -11.5t-12 -27.5q0 -6 1.5 -11t4 -9t6 -7t7.5 -5.5t7.5 -4.5t7 -4.5t6 -4.5t4 -5t1.5 -6q0 -13 -14.5 -26.5t-36.5 -16.5z" />
    <glyph glyph-name="colon.alt" horiz-adv-x="169" 
d="M85 220q-19 0 -33.5 -14.5t-14.5 -33.5q0 -21 14.5 -35t33.5 -14t33.5 14t14.5 35q0 19 -14.5 33.5t-33.5 14.5zM85 545q-19 0 -33.5 -14.5t-14.5 -33.5q0 -21 14.5 -35t33.5 -14t33.5 14t14.5 35q0 19 -14.5 33.5t-33.5 14.5z" />
    <glyph glyph-name="reversequoteleft" horiz-adv-x="169" 
d="M135 553q-23 4 -39 22.5t-16 36.5q0 4 1.5 7t4.5 5.5t7 4.5t8 4.5t8 5.5t8 6.5t7 8t4.5 10t1.5 12.5q0 19 -13.5 32t-31.5 13q-25 0 -40 -19.5t-15 -53.5q0 -49 28 -87t77 -46v38z" />
    <glyph glyph-name="reversequotedblleft" horiz-adv-x="310" 
d="M135 553q-23 4 -39 22.5t-16 36.5q0 4 1.5 7t4.5 5.5t7 4.5t8 4.5t8 5.5t8 6.5t7 8t4.5 10t1.5 12.5q0 19 -13.5 32t-31.5 13q-25 0 -40 -19.5t-15 -53.5q0 -49 28 -87t77 -46v38zM276 553q-23 4 -39 22.5t-16 36.5q0 4 1.5 7t4.5 5.5t7 4.5t8 4.5t8 5.5t8 6.5t7 8
t4.5 10t1.5 12.5q0 19 -13.5 32t-31.5 13q-25 0 -40 -19.5t-15 -53.5q0 -49 28 -87t77 -46v38z" />
    <glyph glyph-name="at.cap" horiz-adv-x="807" 
d="M390 171q40 0 75 17.5t57 48.5q13 -28 39 -42t61 -14q14 0 27.5 3t26.5 9.5t24.5 15.5t21.5 21t18 27t14 32.5t9 37.5t3 42q0 33 -5.5 64t-16 59t-26 53.5t-35 47.5t-43 40.5t-50 33t-56.5 24.5t-62 15t-67 5q-30 0 -59 -4.5t-56 -13.5t-51.5 -22t-47 -29.5t-42 -36
t-36 -42t-29.5 -47.5t-22 -52t-13.5 -56t-4.5 -59t4.5 -58.5t13.5 -55.5t22 -52t29 -47t36 -42t42 -36t47 -29t52 -22t55.5 -13.5t58.5 -4.5q70 0 132 22t111 62l-35 37q-41 -34 -95.5 -53.5t-114.5 -19.5q-26 0 -50 4t-47 11.5t-44 19t-40 25.5t-35.5 31t-30 36t-24.5 40.5
t-18.5 45t-11.5 48.5t-4 51t4 51t11.5 48.5t18.5 45.5t24.5 41.5t30 36.5t35.5 31t40.5 25t44 19t47 12t50.5 4q30 0 58 -4.5t53.5 -13t48.5 -21t42.5 -28t36.5 -34.5t30 -41t22 -46.5t13.5 -51.5t4.5 -56q0 -59 -24.5 -97.5t-61.5 -38.5q-28 0 -42.5 16.5t-14.5 39.5v223
h-60v-44q-22 24 -53 37.5t-66 13.5q-72 0 -122.5 -50.5t-50.5 -122.5t50.5 -122.5t122.5 -50.5zM394 225q-49 0 -82.5 35t-33.5 84t33.5 83.5t82.5 34.5q48 0 82 -34.5t34 -83.5t-34 -84t-82 -35z" />
    <glyph glyph-name="dollar.alt" horiz-adv-x="546" 
d="M202 336l111 -33q59 -17 86.5 -45t27.5 -70q0 -51 -37 -82t-103 -31q-72 0 -118.5 38.5t-56.5 104.5h-72q9 -81 64.5 -134t138.5 -65v-83h60v80q90 4 143 53.5t53 126.5q0 65 -40.5 107t-118.5 66l-115 35q-53 16 -79.5 42.5t-26.5 66.5q0 50 38 81.5t95 31.5
q70 0 114 -38t54 -105h71q-9 80 -59.5 133t-128.5 66v79h-60v-75q-84 -3 -140 -51.5t-56 -126.5q0 -61 39.5 -105t115.5 -67z" />
    <glyph glyph-name="NTD" horiz-adv-x="1640" 
d="M1320 309l37 -11v-223q-49 10 -80.5 42.5t-39.5 83.5h-66q8 -75 59 -124t127 -60v-76h54v73q84 3 134.5 49t50.5 118q0 59 -38 97.5t-111 60.5l-36 11v219q45 -10 73.5 -42.5t35.5 -82.5h66q-8 75 -55.5 123.5t-119.5 60.5v72h-54v-69q-79 -3 -131 -47.5t-52 -117.5
q0 -57 37 -96t109 -61zM122 0l-1 547l390 -547h75v644h-65l1 -546l-389 546h-77v-644h66zM649 583h205v-583h69v583h203v61h-477v-61zM1341 368q-51 16 -76.5 40.5t-25.5 63.5q0 43 33.5 71.5t84.5 30.5v-211zM1422 282q56 -17 82.5 -43t26.5 -65q0 -45 -31.5 -72.5
t-88.5 -30.5v214z" />
    <glyph glyph-name=".ttfautohint" horiz-adv-x="850" 
d="M0 0z" />
    </font>
</defs>
</svg>
