<?xml version="1.0" standalone="no"?>
<!DOCTYPE svg PUBLIC "-//W3C//DTD SVG 1.1//EN" "http://www.w3.org/Graphics/SVG/1.1/DTD/svg11.dtd" >
<svg xmlns="http://www.w3.org/2000/svg" xmlns:xlink="http://www.w3.org/1999/xlink" version="1.1">
<metadata>
Created by FontForge 20201107 at Tue Mar 22 23:55:23 2022
 By 
(c) 2018 Uber Technologies, Inc. All rights reserved.
</metadata>
<defs>
<font id="UberMove-Medium" horiz-adv-x="545" >
  <font-face 
    font-family="Uber Move Medium"
    font-weight="500"
    font-stretch="normal"
    units-per-em="1000"
    panose-1="2 1 6 3 3 2 1 6 3 3"
    ascent="800"
    descent="-200"
    x-height="510"
    cap-height="700"
    bbox="-65 -253 2101 969"
    underline-thickness="50"
    underline-position="-125"
    unicode-range="U+000D-FB02"
  />
<missing-glyph horiz-adv-x="514" 
d="M60 -100h394v850h-394v-850z" />
    <glyph glyph-name=".notdef" horiz-adv-x="514" 
d="M60 -100h394v850h-394v-850z" />
    <glyph glyph-name="uni0000" horiz-adv-x="200" 
 />
    <glyph glyph-name="uni0000" horiz-adv-x="200" 
 />
    <glyph glyph-name="uni000D" unicode="&#xd;" horiz-adv-x="200" 
 />
    <glyph glyph-name="space" unicode=" " horiz-adv-x="200" 
 />
    <glyph glyph-name="exclam" unicode="!" horiz-adv-x="194" 
d="M141 187l7 513h-101l7 -513h87zM98 110q-25 0 -42.5 -17t-17.5 -42t17.5 -42.5t42.5 -17.5t42 17.5t17 42.5t-17 42t-42 17z" />
    <glyph glyph-name="quotedbl" unicode="&#x22;" horiz-adv-x="359" 
d="M64 497h80l7 235h-94zM215 497h80l7 235h-94z" />
    <glyph glyph-name="numbersign" unicode="#" horiz-adv-x="674" 
d="M70 0h92l60 209h150l-60 -209h92l60 209h134v75h-113l38 133h125v74h-104l60 209h-92l-60 -209h-150l60 209h-92l-60 -209h-134v-74h113l-38 -133h-125v-75h104zM243 284l38 133h150l-38 -133h-150z" />
    <glyph glyph-name="dollar" unicode="$" horiz-adv-x="569" 
d="M212 321l34 -9v-208q-45 11 -72 42t-34 76h-99q7 -81 63.5 -136t141.5 -69v-81h76v78q96 5 151 57.5t55 129.5q0 69 -42 113t-128 67l-36 10v204q39 -12 63.5 -41.5t32.5 -72.5h99q-10 79 -62.5 133t-132.5 68v81h-76v-77q-87 -5 -144.5 -55t-57.5 -129q0 -68 42 -113
t126 -68zM240 410q-48 13 -73 36.5t-25 60.5q0 40 29 65.5t75 29.5v-194zM332 292q49 -15 73.5 -39.5t24.5 -59.5q0 -39 -28 -65t-80 -30v197z" />
    <glyph glyph-name="percent" unicode="%" horiz-adv-x="827" 
d="M212 363q18 0 34.5 3.5t32 10t29.5 16t25.5 21.5t21 26t16 30t10 33.5t3.5 35.5q0 17 -3.5 33.5t-10 31.5t-15.5 29t-20.5 25.5t-25.5 21t-29.5 16.5t-32.5 10.5t-35 3.5q-19 0 -36 -3.5t-33 -10.5t-29.5 -16.5t-25.5 -21t-21 -25.5t-15.5 -29t-10 -31.5t-3.5 -33.5
q0 -73 50.5 -124.5t123.5 -51.5zM263 0l381 700h-81l-380 -700h80zM212 432q-43 0 -73 32t-30 75q0 41 30.5 71.5t72.5 30.5q40 0 70.5 -30.5t30.5 -71.5q0 -43 -30 -75t-71 -32zM615 337q-18 0 -34.5 -3.5t-32 -10t-29.5 -16t-25.5 -21.5t-21 -26t-16 -30t-10 -33.5
t-3.5 -35.5q0 -17 3.5 -33.5t10 -31.5t15.5 -29t21 -25.5t25.5 -21t29 -16.5t32.5 -10.5t35 -3.5q19 0 36 3.5t33 10.5t29.5 16.5t25.5 21t21 25.5t15.5 29t10 31.5t3.5 33.5q0 73 -50.5 124.5t-123.5 51.5zM615 268q43 0 73 -32t30 -75q0 -41 -30 -71.5t-73 -30.5
q-40 0 -70.5 30.5t-30.5 71.5q0 43 30 75t71 32z" />
    <glyph glyph-name="ampersand" unicode="&#x26;" horiz-adv-x="645" 
d="M473 52q26 -29 51.5 -40.5t61.5 -11.5h54v91h-36q-16 0 -30 7t-29 23l-36 39l122 184l-78 46l-105 -164l-125 137l22 12q63 34 93 75t30 95q0 72 -51.5 118t-131.5 46q-81 0 -133 -49t-52 -124q0 -40 17.5 -77t56.5 -80l-9 -5q-75 -38 -108.5 -84t-33.5 -110
q0 -21 4.5 -40t12.5 -36.5t20 -32.5t27 -28t32.5 -23t38 -17.5t43 -11t46.5 -3.5q61 0 110 21t92 69zM254 438q-28 30 -40.5 54t-12.5 47q0 37 23.5 60.5t60.5 23.5q35 0 59 -24t24 -59q0 -31 -17.5 -54t-55.5 -43l-31 -16zM127 184q0 35 20 63.5t62 50.5l26 15l155 -170
q-31 -34 -64 -49.5t-73 -15.5q-54 0 -90 30.5t-36 75.5z" />
    <glyph glyph-name="quotesingle" unicode="'" horiz-adv-x="208" 
d="M64 497h80l7 235h-94z" />
    <glyph glyph-name="parenleft" unicode="(" horiz-adv-x="382" 
d="M148 333q0 135 56.5 239.5t155.5 161.5l-49 71q-122 -69 -190.5 -192t-68.5 -280t68.5 -280.5t190.5 -191.5l50 70q-99 57 -156 161.5t-57 240.5z" />
    <glyph glyph-name="parenright" unicode=")" horiz-adv-x="382" 
d="M235 332q0 -135 -56.5 -239.5t-155.5 -161.5l49 -71q122 69 190.5 192t68.5 280t-68.5 280.5t-190.5 191.5l-50 -70q99 -57 156 -161.5t57 -240.5z" />
    <glyph glyph-name="asterisk" unicode="*" horiz-adv-x="440" 
d="M364 388l35 57l-117 71l115 69l-35 57l-110 -68l1 126h-66l1 -127l-111 69l-34 -57l115 -69l-117 -71l34 -57l113 70l-1 -128h66l-1 128z" />
    <glyph glyph-name="plus" unicode="+" horiz-adv-x="531" 
d="M306 138v180h177v81h-177v176h-81v-176h-177v-81h177v-180h81z" />
    <glyph glyph-name="comma" unicode="," horiz-adv-x="195" 
d="M38 -86v-49q58 10 93 54t35 102q0 43 -19.5 67.5t-51.5 24.5q-23 0 -40.5 -17t-17.5 -41q0 -8 1.5 -14.5t4.5 -12t7 -9.5t8.5 -7.5t9.5 -6.5t9.5 -6t8.5 -5.5t7 -5t4.5 -5.5t1.5 -7q0 -19 -17.5 -38.5t-43.5 -23.5z" />
    <glyph glyph-name="hyphen" unicode="-" horiz-adv-x="412" 
d="M34 255h344v87h-344v-87z" />
    <glyph glyph-name="period" unicode="." horiz-adv-x="195" 
d="M98 114q-25 0 -43.5 -18.5t-18.5 -43.5q0 -26 18.5 -44t43.5 -18q26 0 44 18t18 44q0 25 -18 43.5t-44 18.5z" />
    <glyph glyph-name="slash" unicode="/" horiz-adv-x="417" 
d="M108 0l304 700h-102l-304 -700h102z" />
    <glyph glyph-name="zero" unicode="0" horiz-adv-x="629" 
d="M47 266q0 -125 73.5 -201.5t194.5 -76.5t194.5 76.5t73.5 201.5v169q0 125 -73.5 201t-194.5 76t-194.5 -76t-73.5 -201v-169zM482 269q0 -89 -45 -140.5t-122 -51.5t-122 52t-45 140v163q0 88 45 139.5t122 51.5t122 -51.5t45 -139.5v-163z" />
    <glyph glyph-name="one" unicode="1" horiz-adv-x="464" 
d="M438 90h-155v610h-239v-90h138v-520h-154v-90h410v90z" />
    <glyph glyph-name="two" unicode="2" horiz-adv-x="526" 
d="M484 503q0 22 -4.5 43t-13 39.5t-20.5 35t-27.5 30.5t-34 25t-39.5 18.5t-44.5 11.5t-48.5 4q-72 0 -132.5 -30t-103.5 -85l69 -60q32 43 72 65t86 22q59 0 99 -36.5t40 -90.5q0 -44 -20.5 -78t-63.5 -78l-267 -276v-63h460v89h-309l188 191q59 60 87 110.5t27 112.5z
" />
    <glyph glyph-name="three" unicode="3" horiz-adv-x="551" 
d="M260 710q-77 0 -134.5 -30t-98.5 -81l68 -59q29 37 68.5 60.5t88.5 23.5q57 0 95 -32.5t38 -80.5q0 -46 -32 -77t-83 -31h-84v-87h97q57 0 92 -34.5t35 -83.5q0 -51 -41.5 -87t-104.5 -36q-55 0 -100.5 24.5t-76.5 64.5l-71 -63q43 -51 106 -81.5t147 -30.5q23 0 45 3.5
t42.5 10t38.5 15.5t34 21t29 26t23 29.5t17.5 33t11 36t3.5 37.5q0 54 -30.5 98.5t-79.5 66.5q39 23 62 61.5t23 84.5q0 21 -4.5 40t-13 37t-20.5 34t-27.5 29.5t-33.5 24t-39 18t-43.5 11.5t-46.5 4z" />
    <glyph glyph-name="four" unicode="4" horiz-adv-x="598" 
d="M385 0h101v178h92v90h-92v432h-130l-332 -447v-75h361v-178zM143 268l242 328v-328h-242z" />
    <glyph glyph-name="five" unicode="5" horiz-adv-x="563" 
d="M288 447q-39 0 -72 -9t-63 -28l8 200h314v90h-403l-16 -377l82 -12q28 25 59 37t72 12q64 0 107 -39.5t43 -99.5q0 -61 -43.5 -103.5t-107.5 -42.5q-50 0 -94 23t-78 67l-72 -63q46 -56 108.5 -84.5t137.5 -28.5q24 0 46.5 3.5t43 11t39.5 17.5t35 23t30 28.5t24.5 33
t18 37t11.5 40.5t4 44q0 21 -3.5 40.5t-10.5 37.5t-17 34t-23 30.5t-28 26.5t-32.5 21.5t-36.5 16t-40 10t-43 3.5z" />
    <glyph glyph-name="six" unicode="6" horiz-adv-x="601" 
d="M315 -11q23 0 45 4t42 11t38.5 17.5t34.5 23.5t29.5 29t24 34t18 37.5t11.5 41t4 44.5q0 21 -3.5 41t-11 38.5t-17.5 35.5t-23 31.5t-28 27t-32.5 22.5t-36.5 17t-39.5 10.5t-42.5 3.5q-61 0 -109.5 -27.5t-76.5 -76.5v18q0 120 51.5 186.5t126.5 66.5q43 0 82.5 -20.5
t67.5 -56.5l70 60q-42 49 -97.5 76.5t-122.5 27.5q-32 0 -60.5 -6.5t-54 -19t-47 -31t-39.5 -42.5t-32 -52.5t-23.5 -62t-14.5 -71t-5 -78.5v-22q0 -38 5 -72.5t14.5 -65.5t23 -58t31.5 -49t39.5 -39.5t46 -29.5t52.5 -18t59 -6zM312 76q-63 0 -107 43t-44 106t44 106.5
t107 43.5q64 0 108.5 -43.5t44.5 -106.5t-44.5 -106t-108.5 -43z" />
    <glyph glyph-name="seven" unicode="7" horiz-adv-x="541" 
d="M524 625v75h-506v-90h392l-342 -610h117z" />
    <glyph glyph-name="eight" unicode="8" horiz-adv-x="583" 
d="M543 196q0 56 -32.5 101t-83.5 67q41 23 66 62t25 87q0 21 -4.5 41t-13 37.5t-20 33.5t-27 29t-33.5 23.5t-38.5 17.5t-43 11t-46.5 4t-47 -4t-43.5 -11t-38.5 -17.5t-33 -23.5t-27 -29t-20.5 -33.5t-13 -37.5t-4.5 -41q0 -48 25 -87t66 -62q-51 -22 -83.5 -67
t-32.5 -101q0 -23 5 -44t14 -39.5t22.5 -35t30.5 -30.5t37 -24.5t43 -18t48 -11.5t52 -4t52 4t47.5 11.5t42.5 18t37 24.5t30.5 30.5t22.5 35t14 39.5t5 44zM292 625q54 0 89.5 -31.5t35.5 -80.5q0 -48 -36.5 -79.5t-88.5 -31.5q-53 0 -89.5 31.5t-36.5 79.5q0 49 36 80.5
t90 31.5zM292 317q63 0 105 -34.5t42 -87.5q0 -52 -42 -86t-105 -34q-64 0 -106 34t-42 86q0 53 42.5 87.5t105.5 34.5z" />
    <glyph glyph-name="nine" unicode="9" horiz-adv-x="601" 
d="M286 711q-23 0 -45 -4t-42 -11t-38.5 -17.5t-34.5 -23.5t-29.5 -29t-24 -34t-18 -37.5t-11.5 -41t-4 -44.5q0 -21 3.5 -41t11 -38.5t17.5 -35.5t23 -31.5t28 -27t32.5 -22.5t36.5 -17t39.5 -10.5t42.5 -3.5q61 0 109.5 27.5t76.5 76.5v-18q0 -120 -51.5 -186.5
t-126.5 -66.5q-43 0 -82.5 20.5t-67.5 56.5l-70 -60q42 -49 97.5 -76.5t122.5 -27.5q32 0 60.5 6.5t54 19t47 31t39.5 42.5t32 52.5t23.5 62t14.5 71t5 78.5v22q0 38 -5 72.5t-14.5 65.5t-23 58t-31.5 49t-39.5 39.5t-46 29.5t-52.5 18t-59 6zM289 624q63 0 107 -43t44 -106
t-44 -106.5t-107 -43.5q-64 0 -108.5 43.5t-44.5 106.5t44.5 106t108.5 43z" />
    <glyph glyph-name="colon" unicode=":" horiz-adv-x="195" 
d="M98 114q-25 0 -43.5 -18.5t-18.5 -43.5q0 -26 18.5 -44t43.5 -18q26 0 44 18t18 44q0 25 -18 43.5t-44 18.5zM98 524q-25 0 -43.5 -18.5t-18.5 -43.5q0 -26 18.5 -44t43.5 -18q26 0 44 18t18 44q0 25 -18 43.5t-44 18.5z" />
    <glyph glyph-name="semicolon" unicode=";" horiz-adv-x="195" 
d="M38 -86v-49q58 10 93 54t35 102q0 43 -19.5 67.5t-51.5 24.5q-23 0 -40.5 -17t-17.5 -41q0 -8 1.5 -14.5t4.5 -12t7 -9.5t8.5 -7.5t9.5 -6.5t9.5 -6t8.5 -5.5t7 -5t4.5 -5.5t1.5 -7q0 -19 -17.5 -38.5t-43.5 -23.5zM98 524q-25 0 -43.5 -18.5t-18.5 -43.5q0 -26 18.5 -44
t43.5 -18q26 0 44 18t18 44q0 25 -18 43.5t-44 18.5z" />
    <glyph glyph-name="less" unicode="&#x3c;" horiz-adv-x="395" 
d="M366 510h-107l-237 -255l237 -255h110l-234 257z" />
    <glyph glyph-name="equal" unicode="=" horiz-adv-x="529" 
d="M481 474h-433v-73h433v73zM481 309h-433v-73h433v73z" />
    <glyph glyph-name="greater" unicode="&#x3e;" horiz-adv-x="395" 
d="M18 0h107l237 255l-237 255h-110l234 -257z" />
    <glyph glyph-name="question" unicode="?" horiz-adv-x="498" 
d="M468 507q0 22 -4.5 42.5t-13 39.5t-20.5 35.5t-27 31t-33.5 25.5t-39.5 19t-44 12t-48 4q-72 0 -127 -30.5t-93 -80.5l74 -53q25 34 62 54t81 20q57 0 95 -35.5t38 -88.5q0 -49 -35.5 -84t-90.5 -35h-47l4 -193h83l2 114q81 8 132.5 66t51.5 137zM238 110q-25 0 -42 -17
t-17 -42t17 -42.5t42 -17.5t42 17.5t17 42.5t-17 42t-42 17z" />
    <glyph glyph-name="at" unicode="@" horiz-adv-x="811" 
d="M392 69q39 0 72.5 16.5t56.5 44.5q15 -26 41.5 -39.5t63.5 -13.5q14 0 28 3t27.5 9.5t25.5 16t22 21.5t18.5 27t14.5 33t9 38.5t3 43.5q0 29 -4.5 57t-13 53.5t-21 49.5t-29 45t-36 39.5t-42 34t-47.5 27.5t-53 20t-58 12.5t-62 4.5q-30 0 -59.5 -4.5t-56.5 -13.5
t-52.5 -22t-48 -29.5t-42.5 -36t-36.5 -42t-29.5 -47.5t-22.5 -52t-14 -56t-4.5 -59t4.5 -59t13.5 -56t22 -52t29.5 -47.5t36.5 -42t42.5 -36t47.5 -29.5t52 -22t56.5 -13.5t59.5 -4.5q70 0 132.5 23t110.5 64l-41 43q-40 -35 -93 -54.5t-113 -19.5q-25 0 -49 4t-46 11.5
t-43 18.5t-39.5 24.5t-34.5 30t-29.5 35.5t-24 40.5t-17.5 44t-11 47t-4 50.5t4 50t11 47t18 44t24.5 40t29.5 35.5t34.5 30.5t39.5 25t43.5 18.5t46.5 11.5t49 4q30 0 58.5 -4.5t54 -13t48 -20.5t42.5 -27.5t36 -34.5t29 -40.5t21.5 -45t13 -49.5t4.5 -54
q0 -57 -21.5 -93.5t-55.5 -36.5q-27 0 -41 15.5t-14 37.5v221h-77v-34q-22 19 -50.5 30.5t-59.5 11.5q-73 0 -124.5 -51.5t-51.5 -124.5q0 -18 3.5 -35t10 -32.5t16 -29.5t21.5 -26t26 -21.5t30 -16t33.5 -10t35.5 -3.5zM398 138q-43 0 -74 31t-31 74q0 45 31 75.5t74 30.5
t74 -30.5t31 -75.5q0 -43 -31 -74t-74 -31z" />
    <glyph glyph-name="A" unicode="A" horiz-adv-x="692" 
d="M398 700h-105l-296 -700h109l76 184h325l76 -184h112zM218 276l126 305l126 -305h-252z" />
    <glyph glyph-name="B" unicode="B" horiz-adv-x="580" 
d="M52 0h296q22 0 43 4t40 11.5t35.5 18t31 24t25.5 29.5t19 34t12 37t4 40q0 60 -37 108t-96 69q39 23 62.5 60.5t23.5 80.5q0 19 -4 37.5t-11.5 35t-18.5 31t-24.5 27t-29.5 22.5t-34.5 17t-38.5 10.5t-42 3.5h-256v-700zM300 611q46 0 75.5 -30t29.5 -73q0 -42 -29.5 -72
t-75.5 -30h-143v205h143zM333 89h-176v230h176q52 0 85.5 -33t33.5 -81q0 -49 -33.5 -82.5t-85.5 -33.5z" />
    <glyph glyph-name="C" unicode="C" horiz-adv-x="724" 
d="M32 350q0 -30 4.5 -59t13.5 -56.5t21.5 -52.5t29 -47.5t36.5 -42t43 -35.5t48.5 -29t53.5 -22t58.5 -13.5t62.5 -4.5q97 0 176 44t128 114l-83 58q-36 -55 -94.5 -87.5t-127.5 -32.5q-24 0 -47.5 4t-45 12t-41 19t-36.5 25.5t-32 31.5t-26 36.5t-19.5 41.5t-12.5 46
t-4 50t4 50t12 46t19.5 41.5t26 36.5t32 31.5t37 25.5t41 19t45 12t47.5 4q66 0 124.5 -33t94.5 -87l83 58q-50 71 -129 114.5t-174 43.5q-32 0 -62 -4.5t-57.5 -13.5t-53 -22t-48.5 -29.5t-42.5 -36.5t-36 -42.5t-29.5 -47.5t-22 -52t-13.5 -55.5t-4.5 -58.5z" />
    <glyph glyph-name="D" unicode="D" horiz-adv-x="712" 
d="M680 350q0 29 -4.5 57t-13.5 54t-22 50.5t-29 46t-35.5 40.5t-42 35t-47 28.5t-51.5 21t-55.5 13t-58.5 4.5h-268v-700h268q30 0 58.5 4.5t55.5 13t51.5 21t47 28.5t42 34.5t35.5 40.5t29 46t22 50.5t13.5 54.5t4.5 57zM312 608q24 0 47 -4t44.5 -12t41 -19t36.5 -25
t31.5 -31t25.5 -36t19 -40.5t12 -44t4 -46.5t-4 -46.5t-12 -44t-19 -40.5t-25.5 -36t-31.5 -31t-36.5 -25t-41 -19t-44.5 -12t-47 -4h-154v516h154z" />
    <glyph glyph-name="E" unicode="E" horiz-adv-x="516" 
d="M53 0h425v92h-320v214h310v91h-310v211h320v92h-425v-700z" />
    <glyph glyph-name="F" unicode="F" horiz-adv-x="511" 
d="M158 0v305h310v91h-310v212h320v92h-425v-700h105z" />
    <glyph glyph-name="G" unicode="G" horiz-adv-x="772" 
d="M32 350q0 -30 4.5 -59t13 -56.5t20.5 -52.5t28 -47.5t35 -42t41 -35.5t46.5 -29t51.5 -22t55.5 -13.5t59.5 -4.5q69 0 131.5 30t102.5 84v-102h101v374h-350v-91h249q-1 -20 -6 -39.5t-13 -37t-19.5 -33.5t-26.5 -30t-32.5 -25t-37.5 -19t-43 -12t-48 -4q-24 0 -46.5 4
t-43.5 12t-40 19t-35.5 25.5t-31 31.5t-25.5 37t-19 42t-12 46t-4 50t4 50.5t12 46.5t19 41.5t25.5 37t31 31.5t35.5 25t40 18.5t43 11.5t45 4q71 0 131 -33t97 -87l83 58q-50 71 -130 114.5t-179 43.5q-31 0 -60 -4.5t-56.5 -13.5t-52.5 -21.5t-47.5 -29t-42 -36t-36 -42
t-29 -47.5t-21.5 -52t-13.5 -56t-4.5 -60z" />
    <glyph glyph-name="H" unicode="H" horiz-adv-x="659" 
d="M158 0v305h343v-305h105v700h-105v-303h-343v303h-105v-700h105z" />
    <glyph glyph-name="I" unicode="I" horiz-adv-x="211" 
d="M158 0v700h-105v-700h105z" />
    <glyph glyph-name="J" unicode="J" horiz-adv-x="476" 
d="M3 52q34 -30 82 -47.5t104 -17.5q26 0 50 4.5t45.5 12.5t40.5 20t35 27.5t28.5 34.5t21.5 41t13.5 47t4.5 52v474h-105v-459q0 -73 -39.5 -115.5t-100.5 -42.5q-33 0 -64.5 12t-54.5 33z" />
    <glyph glyph-name="K" unicode="K" horiz-adv-x="583" 
d="M53 700v-700h105v306l297 -306h140l-345 354l339 346h-133l-298 -307v307h-105z" />
    <glyph glyph-name="L" unicode="L" horiz-adv-x="504" 
d="M478 92h-320v608h-105v-700h425v92z" />
    <glyph glyph-name="M" unicode="M" horiz-adv-x="858" 
d="M153 0l-1 563l229 -563h95l228 563l-1 -563h102v700h-147l-228 -566l-229 566h-148v-700h100z" />
    <glyph glyph-name="N" unicode="N" horiz-adv-x="708" 
d="M152 0l-1 555l388 -555h116v700h-98l1 -554l-389 554h-116v-700h99z" />
    <glyph glyph-name="O" unicode="O" horiz-adv-x="801" 
d="M32 350q0 -30 4.5 -59t14 -56t22.5 -52t29.5 -47.5t36.5 -42t43 -36t48 -29.5t53 -22t57.5 -13.5t60.5 -4.5t60.5 4.5t57 13.5t53 22t48 29.5t42.5 36t36.5 42t29.5 47.5t22.5 52t14 56t4.5 59t-4.5 59t-14 56t-22.5 52t-29.5 47.5t-36.5 42t-42.5 36t-48 29.5t-53 22
t-57 13.5t-60.5 4.5t-60.5 -4.5t-57.5 -13.5t-53 -22t-48 -29.5t-43 -36t-36.5 -42t-29.5 -47.5t-22.5 -52t-14 -56t-4.5 -59zM139 350q0 25 4 48t12 45t19.5 41.5t26 37t31.5 32t36.5 26t41 20t44.5 12.5t47 4t47 -4t44.5 -12.5t41 -20t36.5 -26t31.5 -32t26 -37
t19.5 -41.5t12 -45t4 -48t-4 -48.5t-12 -45.5t-19.5 -41.5t-26 -37t-31.5 -32t-36.5 -26t-41 -19.5t-44.5 -12t-47 -4t-47 4t-44.5 12t-41 19.5t-36.5 26t-31.5 32t-26 37t-19.5 41.5t-12 45.5t-4 48.5z" />
    <glyph glyph-name="P" unicode="P" horiz-adv-x="565" 
d="M53 0h105v281h167q23 0 44 4t40.5 12t36.5 19.5t31.5 25.5t25.5 31t19 35.5t12 39t4 42.5t-4 42.5t-12 39.5t-19 36t-25.5 31t-31.5 25.5t-36.5 19.5t-40.5 12t-44 4h-272v-700zM317 608q51 0 83 -34.5t32 -83.5q0 -50 -32 -84.5t-83 -34.5h-159v237h159z" />
    <glyph glyph-name="Q" unicode="Q" horiz-adv-x="801" 
d="M32 350q0 -30 4.5 -59t14 -56t22.5 -52t29.5 -47.5t36.5 -42t43 -36t48 -29.5t53 -22t57.5 -13.5t60.5 -4.5q47 0 91.5 11.5t83.5 31.5l71 -85l76 62l-67 80q53 49 83 117t30 145q0 30 -4.5 59t-14 56t-22.5 52t-29.5 47.5t-36.5 42t-42.5 36t-48 29.5t-53 22t-57 13.5
t-60.5 4.5t-60.5 -4.5t-57.5 -13.5t-53 -22t-48 -29.5t-43 -36t-36.5 -42t-29.5 -47.5t-22.5 -52t-14 -56t-4.5 -59zM139 350q0 25 4 48t12 45t19.5 41.5t26 37t31.5 32t36.5 26t41 20t44.5 12.5t47 4t47 -4t44.5 -12.5t41 -20t36.5 -26t31.5 -32t26 -37t19.5 -41.5t12 -45
t4 -48q0 -54 -19.5 -101t-52.5 -82l-79 97l-76 -63l75 -90q-25 -13 -53 -20t-57 -7q-24 0 -47 4t-44.5 12t-41 19.5t-36.5 26t-31.5 32t-26 37t-19.5 41.5t-12 45.5t-4 48.5z" />
    <glyph glyph-name="R" unicode="R" horiz-adv-x="569" 
d="M158 0v295h117l171 -295h118l-181 307q62 19 101.5 70.5t39.5 117.5q0 21 -4 41.5t-12 39t-19 34.5t-25.5 30t-31 25t-35.5 19t-40 12t-43 4h-261v-700h105zM300 608q52 0 85.5 -32.5t33.5 -80.5q0 -46 -33.5 -79t-85.5 -33h-142v225h142z" />
    <glyph glyph-name="S" unicode="S" horiz-adv-x="564" 
d="M26 213q2 -25 9 -48t17.5 -43.5t25 -38.5t32 -32.5t38.5 -26t44.5 -19.5t49 -12t53.5 -4q108 0 173.5 58t65.5 145q0 74 -43.5 120.5t-134.5 71.5l-118 32q-49 13 -75 38.5t-26 64.5q0 47 35 75t89 28q63 0 103 -35t50 -97h103q-13 99 -82 160t-173 61q-25 0 -47.5 -3.5
t-43.5 -10.5t-39 -17.5t-33.5 -23.5t-27.5 -29t-20.5 -34.5t-13 -39t-4.5 -43.5q0 -72 44 -119.5t131 -70.5l117 -32q51 -14 77.5 -40.5t26.5 -65.5q0 -46 -35 -75t-99 -29q-70 0 -113.5 36t-53.5 99h-102z" />
    <glyph glyph-name="T" unicode="T" horiz-adv-x="562" 
d="M10 608h218v-608h105v608h219v92h-542v-92z" />
    <glyph glyph-name="U" unicode="U" horiz-adv-x="656" 
d="M153 268v432h-105v-437q0 -31 5 -59.5t15 -53.5t24 -47t32 -40t39.5 -32t45.5 -23.5t50.5 -14.5t54.5 -5q54 0 102 22t82 60v-70h105v700h-105v-432q0 -84 -50.5 -135t-122.5 -51q-73 0 -122.5 51t-49.5 135z" />
    <glyph glyph-name="V" unicode="V" horiz-adv-x="692" 
d="M293 0h105l297 700h-111l-236 -574l-236 574h-115z" />
    <glyph glyph-name="W" unicode="W" horiz-adv-x="977" 
d="M537 700h-94l-180 -545l-140 545h-113l195 -700h104l180 540l179 -540h105l194 700h-109l-140 -544z" />
    <glyph glyph-name="X" unicode="X" horiz-adv-x="650" 
d="M-5 0h125l202 281l203 -281h130l-271 363l250 337h-125l-185 -256l-184 256h-130l252 -339z" />
    <glyph glyph-name="Y" unicode="Y" horiz-adv-x="634" 
d="M369 0v299l270 401h-123l-198 -302l-198 302h-125l269 -399v-301h105z" />
    <glyph glyph-name="Z" unicode="Z" horiz-adv-x="556" 
d="M38 608h356l-371 -539v-69h504v92h-369l370 537v71h-490v-92z" />
    <glyph glyph-name="bracketleft" unicode="[" horiz-adv-x="351" 
d="M53 -125h268v79h-178v757h178v79h-268v-915z" />
    <glyph glyph-name="backslash" unicode="\" horiz-adv-x="417" 
d="M412 0l-305 700h-102l305 -700h102z" />
    <glyph glyph-name="bracketright" unicode="]" horiz-adv-x="351" 
d="M298 790h-268v-79h178v-757h-178v-79h268v915z" />
    <glyph glyph-name="asciicircum" unicode="^" horiz-adv-x="534" 
d="M37 350h89l141 268l140 -268h90l-186 350h-89z" />
    <glyph glyph-name="underscore" unicode="_" horiz-adv-x="490" 
d="M491 -80h-492v-74h492v74z" />
    <glyph glyph-name="grave" unicode="`" horiz-adv-x="510" 
d="M261 706h-116l124 -125h100z" />
    <glyph glyph-name="a" unicode="a" horiz-adv-x="521" 
d="M25 141q0 -66 49.5 -109t124.5 -43q51 0 92.5 20t66.5 55q10 -30 35.5 -47t62.5 -17h50v89h-26q-15 0 -22.5 7.5t-7.5 21.5v230q0 78 -52 124.5t-138 46.5q-57 0 -106.5 -16.5t-89.5 -50.5l45 -73q32 25 66 37t71 12q50 0 77.5 -25t27.5 -68v-33l-159 -12
q-79 -5 -123 -44t-44 -105zM122 142q0 31 21.5 49.5t63.5 21.5l144 12v-42q0 -48 -39 -81.5t-93 -33.5q-43 0 -70 20.5t-27 53.5z" />
    <glyph glyph-name="b" unicode="b" horiz-adv-x="629" 
d="M49 0h100v64q34 -35 81.5 -55.5t100.5 -20.5q25 0 48.5 4.5t45.5 12.5t42 19.5t37.5 26t32 32t26 37t20 41.5t12.5 45.5t4 47.5q0 25 -4 48.5t-12.5 45t-20 41.5t-26 37.5t-32 32t-37.5 26t-42 19.5t-45.5 12.5t-48.5 4.5q-53 0 -100 -20.5t-81 -55.5v255h-101v-700z
M148 254q0 19 3.5 36t10.5 33t16.5 30.5t21.5 26.5t26 21.5t29.5 16t33 10t35.5 3.5t35 -3.5t33 -10t30 -16t25.5 -21.5t21 -26.5t16.5 -30.5t10.5 -33t3.5 -36q0 -18 -3.5 -35.5t-10.5 -33.5t-16.5 -30t-21 -26t-25.5 -21.5t-30 -16.5t-33 -10.5t-35 -3.5t-35.5 3.5
t-33.5 10.5t-30 16.5t-26 21.5t-21.5 26t-16 30t-10 33.5t-3.5 35.5z" />
    <glyph glyph-name="c" unicode="c" horiz-adv-x="534" 
d="M131 254q0 75 50.5 126t122.5 51q44 0 81 -20t62 -54l74 53q-37 50 -91 80.5t-126 30.5q-26 0 -50.5 -4.5t-47 -12.5t-42.5 -19.5t-38 -26t-33 -32t-26.5 -37.5t-19.5 -41.5t-12.5 -45t-4.5 -48.5q0 -24 4.5 -47.5t12.5 -45.5t19.5 -41.5t26.5 -37t33 -32t38 -26
t42.5 -19.5t47 -12.5t50.5 -4.5q72 0 126 30.5t91 79.5l-74 54q-25 -34 -62 -54.5t-81 -20.5q-18 0 -35 3.5t-32.5 10.5t-29.5 16.5t-25.5 21.5t-21 26t-16 30t-10 33.5t-3.5 35.5z" />
    <glyph glyph-name="d" unicode="d" horiz-adv-x="629" 
d="M580 0v700h-101v-254q-34 35 -81 55t-99 20q-25 0 -48.5 -4.5t-45.5 -12.5t-42 -19.5t-37.5 -26t-32.5 -32t-26.5 -37.5t-19.5 -41.5t-12.5 -45t-4.5 -48.5q0 -24 4 -47.5t12.5 -45.5t20 -41.5t26 -37t32 -32t37.5 -26t42 -19.5t46 -12.5t49 -4.5q53 0 100 20.5t81 55.5
v-64h100zM481 254q0 -18 -3.5 -35.5t-10 -33.5t-16 -30t-21.5 -26t-26 -21.5t-29.5 -16.5t-33 -10.5t-35.5 -3.5t-35.5 3.5t-33 10.5t-29.5 16.5t-26 21.5t-21.5 26t-16 30t-10 33.5t-3.5 35.5q0 19 3.5 36t10 33t16 30.5t21.5 26.5t26 21.5t29.5 16t33 10t35.5 3.5
t35.5 -3.5t33 -10t29.5 -16t26 -21.5t21.5 -26.5t16 -30.5t10 -33t3.5 -36z" />
    <glyph glyph-name="e" unicode="e" horiz-adv-x="577" 
d="M30 255q0 -25 4 -49t12.5 -46t20 -41.5t26 -37t32.5 -32t38 -25.5t42 -19t46.5 -12t49.5 -4q69 0 125.5 29t94.5 80l-73 54q-28 -38 -65.5 -56.5t-81.5 -18.5q-64 0 -111.5 41.5t-57.5 103.5h415v33q0 25 -4 49t-11.5 46t-18 41.5t-24.5 36.5t-30.5 31.5t-35 25.5t-40 19
t-44 12t-47.5 4t-48.5 -4.5t-45 -12.5t-41 -19.5t-36.5 -26.5t-31 -32.5t-25 -37t-19 -41t-12 -44.5t-4 -47zM290 432q56 0 99 -36t56 -94h-311q13 58 56.5 94t99.5 36z" />
    <glyph glyph-name="f" unicode="f" horiz-adv-x="331" 
d="M12 421h98v-421h101v421h108v88h-108v86q0 21 10.5 31.5t28.5 10.5h69v89h-86q-60 0 -91.5 -34t-31.5 -85v-98h-98v-88z" />
    <glyph glyph-name="g" unicode="g" horiz-adv-x="623" 
d="M574 510h-101v-63q-34 34 -80 54t-98 20q-25 0 -48 -4t-44.5 -12t-41.5 -19.5t-37 -26t-31.5 -31.5t-26 -36.5t-20 -41t-12.5 -44.5t-4 -47q0 -25 4 -48t12 -45t19.5 -41.5t26 -36.5t32 -31.5t37 -26t41.5 -19.5t45 -12t48 -4q51 0 97 19t80 53v-75q0 -52 -27.5 -79.5
t-81.5 -27.5h-106v-86h128q87 0 138 50t51 135v526zM130 259q0 18 3.5 35t10 32.5t16 29t21 25.5t25.5 21.5t29.5 16t32 10t34.5 3.5t34.5 -3.5t32 -10t29.5 -16t25.5 -21t21 -25.5t16 -29.5t10 -32.5t3.5 -35t-3.5 -35.5t-10 -33t-15.5 -29.5t-21 -26t-25.5 -21.5t-29 -16
t-32.5 -10t-35 -3.5t-34.5 3.5t-32 10t-29.5 16t-25.5 21.5t-21 26t-16 29.5t-10 33t-3.5 35.5z" />
    <glyph glyph-name="h" unicode="h" 
d="M150 303q0 57 35.5 92t89.5 35t87 -34.5t33 -89.5v-306h101v326q0 20 -3.5 39.5t-10.5 37t-17 33t-23 29t-28.5 24t-33 17.5t-37.5 11t-42 4q-46 0 -85 -18t-66 -49v246h-101v-700h101v303z" />
    <glyph glyph-name="i" unicode="i" horiz-adv-x="199" 
d="M100 581q25 0 42 18t17 43t-17 42.5t-42 17.5t-43 -17.5t-18 -42.5t18 -43t43 -18zM150 510h-101v-510h101v510z" />
    <glyph glyph-name="j" unicode="j" horiz-adv-x="199" 
d="M100 581q25 0 42 18t17 43t-17 42.5t-42 17.5t-43 -17.5t-18 -42.5t18 -43t43 -18zM32 -201q54 0 86 32t32 78v601h-101v-586q0 -19 -11 -29t-30 -10h-31v-86h55z" />
    <glyph glyph-name="k" unicode="k" horiz-adv-x="478" 
d="M49 700v-700h101v234l211 -234h127l-244 264l232 246h-120l-206 -225v415h-101z" />
    <glyph glyph-name="l" unicode="l" horiz-adv-x="199" 
d="M150 0v700h-101v-700h101z" />
    <glyph glyph-name="m" unicode="m" horiz-adv-x="867" 
d="M150 305q0 55 33.5 90t85.5 35q51 0 82.5 -34t31.5 -88v-308h101v305q0 55 33.5 90t85.5 35q51 0 82.5 -34t31.5 -88v-308h101v329q0 20 -3.5 39t-10.5 36t-16.5 32.5t-22 28.5t-27.5 23.5t-32.5 17.5t-37 11t-40.5 4q-54 0 -98 -26t-69 -70q-22 43 -66 69.5t-101 26.5
q-43 0 -80.5 -17t-63.5 -48v54h-101v-510h101v305z" />
    <glyph glyph-name="n" unicode="n" 
d="M496 326q0 20 -3.5 39.5t-10.5 37t-17 33t-23 29t-28.5 24t-33.5 17.5t-38 11t-42 4q-46 0 -84.5 -18t-65.5 -49v56h-101v-510h101v303q0 57 35.5 92t89.5 35t87 -34.5t33 -89.5v-306h101v326z" />
    <glyph glyph-name="o" unicode="o" horiz-adv-x="608" 
d="M578 255q0 25 -4.5 48t-12.5 45t-20 41.5t-27 37t-33 32t-38.5 26t-43 19.5t-46.5 12.5t-49 4.5t-49 -4.5t-46.5 -12.5t-43 -19.5t-38.5 -26t-33 -32t-27 -37t-20 -41.5t-12.5 -45t-4.5 -48t4.5 -48t12.5 -45t20 -41.5t27 -37t33 -32.5t38.5 -26.5t43 -19.5t46.5 -12.5
t49 -4.5t49 4.5t46.5 12.5t43 19.5t38.5 26.5t33 32.5t27 37t20 41.5t12.5 45t4.5 48zM477 255q0 -74 -50.5 -125.5t-122.5 -51.5t-122.5 51.5t-50.5 125.5q0 73 50.5 124.5t122.5 51.5t122.5 -51.5t50.5 -124.5z" />
    <glyph glyph-name="p" unicode="p" horiz-adv-x="629" 
d="M49 510v-711h101v265q34 -35 81 -55t100 -20q25 0 48.5 4t45.5 12.5t42 20t37.5 26t32 32t26 37t20 41.5t12.5 45t4 48t-4 48t-12.5 45t-20 41.5t-26 37t-32 32.5t-37.5 26.5t-42 19.5t-45.5 12.5t-48.5 4.5q-53 0 -100.5 -20.5t-81.5 -55.5v64h-100zM148 255
q0 18 3.5 35.5t10 33.5t16 30t21.5 26t26 21.5t30 16.5t33.5 10.5t35.5 3.5t35 -3.5t33 -10.5t30 -16.5t25.5 -21.5t21 -26t16.5 -30t10.5 -33.5t3.5 -35.5t-3.5 -35.5t-10.5 -33.5t-16.5 -30t-21 -26t-25.5 -21.5t-30 -16.5t-33 -10.5t-35 -3.5t-35.5 3.5t-33 10.5
t-29.5 16.5t-26 21.5t-21.5 26t-16.5 30t-10.5 33.5t-3.5 35.5z" />
    <glyph glyph-name="q" unicode="q" horiz-adv-x="629" 
d="M580 510h-100v-64q-34 35 -81 55.5t-100 20.5q-25 0 -49 -4.5t-46 -12.5t-42 -19.5t-37.5 -26.5t-32 -32.5t-26 -37t-20 -41.5t-12.5 -45.5t-4 -47.5q0 -25 4.5 -48t12.5 -45t19.5 -41.5t26.5 -37t32.5 -32t37.5 -26t42 -20t45.5 -12.5t48.5 -4q52 0 99 20t81 55v-265
h101v711zM481 255q0 -18 -3.5 -35.5t-10 -33.5t-16 -30t-21.5 -26t-26 -21.5t-29.5 -16.5t-33 -10.5t-35.5 -3.5t-35.5 3.5t-33 10.5t-29.5 16.5t-26 21.5t-21.5 26t-16 30t-10 33.5t-3.5 35.5t3.5 35.5t10 33.5t16 30t21.5 26t26 21.5t29.5 16.5t33 10.5t35.5 3.5
t35.5 -3.5t33 -10.5t29.5 -16.5t26 -21.5t21.5 -26t16 -30t10 -33.5t3.5 -35.5z" />
    <glyph glyph-name="r" unicode="r" horiz-adv-x="324" 
d="M306 420v94h-35q-42 0 -72.5 -18t-49.5 -49v63h-100v-510h101v290q0 59 32.5 94.5t81.5 35.5h42z" />
    <glyph glyph-name="s" unicode="s" horiz-adv-x="449" 
d="M241 -11q85 0 136 44t51 110q0 54 -35.5 91t-105.5 55l-88 23q-36 9 -54.5 25.5t-18.5 40.5q0 27 20.5 44.5t57.5 17.5q39 0 72.5 -22.5t42.5 -65.5h97q-10 72 -66 120.5t-145 48.5q-77 0 -127.5 -42t-50.5 -111q0 -54 35 -90.5t103 -53.5l94 -23q36 -10 53 -26.5
t17 -39.5q0 -29 -24 -47t-65 -18q-47 0 -81.5 22.5t-43.5 65.5h-97q13 -72 71.5 -120.5t151.5 -48.5z" />
    <glyph glyph-name="t" unicode="t" horiz-adv-x="339" 
d="M230 0h97v89h-67q-23 0 -36.5 11t-13.5 32v289h117v89h-117v150h-101v-150h-97v-89h97v-311q0 -48 31.5 -79t89.5 -31z" />
    <glyph glyph-name="u" unicode="u" 
d="M49 184q0 -20 3.5 -39.5t10.5 -37t17 -33t23 -28.5t28.5 -23.5t33.5 -17.5t38 -11t42 -4q46 0 85 18t65 49v-57h101v510h-101v-303q0 -56 -35.5 -92t-89.5 -36t-87 35.5t-33 88.5v307h-101v-326z" />
    <glyph glyph-name="v" unicode="v" horiz-adv-x="509" 
d="M213 0h85l216 510h-106l-152 -374l-152 374h-109z" />
    <glyph glyph-name="w" unicode="w" horiz-adv-x="744" 
d="M332 510l-123 -359l-102 359h-107l155 -510h91l126 369l127 -369h91l154 510h-103l-103 -359l-122 359h-84z" />
    <glyph glyph-name="x" unicode="x" horiz-adv-x="495" 
d="M-5 0h112l139 190l138 -190h116l-199 265l184 245h-112l-125 -172l-126 172h-116l186 -248z" />
    <glyph glyph-name="y" unicode="y" horiz-adv-x="509" 
d="M179 -60q-12 -30 -30 -42.5t-46 -12.5h-47v-86h67q56 0 89.5 25.5t57.5 82.5l244 603h-105l-150 -378l-155 378h-109l212 -500z" />
    <glyph glyph-name="z" unicode="z" horiz-adv-x="454" 
d="M31 421h267l-272 -348v-73h403v89h-276l270 345v76h-392v-89z" />
    <glyph glyph-name="braceleft" unicode="{" horiz-adv-x="425" 
d="M272 157q29 63 4 112.5t-85 63.5q60 13 85.5 62t-4.5 114l-42 92q-25 52 -2.5 86t69.5 34q23 0 43 -4t42 -12l18 74q-28 11 -54 16t-57 5q-26 0 -48.5 -4.5t-41 -13t-32.5 -20.5t-24 -27t-15 -33t-4.5 -38.5t5.5 -42.5t16 -46l44 -95q20 -43 -1.5 -75.5t-69.5 -32.5h-89
v-78h92q46 0 66.5 -32.5t1.5 -75.5l-44 -95q-11 -24 -16 -46t-5.5 -42.5t4.5 -38.5t15 -33t24 -27t32.5 -20.5t41 -13t48.5 -4.5q31 0 57 5t54 16l-18 74q-22 -8 -42 -12t-43 -4q-47 0 -69.5 34t2.5 86z" />
    <glyph glyph-name="bar" unicode="|" horiz-adv-x="225" 
d="M150 -201v901h-101v-901h101z" />
    <glyph glyph-name="braceright" unicode="}" horiz-adv-x="425" 
d="M156 509q-29 -63 -4 -112.5t85 -63.5q-60 -13 -85.5 -62t4.5 -114l42 -92q25 -52 2.5 -86t-69.5 -34q-23 0 -43 4t-42 12l-18 -74q28 -11 54 -16t57 -5q26 0 48.5 4.5t41 13t32.5 20.5t24 27t15 33t4.5 38.5t-5.5 42.5t-16 46l-44 95q-20 43 1.5 75.5t69.5 32.5h89v78
h-92q-46 0 -66.5 32.5t-1.5 75.5l44 95q11 24 16 46t5.5 42.5t-4.5 38.5t-15 33t-24 27t-32.5 20.5t-41 13t-48.5 4.5q-31 0 -57 -5t-54 -16l18 -74q22 8 42 12t43 4q47 0 69.5 -34t-2.5 -86z" />
    <glyph glyph-name="asciitilde" unicode="~" horiz-adv-x="513" 
d="M106 300q13 43 24.5 61.5t30.5 18.5q7 0 15 -2t17.5 -5.5t19.5 -8.5t20.5 -10.5t21.5 -11l22 -11t22 -10.5t21.5 -8.5t21 -5.5t19.5 -2q47 0 77 36.5t47 106.5l-78 19q-13 -43 -24.5 -61.5t-30.5 -18.5q-7 0 -15 2t-17 5.5t-19 8.5t-20.5 10.5t-21.5 11l-22 11
t-22.5 10.5t-22 8.5t-21 5.5t-19.5 2q-46 0 -76 -36.5t-48 -106.5z" />
    <glyph glyph-name="uni00A0" unicode="&#xa0;" horiz-adv-x="200" 
 />
    <glyph glyph-name="exclamdown" unicode="&#xa1;" horiz-adv-x="194" 
d="M48 508l-7 -513h101l-7 513h-87zM91 585q25 0 42.5 17t17.5 42t-17.5 42.5t-42.5 17.5t-42 -17.5t-17 -42.5t17 -42t42 -17z" />
    <glyph glyph-name="cent" unicode="&#xa2;" horiz-adv-x="542" 
d="M336 622h-76v-104q-25 -4 -48 -11.5t-44 -19t-39.5 -26.5t-33.5 -32.5t-27 -37.5t-20.5 -42t-13 -46t-4.5 -49t4.5 -48.5t13 -45.5t20.5 -42t27 -37.5t33.5 -32.5t39.5 -26.5t44 -19t48 -11.5v-105h76v104q60 6 106 35.5t79 72.5l-74 54q-20 -28 -48.5 -47t-62.5 -25v348
q34 -6 62.5 -24.5t48.5 -46.5l74 53q-33 44 -79 73.5t-106 35.5v103zM131 254q0 63 37 110t92 61v-342q-55 15 -92 62.5t-37 108.5z" />
    <glyph glyph-name="sterling" unicode="&#xa3;" horiz-adv-x="571" 
d="M392 375h-182l-18 61q-25 84 6 136t100 52q55 0 92.5 -32t46.5 -88h99q-12 93 -76.5 149t-159.5 56q-27 0 -51.5 -4.5t-45.5 -13t-39 -20.5t-32.5 -28t-25 -34.5t-17 -39.5t-8 -45t1.5 -49.5t11 -52.5l14 -47h-72v-78h94l20 -67q18 -60 -8 -100.5t-76 -40.5h-36v-89h512
v89h-327q28 26 38.5 66t-4.5 88l-16 54h159v78z" />
    <glyph glyph-name="yen" unicode="&#xa5;" horiz-adv-x="649" 
d="M110 201v-69h166v-132h105v132h163v69h-163v71h163v69h-134l240 359h-122l-198 -303l-198 303h-125l242 -359h-139v-69h166v-71h-166z" />
    <glyph glyph-name="section" unicode="&#xa7;" horiz-adv-x="547" 
d="M475 40q0 32 -12 57.5t-36 44.5q44 16 71 54t27 89q0 60 -36 98t-104 63l-141 50q-37 13 -55 30t-18 42q0 28 23 45.5t60 17.5t71.5 -22t43.5 -65h97q-10 70 -67 119t-145 49q-79 0 -130.5 -42.5t-51.5 -112.5q0 -32 12 -57.5t36 -44.5q-45 -16 -72 -54t-27 -90
q0 -60 36 -98.5t105 -61.5l147 -51q33 -11 50 -28.5t17 -42.5q0 -28 -23 -45t-62 -17q-44 0 -79 22.5t-44 63.5h-96q13 -71 71 -119t149 -48q84 0 133.5 44t49.5 110zM352 359q40 -13 58.5 -35.5t18.5 -54.5q0 -40 -33.5 -65t-84.5 -8l-116 41q-40 14 -59 36.5t-19 54.5
q0 40 33 65.5t78 9.5z" />
    <glyph glyph-name="dieresis" unicode="&#xa8;" horiz-adv-x="546" 
d="M180 583q25 0 42 17.5t17 42.5t-17 42t-42 17q-24 0 -41.5 -17t-17.5 -42t17.5 -42.5t41.5 -17.5zM367 583q25 0 41.5 17.5t16.5 42.5t-16.5 42t-41.5 17t-42 -17t-17 -42t17 -42.5t42 -17.5z" />
    <glyph glyph-name="copyright" unicode="&#xa9;" horiz-adv-x="813" 
d="M406 -12q31 0 60 4.5t56.5 13.5t52.5 22t47.5 29.5t42.5 36t36.5 42t29.5 47.5t22 52t13.5 56t4.5 59t-4.5 59t-13.5 56t-22 52t-29.5 47.5t-36.5 42t-42.5 36t-47.5 29.5t-52.5 22t-56.5 13.5t-60 4.5q-30 0 -59.5 -4.5t-56.5 -13.5t-52 -22t-47.5 -29.5t-42.5 -36
t-36.5 -42t-29.5 -47.5t-22 -52t-13.5 -56t-4.5 -59t4.5 -59t13.5 -56t22 -52t29.5 -47.5t36.5 -42t42.5 -36t47.5 -29.5t52 -22t56.5 -13.5t59.5 -4.5zM406 44q-25 0 -49 4t-46.5 11.5t-43.5 18.5t-40 24.5t-35 30t-30 35.5t-24.5 40.5t-18 44t-11.5 47t-4 50.5t4 50
t11.5 47t18 44t24.5 40t30 35.5t35 30.5t40 25t43.5 18.5t46.5 11.5t49 4t49 -4t47 -11.5t43.5 -18.5t39.5 -24.5t35.5 -30t30.5 -35.5t24.5 -40.5t18 -44t11.5 -47t4 -50.5t-4 -50t-11.5 -47t-18 -44t-24.5 -40t-30.5 -35.5t-35.5 -30.5t-39.5 -25t-43.5 -18.5t-47 -11.5
t-49 -4zM299 350q0 51 34 86t83 35q31 0 56 -14t41 -37l55 40q-26 34 -64 56t-88 22q-20 0 -39.5 -4t-37 -11t-32.5 -17t-28 -23t-23.5 -28t-17.5 -32t-11 -35t-4 -38q0 -19 4 -37.5t11 -35t17.5 -31.5t23.5 -27.5t28 -22.5t32.5 -17.5t37 -11t39.5 -3.5q50 0 88 21.5
t64 55.5l-55 40q-16 -23 -41 -36.5t-56 -13.5q-49 0 -83 35t-34 84z" />
    <glyph glyph-name="ordfeminine" unicode="&#xaa;" horiz-adv-x="391" 
d="M23 439q0 -47 35.5 -78t88.5 -31q37 0 66 13.5t47 38.5q9 -20 28 -31.5t45 -11.5h40v73h-19q-10 0 -15 5.5t-5 15.5v148q0 57 -38 91t-101 34q-42 0 -79 -12t-66 -35l37 -61q23 16 47 24t49 8q32 0 50 -16t18 -44v-18l-108 -8q-57 -4 -88.5 -30.5t-31.5 -74.5zM105 440
q0 19 12.5 30.5t37.5 13.5l96 9v-27q0 -29 -25 -50t-60 -21q-27 0 -44 12.5t-17 32.5z" />
    <glyph glyph-name="guillemotleft" unicode="&#xab;" horiz-adv-x="630" 
d="M366 510h-107l-237 -255l237 -255h110l-234 257zM601 510h-107l-237 -255l237 -255h110l-234 257z" />
    <glyph glyph-name="registered" unicode="&#xae;" horiz-adv-x="481" 
d="M240 304q21 0 41 4t38 11.5t34 18.5t30 25t25 30t18.5 34.5t11.5 38.5t4 41t-4 41t-11.5 38.5t-18.5 34.5t-25 30t-30 25t-34 18.5t-38 11.5t-41 4t-41 -4t-38 -11.5t-34 -18.5t-30 -25t-25 -30t-18.5 -34.5t-11.5 -38.5t-4 -41t4 -41t11.5 -38.5t18.5 -34.5t25 -30
t30 -25t34 -18.5t38 -11.5t41 -4zM240 346q-66 0 -112 47t-46 114q0 66 46 113.5t112 47.5t112 -47.5t46 -113.5q0 -67 -46 -114t-112 -47zM170 415h43v74h21l41 -74h47l-46 81q15 7 24 20.5t9 29.5q0 25 -16.5 41t-42.5 16h-80v-188zM241 569q13 0 19.5 -6.5t6.5 -16.5
t-7 -17.5t-20 -7.5h-27v48h28z" />
    <glyph glyph-name="macron" unicode="&#xaf;" horiz-adv-x="510" 
d="M389 676h-260v-69h260v69z" />
    <glyph glyph-name="degree" unicode="&#xb0;" horiz-adv-x="363" 
d="M182 422q59 0 101 43t42 103q0 57 -41.5 99.5t-101.5 42.5q-61 0 -102.5 -42.5t-41.5 -99.5q0 -60 42 -103t102 -43zM182 483q-34 0 -58 25.5t-24 60.5q0 32 24 56t58 24q32 0 56.5 -23.5t24.5 -56.5q0 -35 -24 -60.5t-57 -25.5z" />
    <glyph glyph-name="plusminus" unicode="&#xb1;" horiz-adv-x="531" 
d="M306 182v171h177v80h-177v167h-81v-167h-177v-80h177v-171h81zM483 80h-435v-80h435v80z" />
    <glyph glyph-name="twosuperior" unicode="&#xb2;" horiz-adv-x="318" 
d="M284 591q0 49 -36 82t-94 33q-46 0 -81 -21t-55 -60l57 -32q13 25 32 38t42 13q27 0 44.5 -16t17.5 -42q0 -20 -8.5 -37.5t-30.5 -40.5l-140 -146v-47h258v64l-156 -2l91 94q34 35 46.5 62.5t12.5 57.5z" />
    <glyph glyph-name="threesuperior" unicode="&#xb3;" horiz-adv-x="337" 
d="M164 706q-49 0 -84.5 -21t-53.5 -57l60 -30q11 22 29 34t43 12q26 0 43 -14.5t17 -37.5q0 -22 -15 -36.5t-39 -14.5h-50v-60h56q27 0 43.5 -15.5t16.5 -37.5q0 -25 -18.5 -41.5t-49.5 -16.5q-27 0 -47.5 12.5t-33.5 35.5l-59 -33q18 -35 54.5 -56.5t88.5 -21.5
q60 0 99 34t39 83q0 32 -20 57.5t-51 36.5q26 11 42 32.5t16 49.5q0 45 -36 75.5t-90 30.5z" />
    <glyph glyph-name="acute" unicode="&#xb4;" horiz-adv-x="510" 
d="M253 706l-107 -125h99l124 125h-116z" />
    <glyph glyph-name="paragraph" unicode="&#xb6;" horiz-adv-x="581" 
d="M36 492q0 -22 4 -42.5t12 -39t19 -35t25.5 -30.5t31 -25t35.5 -19t40 -12t43 -4h50v-285h84v285h64v-285h84v700h-282q-22 0 -43 -4t-40 -12t-35.5 -19t-31 -25.5t-25.5 -31t-19 -35t-12 -39t-4 -42.5z" />
    <glyph glyph-name="periodcentered" unicode="&#xb7;" horiz-adv-x="195" 
d="M98 362q-25 0 -43.5 -18.5t-18.5 -43.5q0 -26 18.5 -44t43.5 -18q26 0 44 18t18 44q0 25 -18 43.5t-44 18.5z" />
    <glyph glyph-name="cedilla" unicode="&#xb8;" horiz-adv-x="510" 
d="M386 -133q0 34 -24 57t-63 27l18 56h-57l-31 -98h38q24 0 39 -11t15 -30q0 -17 -13.5 -29t-36.5 -12q-19 0 -35 7.5t-29 23.5l-44 -36q17 -23 47 -36t65 -13q47 0 79 27t32 67z" />
    <glyph glyph-name="onesuperior" unicode="&#xb9;" horiz-adv-x="288" 
d="M263 379h-83v321h-142v-64h69v-257h-82v-64h238v64z" />
    <glyph glyph-name="ordmasculine" unicode="&#xba;" horiz-adv-x="443" 
d="M417 519q0 20 -4 38.5t-11.5 35.5t-18 32t-23.5 27.5t-29 22.5t-33.5 17.5t-37 11t-39.5 3.5t-39.5 -4t-37 -11t-33.5 -17t-29 -23t-24 -28t-18.5 -32t-11.5 -35.5t-4 -37.5q0 -20 4 -38.5t11.5 -35.5t18.5 -32t24 -28t29 -23t33.5 -17t37 -11t39.5 -4t39.5 4t37 11
t33.5 17t29 23t23.5 28t18 32t11.5 35.5t4 38.5zM333 519q0 -48 -32.5 -81t-79.5 -33q-46 0 -79 33t-33 81q0 47 33 80t79 33q47 0 79.5 -33t32.5 -80z" />
    <glyph glyph-name="guillemotright" unicode="&#xbb;" horiz-adv-x="630" 
d="M254 0h107l237 255l-237 255h-110l234 -257zM19 0h107l237 255l-237 255h-110l234 -257z" />
    <glyph glyph-name="onequarter" unicode="&#xbc;" horiz-adv-x="726" 
d="M263 379h-83v321h-142v-64h69v-257h-82v-64h238v64zM596 0h72v94h45v61h-45v230h-95l-164 -236v-55h187v-94zM486 155l110 162v-162h-110zM225 0l380 700h-81l-380 -700h81z" />
    <glyph glyph-name="onehalf" unicode="&#xbd;" horiz-adv-x="760" 
d="M263 379h-83v321h-142v-64h69v-257h-82v-64h238v64zM728 276q0 49 -36 82t-94 33q-46 0 -81 -21t-55 -60l57 -32q13 25 32 38t42 13q27 0 44.5 -16t17.5 -42q0 -20 -8.5 -37.5t-30.5 -40.5l-140 -146v-47h258v64l-156 -2l91 94q34 35 46.5 62.5t12.5 57.5zM222 0l380 700
h-81l-380 -700h81z" />
    <glyph glyph-name="threequarters" unicode="&#xbe;" horiz-adv-x="716" 
d="M164 706q-49 0 -84.5 -21t-53.5 -57l60 -30q11 22 29 34t43 12q26 0 43 -14.5t17 -37.5q0 -22 -15 -36.5t-39 -14.5h-50v-60h56q27 0 43.5 -15.5t16.5 -37.5q0 -25 -18.5 -41.5t-49.5 -16.5q-27 0 -47.5 12.5t-33.5 35.5l-59 -33q18 -35 54.5 -56.5t88.5 -21.5
q60 0 99 34t39 83q0 32 -20 57.5t-51 36.5q26 11 42 32.5t16 49.5q0 45 -36 75.5t-90 30.5zM610 0h72v94h45v61h-45v230h-95l-164 -236v-55h187v-94zM500 155l110 162v-162h-110zM240 0l380 700h-81l-380 -700h81z" />
    <glyph glyph-name="questiondown" unicode="&#xbf;" horiz-adv-x="498" 
d="M21 200q0 -22 4.5 -42.5t13 -39.5t20.5 -35.5t27 -31t33.5 -25.5t39.5 -19t44 -12t48 -4q72 0 127 30.5t93 80.5l-74 53q-25 -34 -62 -54t-81 -20q-57 0 -95 35.5t-38 88.5q0 49 35.5 84t90.5 35h47l-4 193h-83l-2 -114q-81 -8 -132.5 -66t-51.5 -137zM251 597
q25 0 42 17t17 42t-17 42.5t-42 17.5t-42 -17.5t-17 -42.5t17 -42t42 -17z" />
    <glyph glyph-name="Agrave" unicode="&#xc0;" horiz-adv-x="692" 
d="M398 700h-105l-296 -700h109l76 184h325l76 -184h112zM218 276l126 305l126 -305h-252zM310 897h-116l124 -125h100z" />
    <glyph glyph-name="Aacute" unicode="&#xc1;" horiz-adv-x="692" 
d="M398 700h-105l-296 -700h109l76 184h325l76 -184h112zM218 276l126 305l126 -305h-252zM381 897l-107 -125h99l124 125h-116z" />
    <glyph glyph-name="Acircumflex" unicode="&#xc2;" horiz-adv-x="692" 
d="M398 700h-105l-296 -700h109l76 184h325l76 -184h112zM218 276l126 305l126 -305h-252zM274 772l73 74l73 -74h89l-111 125h-102l-111 -125h89z" />
    <glyph glyph-name="Atilde" unicode="&#xc3;" horiz-adv-x="692" 
d="M398 700h-105l-296 -700h109l76 184h325l76 -184h112zM218 276l126 305l126 -305h-252zM280 892q-35 0 -60 -26t-38 -79l66 -14q8 30 17.5 40.5t21.5 10.5q5 0 10.5 -1.5t11.5 -4.5t12.5 -6.5t13.5 -7.5t14.5 -8t15 -7.5t15.5 -6.5t15.5 -4.5t14.5 -1.5q35 0 60 26t38 78
l-65 15q-8 -30 -18 -40.5t-22 -10.5q-5 0 -10.5 1.5t-11.5 4.5t-12.5 6.5t-13.5 7.5t-14.5 8t-15 7.5t-15.5 6.5t-15.5 4.5t-14.5 1.5z" />
    <glyph glyph-name="Adieresis" unicode="&#xc4;" horiz-adv-x="692" 
d="M398 700h-105l-296 -700h109l76 184h325l76 -184h112zM218 276l126 305l126 -305h-252zM253 774q25 0 42 17.5t17 42.5t-17 42t-42 17q-24 0 -41.5 -17t-17.5 -42t17.5 -42.5t41.5 -17.5zM440 774q25 0 41.5 17.5t16.5 42.5t-16.5 42t-41.5 17t-42 -17t-17 -42t17 -42.5
t42 -17.5z" />
    <glyph glyph-name="Aring" unicode="&#xc5;" horiz-adv-x="692" 
d="M398 700h-105l-296 -700h109l76 184h325l76 -184h112zM218 276l126 305l126 -305h-252zM346 755q46 0 77.5 32t31.5 76q0 43 -31.5 74.5t-77.5 31.5t-77.5 -31.5t-31.5 -74.5q0 -45 31.5 -76.5t77.5 -31.5zM346 804q-25 0 -42 17t-17 42q0 23 17 40t42 17t42 -17t17 -40
q0 -25 -17 -42t-42 -17z" />
    <glyph glyph-name="AE" unicode="&#xc6;" horiz-adv-x="942" 
d="M904 92h-320v214h310v91h-310v211h320v92h-471l-438 -700h122l104 174h258v-174h425v92zM277 266l202 336v-336h-202z" />
    <glyph glyph-name="Ccedilla" unicode="&#xc7;" horiz-adv-x="725" 
d="M32 350q0 -32 5 -62.5t15 -58.5t24 -54t32 -49t40 -43t47 -36t52.5 -28t58 -19.5t63.5 -10.5l-25 -80h38q24 0 39 -11t15 -30q0 -17 -13.5 -29t-36.5 -12q-19 0 -35 7.5t-29 23.5l-44 -36q17 -23 47 -36t65 -13q47 0 79 27t32 67q0 34 -24 57t-63 27l12 38q90 5 162.5 48
t118.5 109l-83 58q-36 -55 -94.5 -87.5t-127.5 -32.5q-24 0 -47.5 4t-45 12t-41 19t-36.5 25.5t-32 31.5t-26 36.5t-19.5 41.5t-12.5 46t-4 50t4 50t12 46t19.5 41.5t26 36.5t32 31.5t37 25.5t41 19t45 12t47.5 4q66 0 124.5 -33t94.5 -87l83 58q-50 71 -129 114.5
t-174 43.5q-32 0 -62 -4.5t-57.5 -13.5t-53 -22t-48.5 -29.5t-42.5 -36.5t-36 -42.5t-29.5 -47.5t-22 -52t-13.5 -55.5t-4.5 -58.5z" />
    <glyph glyph-name="Egrave" unicode="&#xc8;" horiz-adv-x="516" 
d="M53 0h425v92h-320v214h310v91h-310v211h320v92h-425v-700zM239 897h-116l124 -125h100z" />
    <glyph glyph-name="Eacute" unicode="&#xc9;" horiz-adv-x="516" 
d="M53 0h425v92h-320v214h310v91h-310v211h320v92h-425v-700zM309 897l-107 -125h99l124 125h-116z" />
    <glyph glyph-name="Ecircumflex" unicode="&#xca;" horiz-adv-x="516" 
d="M53 0h425v92h-320v214h310v91h-310v211h320v92h-425v-700zM202 772l73 74l73 -74h89l-111 125h-102l-111 -125h89z" />
    <glyph glyph-name="Edieresis" unicode="&#xcb;" horiz-adv-x="516" 
d="M53 0h425v92h-320v214h310v91h-310v211h320v92h-425v-700zM181 774q25 0 42 17.5t17 42.5t-17 42t-42 17q-24 0 -41.5 -17t-17.5 -42t17.5 -42.5t41.5 -17.5zM368 774q25 0 41.5 17.5t16.5 42.5t-16.5 42t-41.5 17t-42 -17t-17 -42t17 -42.5t42 -17.5z" />
    <glyph glyph-name="Igrave" unicode="&#xcc;" horiz-adv-x="211" 
d="M158 0v700h-105v-700h105zM71 897h-116l124 -125h100z" />
    <glyph glyph-name="Iacute" unicode="&#xcd;" horiz-adv-x="211" 
d="M158 0v700h-105v-700h105zM141 897l-107 -125h99l124 125h-116z" />
    <glyph glyph-name="Icircumflex" unicode="&#xce;" horiz-adv-x="211" 
d="M158 0v700h-105v-700h105zM34 772l73 74l73 -74h89l-111 125h-102l-111 -125h89z" />
    <glyph glyph-name="Idieresis" unicode="&#xcf;" horiz-adv-x="211" 
d="M158 0v700h-105v-700h105zM13 774q25 0 42 17.5t17 42.5t-17 42t-42 17q-24 0 -41.5 -17t-17.5 -42t17.5 -42.5t41.5 -17.5zM200 774q25 0 41.5 17.5t16.5 42.5t-16.5 42t-41.5 17t-42 -17t-17 -42t17 -42.5t42 -17.5z" />
    <glyph glyph-name="Eth" unicode="&#xd0;" horiz-adv-x="736" 
d="M5 304h72v-304h268q30 0 58.5 4.5t55.5 13t51.5 21t47 28.5t42 34.5t35.5 40.5t29 46t22 50.5t13.5 54.5t4.5 57t-4.5 57t-13.5 54t-22 50.5t-29 46t-35.5 40.5t-42 35t-47 28.5t-51.5 21t-55.5 13t-58.5 4.5h-268v-306h-72v-90zM336 608q24 0 47 -4t44.5 -12t41 -19
t36.5 -25t31.5 -31t25.5 -36t19 -40.5t12 -44t4 -46.5t-4 -46.5t-12 -44t-19 -40.5t-25.5 -36t-31.5 -31t-36.5 -25t-41 -19t-44.5 -12t-47 -4h-154v212h167v90h-167v214h154z" />
    <glyph glyph-name="Ntilde" unicode="&#xd1;" horiz-adv-x="708" 
d="M152 0l-1 555l388 -555h116v700h-98l1 -554l-389 554h-116v-700h99zM288 892q-35 0 -60 -26t-38 -79l66 -14q8 30 17.5 40.5t21.5 10.5q5 0 10.5 -1.5t11.5 -4.5t12.5 -6.5t13.5 -7.5t14.5 -8t15 -7.5t15.5 -6.5t15.5 -4.5t14.5 -1.5q35 0 60 26t38 78l-65 15
q-8 -30 -18 -40.5t-22 -10.5q-5 0 -10.5 1.5t-11.5 4.5t-12.5 6.5t-13.5 7.5t-14.5 8t-15 7.5t-15.5 6.5t-15.5 4.5t-14.5 1.5z" />
    <glyph glyph-name="Ograve" unicode="&#xd2;" horiz-adv-x="801" 
d="M32 350q0 -30 4.5 -59t14 -56t22.5 -52t29.5 -47.5t36.5 -42t43 -36t48 -29.5t53 -22t57.5 -13.5t60.5 -4.5t60.5 4.5t57 13.5t53 22t48 29.5t42.5 36t36.5 42t29.5 47.5t22.5 52t14 56t4.5 59t-4.5 59t-14 56t-22.5 52t-29.5 47.5t-36.5 42t-42.5 36t-48 29.5t-53 22
t-57 13.5t-60.5 4.5t-60.5 -4.5t-57.5 -13.5t-53 -22t-48 -29.5t-43 -36t-36.5 -42t-29.5 -47.5t-22.5 -52t-14 -56t-4.5 -59zM139 350q0 25 4 48t12 45t19.5 41.5t26 37t31.5 32t36.5 26t41 20t44.5 12.5t47 4t47 -4t44.5 -12.5t41 -20t36.5 -26t31.5 -32t26 -37
t19.5 -41.5t12 -45t4 -48t-4 -48.5t-12 -45.5t-19.5 -41.5t-26 -37t-31.5 -32t-36.5 -26t-41 -19.5t-44.5 -12t-47 -4t-47 4t-44.5 12t-41 19.5t-36.5 26t-31.5 32t-26 37t-19.5 41.5t-12 45.5t-4 48.5zM365 897h-116l124 -125h100z" />
    <glyph glyph-name="Oacute" unicode="&#xd3;" horiz-adv-x="801" 
d="M32 350q0 -30 4.5 -59t14 -56t22.5 -52t29.5 -47.5t36.5 -42t43 -36t48 -29.5t53 -22t57.5 -13.5t60.5 -4.5t60.5 4.5t57 13.5t53 22t48 29.5t42.5 36t36.5 42t29.5 47.5t22.5 52t14 56t4.5 59t-4.5 59t-14 56t-22.5 52t-29.5 47.5t-36.5 42t-42.5 36t-48 29.5t-53 22
t-57 13.5t-60.5 4.5t-60.5 -4.5t-57.5 -13.5t-53 -22t-48 -29.5t-43 -36t-36.5 -42t-29.5 -47.5t-22.5 -52t-14 -56t-4.5 -59zM139 350q0 25 4 48t12 45t19.5 41.5t26 37t31.5 32t36.5 26t41 20t44.5 12.5t47 4t47 -4t44.5 -12.5t41 -20t36.5 -26t31.5 -32t26 -37
t19.5 -41.5t12 -45t4 -48t-4 -48.5t-12 -45.5t-19.5 -41.5t-26 -37t-31.5 -32t-36.5 -26t-41 -19.5t-44.5 -12t-47 -4t-47 4t-44.5 12t-41 19.5t-36.5 26t-31.5 32t-26 37t-19.5 41.5t-12 45.5t-4 48.5zM436 897l-107 -125h99l124 125h-116z" />
    <glyph glyph-name="Ocircumflex" unicode="&#xd4;" horiz-adv-x="801" 
d="M32 350q0 -30 4.5 -59t14 -56t22.5 -52t29.5 -47.5t36.5 -42t43 -36t48 -29.5t53 -22t57.5 -13.5t60.5 -4.5t60.5 4.5t57 13.5t53 22t48 29.5t42.5 36t36.5 42t29.5 47.5t22.5 52t14 56t4.5 59t-4.5 59t-14 56t-22.5 52t-29.5 47.5t-36.5 42t-42.5 36t-48 29.5t-53 22
t-57 13.5t-60.5 4.5t-60.5 -4.5t-57.5 -13.5t-53 -22t-48 -29.5t-43 -36t-36.5 -42t-29.5 -47.5t-22.5 -52t-14 -56t-4.5 -59zM139 350q0 25 4 48t12 45t19.5 41.5t26 37t31.5 32t36.5 26t41 20t44.5 12.5t47 4t47 -4t44.5 -12.5t41 -20t36.5 -26t31.5 -32t26 -37
t19.5 -41.5t12 -45t4 -48t-4 -48.5t-12 -45.5t-19.5 -41.5t-26 -37t-31.5 -32t-36.5 -26t-41 -19.5t-44.5 -12t-47 -4t-47 4t-44.5 12t-41 19.5t-36.5 26t-31.5 32t-26 37t-19.5 41.5t-12 45.5t-4 48.5zM328 772l73 74l73 -74h89l-111 125h-102l-111 -125h89z" />
    <glyph glyph-name="Otilde" unicode="&#xd5;" horiz-adv-x="801" 
d="M32 350q0 -30 4.5 -59t14 -56t22.5 -52t29.5 -47.5t36.5 -42t43 -36t48 -29.5t53 -22t57.5 -13.5t60.5 -4.5t60.5 4.5t57 13.5t53 22t48 29.5t42.5 36t36.5 42t29.5 47.5t22.5 52t14 56t4.5 59t-4.5 59t-14 56t-22.5 52t-29.5 47.5t-36.5 42t-42.5 36t-48 29.5t-53 22
t-57 13.5t-60.5 4.5t-60.5 -4.5t-57.5 -13.5t-53 -22t-48 -29.5t-43 -36t-36.5 -42t-29.5 -47.5t-22.5 -52t-14 -56t-4.5 -59zM139 350q0 25 4 48t12 45t19.5 41.5t26 37t31.5 32t36.5 26t41 20t44.5 12.5t47 4t47 -4t44.5 -12.5t41 -20t36.5 -26t31.5 -32t26 -37
t19.5 -41.5t12 -45t4 -48t-4 -48.5t-12 -45.5t-19.5 -41.5t-26 -37t-31.5 -32t-36.5 -26t-41 -19.5t-44.5 -12t-47 -4t-47 4t-44.5 12t-41 19.5t-36.5 26t-31.5 32t-26 37t-19.5 41.5t-12 45.5t-4 48.5zM335 892q-35 0 -60 -26t-38 -79l66 -14q8 30 17.5 40.5t21.5 10.5
q5 0 10.5 -1.5t11.5 -4.5t12.5 -6.5t13.5 -7.5t14.5 -8t15 -7.5t15.5 -6.5t15.5 -4.5t14.5 -1.5q35 0 60 26t38 78l-65 15q-8 -30 -18 -40.5t-22 -10.5q-5 0 -10.5 1.5t-11.5 4.5t-12.5 6.5t-13.5 7.5t-14.5 8t-15 7.5t-15.5 6.5t-15.5 4.5t-14.5 1.5z" />
    <glyph glyph-name="Odieresis" unicode="&#xd6;" horiz-adv-x="801" 
d="M32 350q0 -30 4.5 -59t14 -56t22.5 -52t29.5 -47.5t36.5 -42t43 -36t48 -29.5t53 -22t57.5 -13.5t60.5 -4.5t60.5 4.5t57 13.5t53 22t48 29.5t42.5 36t36.5 42t29.5 47.5t22.5 52t14 56t4.5 59t-4.5 59t-14 56t-22.5 52t-29.5 47.5t-36.5 42t-42.5 36t-48 29.5t-53 22
t-57 13.5t-60.5 4.5t-60.5 -4.5t-57.5 -13.5t-53 -22t-48 -29.5t-43 -36t-36.5 -42t-29.5 -47.5t-22.5 -52t-14 -56t-4.5 -59zM139 350q0 25 4 48t12 45t19.5 41.5t26 37t31.5 32t36.5 26t41 20t44.5 12.5t47 4t47 -4t44.5 -12.5t41 -20t36.5 -26t31.5 -32t26 -37
t19.5 -41.5t12 -45t4 -48t-4 -48.5t-12 -45.5t-19.5 -41.5t-26 -37t-31.5 -32t-36.5 -26t-41 -19.5t-44.5 -12t-47 -4t-47 4t-44.5 12t-41 19.5t-36.5 26t-31.5 32t-26 37t-19.5 41.5t-12 45.5t-4 48.5zM307 774q25 0 42 17.5t17 42.5t-17 42t-42 17q-24 0 -41.5 -17
t-17.5 -42t17.5 -42.5t41.5 -17.5zM494 774q25 0 41.5 17.5t16.5 42.5t-16.5 42t-41.5 17t-42 -17t-17 -42t17 -42.5t42 -17.5z" />
    <glyph glyph-name="multiply" unicode="&#xd7;" horiz-adv-x="535" 
d="M116 153l151 153l151 -154l54 54l-152 154l151 153l-52 52l-151 -153l-151 154l-54 -54l152 -154l-151 -153z" />
    <glyph glyph-name="Oslash" unicode="&#xd8;" horiz-adv-x="801" 
d="M65 0h97l38 46q43 -28 94 -43t107 -15q31 0 60.5 4.5t57 13.5t53 22t48 29.5t42.5 36t36.5 42t29.5 47.5t22.5 52t14 56t4.5 59q0 75 -29 141.5t-79 115.5l76 93h-98l-37 -46q-43 28 -94.5 43t-106.5 15q-31 0 -60.5 -4.5t-57.5 -13.5t-53 -22t-48 -29.5t-43 -36
t-36.5 -42t-29.5 -47.5t-22.5 -52t-14 -56t-4.5 -59q0 -76 29 -142.5t79 -115.5zM139 350q0 25 4 48t12 45t19.5 41.5t26 37t31.5 32t36.5 26t41 20t44.5 12.5t47 4q38 0 72.5 -10.5t64.5 -29.5l-333 -404q-31 34 -48.5 80.5t-17.5 97.5zM663 350q0 -25 -4 -48.5t-12 -45.5
t-19.5 -41.5t-26 -37t-31.5 -32t-36.5 -26t-41 -19.5t-44.5 -12t-47 -4q-37 0 -72.5 10.5t-64.5 28.5l332 405q31 -35 49 -81t18 -97z" />
    <glyph glyph-name="Ugrave" unicode="&#xd9;" horiz-adv-x="656" 
d="M153 268v432h-105v-437q0 -31 5 -59.5t15 -53.5t24 -47t32 -40t39.5 -32t45.5 -23.5t50.5 -14.5t54.5 -5q54 0 102 22t82 60v-70h105v700h-105v-432q0 -84 -50.5 -135t-122.5 -51q-73 0 -122.5 51t-49.5 135zM290 897h-116l124 -125h100z" />
    <glyph glyph-name="Uacute" unicode="&#xda;" horiz-adv-x="656" 
d="M153 268v432h-105v-437q0 -31 5 -59.5t15 -53.5t24 -47t32 -40t39.5 -32t45.5 -23.5t50.5 -14.5t54.5 -5q54 0 102 22t82 60v-70h105v700h-105v-432q0 -84 -50.5 -135t-122.5 -51q-73 0 -122.5 51t-49.5 135zM360 897l-107 -125h99l124 125h-116z" />
    <glyph glyph-name="Ucircumflex" unicode="&#xdb;" horiz-adv-x="656" 
d="M153 268v432h-105v-437q0 -31 5 -59.5t15 -53.5t24 -47t32 -40t39.5 -32t45.5 -23.5t50.5 -14.5t54.5 -5q54 0 102 22t82 60v-70h105v700h-105v-432q0 -84 -50.5 -135t-122.5 -51q-73 0 -122.5 51t-49.5 135zM253 772l73 74l73 -74h89l-111 125h-102l-111 -125h89z" />
    <glyph glyph-name="Udieresis" unicode="&#xdc;" horiz-adv-x="656" 
d="M153 268v432h-105v-437q0 -31 5 -59.5t15 -53.5t24 -47t32 -40t39.5 -32t45.5 -23.5t50.5 -14.5t54.5 -5q54 0 102 22t82 60v-70h105v700h-105v-432q0 -84 -50.5 -135t-122.5 -51q-73 0 -122.5 51t-49.5 135zM232 774q25 0 42 17.5t17 42.5t-17 42t-42 17
q-24 0 -41.5 -17t-17.5 -42t17.5 -42.5t41.5 -17.5zM419 774q25 0 41.5 17.5t16.5 42.5t-16.5 42t-41.5 17t-42 -17t-17 -42t17 -42.5t42 -17.5z" />
    <glyph glyph-name="Yacute" unicode="&#xdd;" horiz-adv-x="634" 
d="M369 0v299l270 401h-123l-198 -302l-198 302h-125l269 -399v-301h105zM352 897l-107 -125h99l124 125h-116z" />
    <glyph glyph-name="Thorn" unicode="&#xde;" horiz-adv-x="567" 
d="M158 700h-105v-700h105v143h170q22 0 43 4t40 12t35.5 19t31 25t25.5 30.5t19 35t12 39t4 42.5t-4 42.5t-12 39.5t-19 35.5t-25.5 30.5t-31 25t-35.5 19t-40 12t-43 4h-170v142zM318 466q49 0 81 -34.5t32 -83.5t-32 -83t-81 -34h-160v235h160z" />
    <glyph glyph-name="germandbls" unicode="&#xdf;" horiz-adv-x="608" 
d="M357 378l72 41q38 22 58.5 50.5t20.5 73.5q0 18 -4.5 35t-12.5 32.5t-19.5 29t-26 25t-32 20t-37 15t-41 9.5t-44.5 3q-26 0 -50 -4t-46 -11.5t-41 -18.5t-35 -25.5t-28.5 -32.5t-21.5 -39t-13.5 -45t-4.5 -51v-485h102v485q0 62 38 100t98 38q51 0 84.5 -24.5
t33.5 -60.5q0 -19 -11.5 -35t-33.5 -29l-55 -33q-37 -22 -54.5 -46.5t-17.5 -63.5q0 -44 31 -71t91 -45l71 -21q31 -9 46 -24t15 -38q0 -28 -20.5 -46t-59.5 -18q-38 0 -64 19.5t-33 54.5h-97q12 -64 62.5 -108.5t132.5 -44.5q81 0 129 44t48 110q0 53 -32 87.5t-98 52.5
l-81 22q-22 6 -34.5 14t-12.5 24q0 10 7 18t21 17z" />
    <glyph glyph-name="agrave" unicode="&#xe0;" horiz-adv-x="521" 
d="M25 141q0 -66 49.5 -109t124.5 -43q51 0 92.5 20t66.5 55q10 -30 35.5 -47t62.5 -17h50v89h-26q-15 0 -22.5 7.5t-7.5 21.5v230q0 78 -52 124.5t-138 46.5q-57 0 -106.5 -16.5t-89.5 -50.5l45 -73q32 25 66 37t71 12q50 0 77.5 -25t27.5 -68v-33l-159 -12
q-79 -5 -123 -44t-44 -105zM122 142q0 31 21.5 49.5t63.5 21.5l144 12v-42q0 -48 -39 -81.5t-93 -33.5q-43 0 -70 20.5t-27 53.5zM217 706h-116l124 -125h100z" />
    <glyph glyph-name="aacute" unicode="&#xe1;" horiz-adv-x="521" 
d="M25 141q0 -66 49.5 -109t124.5 -43q51 0 92.5 20t66.5 55q10 -30 35.5 -47t62.5 -17h50v89h-26q-15 0 -22.5 7.5t-7.5 21.5v230q0 78 -52 124.5t-138 46.5q-57 0 -106.5 -16.5t-89.5 -50.5l45 -73q32 25 66 37t71 12q50 0 77.5 -25t27.5 -68v-33l-159 -12
q-79 -5 -123 -44t-44 -105zM122 142q0 31 21.5 49.5t63.5 21.5l144 12v-42q0 -48 -39 -81.5t-93 -33.5q-43 0 -70 20.5t-27 53.5zM288 706l-107 -125h99l124 125h-116z" />
    <glyph glyph-name="acircumflex" unicode="&#xe2;" horiz-adv-x="521" 
d="M25 141q0 -66 49.5 -109t124.5 -43q51 0 92.5 20t66.5 55q10 -30 35.5 -47t62.5 -17h50v89h-26q-15 0 -22.5 7.5t-7.5 21.5v230q0 78 -52 124.5t-138 46.5q-57 0 -106.5 -16.5t-89.5 -50.5l45 -73q32 25 66 37t71 12q50 0 77.5 -25t27.5 -68v-33l-159 -12
q-79 -5 -123 -44t-44 -105zM122 142q0 31 21.5 49.5t63.5 21.5l144 12v-42q0 -48 -39 -81.5t-93 -33.5q-43 0 -70 20.5t-27 53.5zM180 581l73 74l73 -74h89l-111 125h-102l-111 -125h89z" />
    <glyph glyph-name="atilde" unicode="&#xe3;" horiz-adv-x="521" 
d="M25 141q0 -66 49.5 -109t124.5 -43q51 0 92.5 20t66.5 55q10 -30 35.5 -47t62.5 -17h50v89h-26q-15 0 -22.5 7.5t-7.5 21.5v230q0 78 -52 124.5t-138 46.5q-57 0 -106.5 -16.5t-89.5 -50.5l45 -73q32 25 66 37t71 12q50 0 77.5 -25t27.5 -68v-33l-159 -12
q-79 -5 -123 -44t-44 -105zM122 142q0 31 21.5 49.5t63.5 21.5l144 12v-42q0 -48 -39 -81.5t-93 -33.5q-43 0 -70 20.5t-27 53.5zM188 701q-35 0 -60 -26t-38 -79l66 -14q8 30 17.5 40.5t21.5 10.5q5 0 10.5 -1.5t11.5 -4.5t12.5 -6.5t13.5 -7.5t14.5 -8t15 -7.5t15.5 -6.5
t15.5 -4.5t14.5 -1.5q35 0 60 26t38 78l-65 15q-8 -30 -18 -40.5t-22 -10.5q-5 0 -10.5 1.5t-11.5 4.5t-12.5 6.5t-13.5 7.5t-14.5 8t-15 7.5t-15.5 6.5t-15.5 4.5t-14.5 1.5z" />
    <glyph glyph-name="adieresis" unicode="&#xe4;" horiz-adv-x="521" 
d="M25 141q0 -66 49.5 -109t124.5 -43q51 0 92.5 20t66.5 55q10 -30 35.5 -47t62.5 -17h50v89h-26q-15 0 -22.5 7.5t-7.5 21.5v230q0 78 -52 124.5t-138 46.5q-57 0 -106.5 -16.5t-89.5 -50.5l45 -73q32 25 66 37t71 12q50 0 77.5 -25t27.5 -68v-33l-159 -12
q-79 -5 -123 -44t-44 -105zM122 142q0 31 21.5 49.5t63.5 21.5l144 12v-42q0 -48 -39 -81.5t-93 -33.5q-43 0 -70 20.5t-27 53.5zM160 583q25 0 42 17.5t17 42.5t-17 42t-42 17q-24 0 -41.5 -17t-17.5 -42t17.5 -42.5t41.5 -17.5zM347 583q25 0 41.5 17.5t16.5 42.5
t-16.5 42t-41.5 17t-42 -17t-17 -42t17 -42.5t42 -17.5z" />
    <glyph glyph-name="aring" unicode="&#xe5;" horiz-adv-x="521" 
d="M25 141q0 -66 49.5 -109t124.5 -43q51 0 92.5 20t66.5 55q10 -30 35.5 -47t62.5 -17h50v89h-26q-15 0 -22.5 7.5t-7.5 21.5v230q0 78 -52 124.5t-138 46.5q-57 0 -106.5 -16.5t-89.5 -50.5l45 -73q32 25 66 37t71 12q50 0 77.5 -25t27.5 -68v-33l-159 -12
q-79 -5 -123 -44t-44 -105zM122 142q0 31 21.5 49.5t63.5 21.5l144 12v-42q0 -48 -39 -81.5t-93 -33.5q-43 0 -70 20.5t-27 53.5zM253 564q46 0 77.5 32t31.5 76q0 43 -31.5 74.5t-77.5 31.5t-77.5 -31.5t-31.5 -74.5q0 -45 31.5 -76.5t77.5 -31.5zM253 613q-25 0 -42 17
t-17 42q0 23 17 40t42 17t42 -17t17 -40q0 -25 -17 -42t-42 -17z" />
    <glyph glyph-name="ae" unicode="&#xe6;" horiz-adv-x="899" 
d="M626 -10q68 0 123.5 29t92.5 80l-73 53q-28 -38 -65 -56.5t-82 -18.5q-64 0 -111 42t-57 105h415v32q0 25 -4 49t-11.5 46t-18 41.5t-24 36.5t-30 31.5t-35.5 25.5t-39.5 19t-43.5 12t-47 4q-58 0 -108 -24t-84 -66q-21 41 -63.5 64.5t-100.5 23.5q-57 0 -106.5 -16.5
t-89.5 -50.5l46 -73q31 25 65 37t71 12q50 0 77.5 -25t27.5 -68v-36l-159 -10q-79 -5 -123 -43.5t-44 -104.5t50.5 -109t126.5 -43q75 0 126 31.5t77 82.5q35 -51 93 -82t128 -31zM611 433q56 0 99 -35.5t56 -93.5h-310q14 57 57 93t98 36zM122 142q0 31 21.5 49t63.5 21
l144 11v-40q0 -48 -39 -81.5t-93 -33.5q-43 0 -70 20.5t-27 53.5z" />
    <glyph glyph-name="ccedilla" unicode="&#xe7;" horiz-adv-x="534" 
d="M131 254q0 75 50.5 126t122.5 51q44 0 81 -20t62 -54l74 53q-37 50 -91 80.5t-126 30.5q-26 0 -50.5 -4.5t-47 -12.5t-42.5 -19.5t-38 -26t-33 -32t-26.5 -37.5t-19.5 -41.5t-12.5 -45t-4.5 -48.5q0 -23 3.5 -44.5t11 -42t17.5 -39.5t23.5 -36t29 -31.5t33.5 -26.5
t38 -21t42 -15t45 -8l-25 -81h38q24 0 39 -11t15 -30q0 -17 -13.5 -29t-36.5 -12q-19 0 -35 7.5t-29 23.5l-44 -36q17 -23 47 -36t65 -13q47 0 79 27t32 67q0 34 -24 57t-63 27l12 38q62 5 109.5 34.5t81.5 74.5l-74 54q-25 -34 -62 -54.5t-81 -20.5q-18 0 -35 3.5
t-32.5 10.5t-29.5 16.5t-25.5 21.5t-21 26t-16 30t-10 33.5t-3.5 35.5z" />
    <glyph glyph-name="egrave" unicode="&#xe8;" horiz-adv-x="577" 
d="M30 255q0 -25 4 -49t12.5 -46t20 -41.5t26 -37t32.5 -32t38 -25.5t42 -19t46.5 -12t49.5 -4q69 0 125.5 29t94.5 80l-73 54q-28 -38 -65.5 -56.5t-81.5 -18.5q-64 0 -111.5 41.5t-57.5 103.5h415v33q0 25 -4 49t-11.5 46t-18 41.5t-24.5 36.5t-30.5 31.5t-35 25.5t-40 19
t-44 12t-47.5 4t-48.5 -4.5t-45 -12.5t-41 -19.5t-36.5 -26.5t-31 -32.5t-25 -37t-19 -41t-12 -44.5t-4 -47zM290 432q56 0 99 -36t56 -94h-311q13 58 56.5 94t99.5 36zM257 706h-116l124 -125h100z" />
    <glyph glyph-name="eacute" unicode="&#xe9;" horiz-adv-x="577" 
d="M30 255q0 -25 4 -49t12.5 -46t20 -41.5t26 -37t32.5 -32t38 -25.5t42 -19t46.5 -12t49.5 -4q69 0 125.5 29t94.5 80l-73 54q-28 -38 -65.5 -56.5t-81.5 -18.5q-64 0 -111.5 41.5t-57.5 103.5h415v33q0 25 -4 49t-11.5 46t-18 41.5t-24.5 36.5t-30.5 31.5t-35 25.5t-40 19
t-44 12t-47.5 4t-48.5 -4.5t-45 -12.5t-41 -19.5t-36.5 -26.5t-31 -32.5t-25 -37t-19 -41t-12 -44.5t-4 -47zM290 432q56 0 99 -36t56 -94h-311q13 58 56.5 94t99.5 36zM327 706l-107 -125h99l124 125h-116z" />
    <glyph glyph-name="ecircumflex" unicode="&#xea;" horiz-adv-x="577" 
d="M30 255q0 -25 4 -49t12.5 -46t20 -41.5t26 -37t32.5 -32t38 -25.5t42 -19t46.5 -12t49.5 -4q69 0 125.5 29t94.5 80l-73 54q-28 -38 -65.5 -56.5t-81.5 -18.5q-64 0 -111.5 41.5t-57.5 103.5h415v33q0 25 -4 49t-11.5 46t-18 41.5t-24.5 36.5t-30.5 31.5t-35 25.5t-40 19
t-44 12t-47.5 4t-48.5 -4.5t-45 -12.5t-41 -19.5t-36.5 -26.5t-31 -32.5t-25 -37t-19 -41t-12 -44.5t-4 -47zM290 432q56 0 99 -36t56 -94h-311q13 58 56.5 94t99.5 36zM220 581l73 74l73 -74h89l-111 125h-102l-111 -125h89z" />
    <glyph glyph-name="edieresis" unicode="&#xeb;" horiz-adv-x="577" 
d="M30 255q0 -25 4 -49t12.5 -46t20 -41.5t26 -37t32.5 -32t38 -25.5t42 -19t46.5 -12t49.5 -4q69 0 125.5 29t94.5 80l-73 54q-28 -38 -65.5 -56.5t-81.5 -18.5q-64 0 -111.5 41.5t-57.5 103.5h415v33q0 25 -4 49t-11.5 46t-18 41.5t-24.5 36.5t-30.5 31.5t-35 25.5t-40 19
t-44 12t-47.5 4t-48.5 -4.5t-45 -12.5t-41 -19.5t-36.5 -26.5t-31 -32.5t-25 -37t-19 -41t-12 -44.5t-4 -47zM290 432q56 0 99 -36t56 -94h-311q13 58 56.5 94t99.5 36zM199 583q25 0 42 17.5t17 42.5t-17 42t-42 17q-24 0 -41.5 -17t-17.5 -42t17.5 -42.5t41.5 -17.5z
M386 583q25 0 41.5 17.5t16.5 42.5t-16.5 42t-41.5 17t-42 -17t-17 -42t17 -42.5t42 -17.5z" />
    <glyph glyph-name="igrave" unicode="&#xec;" horiz-adv-x="199" 
d="M150 510h-101v-510h101v510zM64 706h-116l124 -125h100z" />
    <glyph glyph-name="iacute" unicode="&#xed;" horiz-adv-x="199" 
d="M150 510h-101v-510h101v510zM135 706l-107 -125h99l124 125h-116z" />
    <glyph glyph-name="icircumflex" unicode="&#xee;" horiz-adv-x="199" 
d="M150 510h-101v-510h101v510zM27 581l73 74l73 -74h89l-111 125h-102l-111 -125h89z" />
    <glyph glyph-name="idieresis" unicode="&#xef;" horiz-adv-x="199" 
d="M150 510h-101v-510h101v510zM7 583q25 0 42 17.5t17 42.5t-17 42t-42 17q-24 0 -41.5 -17t-17.5 -42t17.5 -42.5t41.5 -17.5zM194 583q25 0 41.5 17.5t16.5 42.5t-16.5 42t-41.5 17t-42 -17t-17 -42t17 -42.5t42 -17.5z" />
    <glyph glyph-name="eth" unicode="&#xf0;" horiz-adv-x="588" 
d="M259 525l87 55q40 -37 65.5 -84t34.5 -98q-29 43 -74.5 67.5t-100.5 24.5q-22 0 -43 -4t-41 -11.5t-37.5 -18t-33.5 -24t-29.5 -29.5t-24 -34t-17.5 -38t-11 -41.5t-4 -43.5q0 -24 4 -46.5t11.5 -43.5t18.5 -40t25 -35.5t30.5 -30.5t35 -25t39.5 -18.5t43 -11.5t46 -4
q30 0 57 5.5t51 16.5t45 26.5t38.5 35.5t31 44.5t22.5 53t14 60t5 66.5v25q0 91 -31.5 169t-91.5 137l79 51l-39 57l-96 -61q-28 19 -60.5 36t-68.5 30l-42 -77q25 -7 47.5 -17.5t42.5 -23.5l-67 -43zM286 79q-66 0 -112.5 47.5t-46.5 114.5q0 68 46.5 115t112.5 47
q65 0 111 -47t46 -115q0 -67 -45.5 -114.5t-111.5 -47.5z" />
    <glyph glyph-name="ntilde" unicode="&#xf1;" 
d="M496 326q0 20 -3.5 39.5t-10.5 37t-17 33t-23 29t-28.5 24t-33.5 17.5t-38 11t-42 4q-46 0 -84.5 -18t-65.5 -49v56h-101v-510h101v303q0 57 35.5 92t89.5 35t87 -34.5t33 -89.5v-306h101v326zM208 701q-35 0 -60 -26t-38 -79l66 -14q8 30 17.5 40.5t21.5 10.5
q5 0 10.5 -1.5t11.5 -4.5t12.5 -6.5t13.5 -7.5t14.5 -8t15 -7.5t15.5 -6.5t15.5 -4.5t14.5 -1.5q35 0 60 26t38 78l-65 15q-8 -30 -18 -40.5t-22 -10.5q-5 0 -10.5 1.5t-11.5 4.5t-12.5 6.5t-13.5 7.5t-14.5 8t-15 7.5t-15.5 6.5t-15.5 4.5t-14.5 1.5z" />
    <glyph glyph-name="ograve" unicode="&#xf2;" horiz-adv-x="608" 
d="M578 255q0 25 -4.5 48t-12.5 45t-20 41.5t-27 37t-33 32t-38.5 26t-43 19.5t-46.5 12.5t-49 4.5t-49 -4.5t-46.5 -12.5t-43 -19.5t-38.5 -26t-33 -32t-27 -37t-20 -41.5t-12.5 -45t-4.5 -48t4.5 -48t12.5 -45t20 -41.5t27 -37t33 -32.5t38.5 -26.5t43 -19.5t46.5 -12.5
t49 -4.5t49 4.5t46.5 12.5t43 19.5t38.5 26.5t33 32.5t27 37t20 41.5t12.5 45t4.5 48zM477 255q0 -74 -50.5 -125.5t-122.5 -51.5t-122.5 51.5t-50.5 125.5q0 73 50.5 124.5t122.5 51.5t122.5 -51.5t50.5 -124.5zM268 706h-116l124 -125h100z" />
    <glyph glyph-name="oacute" unicode="&#xf3;" horiz-adv-x="608" 
d="M578 255q0 25 -4.5 48t-12.5 45t-20 41.5t-27 37t-33 32t-38.5 26t-43 19.5t-46.5 12.5t-49 4.5t-49 -4.5t-46.5 -12.5t-43 -19.5t-38.5 -26t-33 -32t-27 -37t-20 -41.5t-12.5 -45t-4.5 -48t4.5 -48t12.5 -45t20 -41.5t27 -37t33 -32.5t38.5 -26.5t43 -19.5t46.5 -12.5
t49 -4.5t49 4.5t46.5 12.5t43 19.5t38.5 26.5t33 32.5t27 37t20 41.5t12.5 45t4.5 48zM477 255q0 -74 -50.5 -125.5t-122.5 -51.5t-122.5 51.5t-50.5 125.5q0 73 50.5 124.5t122.5 51.5t122.5 -51.5t50.5 -124.5zM339 706l-107 -125h99l124 125h-116z" />
    <glyph glyph-name="ocircumflex" unicode="&#xf4;" horiz-adv-x="608" 
d="M578 255q0 25 -4.5 48t-12.5 45t-20 41.5t-27 37t-33 32t-38.5 26t-43 19.5t-46.5 12.5t-49 4.5t-49 -4.5t-46.5 -12.5t-43 -19.5t-38.5 -26t-33 -32t-27 -37t-20 -41.5t-12.5 -45t-4.5 -48t4.5 -48t12.5 -45t20 -41.5t27 -37t33 -32.5t38.5 -26.5t43 -19.5t46.5 -12.5
t49 -4.5t49 4.5t46.5 12.5t43 19.5t38.5 26.5t33 32.5t27 37t20 41.5t12.5 45t4.5 48zM477 255q0 -74 -50.5 -125.5t-122.5 -51.5t-122.5 51.5t-50.5 125.5q0 73 50.5 124.5t122.5 51.5t122.5 -51.5t50.5 -124.5zM231 581l73 74l73 -74h89l-111 125h-102l-111 -125h89z" />
    <glyph glyph-name="otilde" unicode="&#xf5;" horiz-adv-x="608" 
d="M578 255q0 25 -4.5 48t-12.5 45t-20 41.5t-27 37t-33 32t-38.5 26t-43 19.5t-46.5 12.5t-49 4.5t-49 -4.5t-46.5 -12.5t-43 -19.5t-38.5 -26t-33 -32t-27 -37t-20 -41.5t-12.5 -45t-4.5 -48t4.5 -48t12.5 -45t20 -41.5t27 -37t33 -32.5t38.5 -26.5t43 -19.5t46.5 -12.5
t49 -4.5t49 4.5t46.5 12.5t43 19.5t38.5 26.5t33 32.5t27 37t20 41.5t12.5 45t4.5 48zM477 255q0 -74 -50.5 -125.5t-122.5 -51.5t-122.5 51.5t-50.5 125.5q0 73 50.5 124.5t122.5 51.5t122.5 -51.5t50.5 -124.5zM239 701q-35 0 -60 -26t-38 -79l66 -14q8 30 17.5 40.5
t21.5 10.5q5 0 10.5 -1.5t11.5 -4.5t12.5 -6.5t13.5 -7.5t14.5 -8t15 -7.5t15.5 -6.5t15.5 -4.5t14.5 -1.5q35 0 60 26t38 78l-65 15q-8 -30 -18 -40.5t-22 -10.5q-5 0 -10.5 1.5t-11.5 4.5t-12.5 6.5t-13.5 7.5t-14.5 8t-15 7.5t-15.5 6.5t-15.5 4.5t-14.5 1.5z" />
    <glyph glyph-name="odieresis" unicode="&#xf6;" horiz-adv-x="608" 
d="M578 255q0 25 -4.5 48t-12.5 45t-20 41.5t-27 37t-33 32t-38.5 26t-43 19.5t-46.5 12.5t-49 4.5t-49 -4.5t-46.5 -12.5t-43 -19.5t-38.5 -26t-33 -32t-27 -37t-20 -41.5t-12.5 -45t-4.5 -48t4.5 -48t12.5 -45t20 -41.5t27 -37t33 -32.5t38.5 -26.5t43 -19.5t46.5 -12.5
t49 -4.5t49 4.5t46.5 12.5t43 19.5t38.5 26.5t33 32.5t27 37t20 41.5t12.5 45t4.5 48zM477 255q0 -74 -50.5 -125.5t-122.5 -51.5t-122.5 51.5t-50.5 125.5q0 73 50.5 124.5t122.5 51.5t122.5 -51.5t50.5 -124.5zM211 583q25 0 42 17.5t17 42.5t-17 42t-42 17
q-24 0 -41.5 -17t-17.5 -42t17.5 -42.5t41.5 -17.5zM398 583q25 0 41.5 17.5t16.5 42.5t-16.5 42t-41.5 17t-42 -17t-17 -42t17 -42.5t42 -17.5z" />
    <glyph glyph-name="divide" unicode="&#xf7;" horiz-adv-x="529" 
d="M266 614q-25 0 -43.5 -18.5t-18.5 -43.5q0 -26 18.5 -44t43.5 -18q26 0 44 18t18 44q0 25 -18 43.5t-44 18.5zM481 324v76h-433v-76h433zM266 228q-25 0 -43.5 -18.5t-18.5 -43.5q0 -26 18.5 -44t43.5 -18q26 0 44 18t18 44q0 25 -18 43.5t-44 18.5z" />
    <glyph glyph-name="oslash" unicode="&#xf8;" horiz-adv-x="608" 
d="M49 0h79l26 31q32 -20 70.5 -31.5t79.5 -11.5q25 0 49 4.5t46.5 12.5t43 19.5t38.5 26.5t33 32.5t27 37t20 41.5t12.5 45t4.5 48q0 54 -20.5 102t-57.5 84l59 69h-79l-27 -32q-32 20 -70 31.5t-79 11.5q-25 0 -49 -4.5t-46.5 -12.5t-43 -19.5t-38.5 -26t-33 -32t-27 -37
t-20 -41.5t-12.5 -45t-4.5 -48q0 -54 20.5 -102t56.5 -84zM131 255q0 73 50.5 124.5t122.5 51.5q24 0 47 -6.5t42 -17.5l-223 -264q-19 22 -29 51t-10 61zM477 255q0 -74 -50.5 -125.5t-122.5 -51.5q-25 0 -47.5 6.5t-41.5 18.5l223 264q18 -22 28.5 -51t10.5 -61z" />
    <glyph glyph-name="ugrave" unicode="&#xf9;" 
d="M49 184q0 -20 3.5 -39.5t10.5 -37t17 -33t23 -28.5t28.5 -23.5t33.5 -17.5t38 -11t42 -4q46 0 85 18t65 49v-57h101v510h-101v-303q0 -56 -35.5 -92t-89.5 -36t-87 35.5t-33 88.5v307h-101v-326zM237 706h-116l124 -125h100z" />
    <glyph glyph-name="uacute" unicode="&#xfa;" 
d="M49 184q0 -20 3.5 -39.5t10.5 -37t17 -33t23 -28.5t28.5 -23.5t33.5 -17.5t38 -11t42 -4q46 0 85 18t65 49v-57h101v510h-101v-303q0 -56 -35.5 -92t-89.5 -36t-87 35.5t-33 88.5v307h-101v-326zM308 706l-107 -125h99l124 125h-116z" />
    <glyph glyph-name="ucircumflex" unicode="&#xfb;" 
d="M49 184q0 -20 3.5 -39.5t10.5 -37t17 -33t23 -28.5t28.5 -23.5t33.5 -17.5t38 -11t42 -4q46 0 85 18t65 49v-57h101v510h-101v-303q0 -56 -35.5 -92t-89.5 -36t-87 35.5t-33 88.5v307h-101v-326zM200 581l73 74l73 -74h89l-111 125h-102l-111 -125h89z" />
    <glyph glyph-name="udieresis" unicode="&#xfc;" 
d="M49 184q0 -20 3.5 -39.5t10.5 -37t17 -33t23 -28.5t28.5 -23.5t33.5 -17.5t38 -11t42 -4q46 0 85 18t65 49v-57h101v510h-101v-303q0 -56 -35.5 -92t-89.5 -36t-87 35.5t-33 88.5v307h-101v-326zM180 583q25 0 42 17.5t17 42.5t-17 42t-42 17q-24 0 -41.5 -17t-17.5 -42
t17.5 -42.5t41.5 -17.5zM367 583q25 0 41.5 17.5t16.5 42.5t-16.5 42t-41.5 17t-42 -17t-17 -42t17 -42.5t42 -17.5z" />
    <glyph glyph-name="yacute" unicode="&#xfd;" horiz-adv-x="509" 
d="M179 -60q-12 -30 -30 -42.5t-46 -12.5h-47v-86h67q56 0 89.5 25.5t57.5 82.5l244 603h-105l-150 -378l-155 378h-109l212 -500zM292 706l-107 -125h99l124 125h-116z" />
    <glyph glyph-name="thorn" unicode="&#xfe;" horiz-adv-x="629" 
d="M49 700v-901h101v265q34 -35 81 -55t100 -20q25 0 48.5 4t45.5 12.5t42 20t37.5 26t32 32t26 37t20 41.5t12.5 45t4 48t-4 48t-12.5 45t-20 41.5t-26 37t-32 32.5t-37.5 26.5t-42 19.5t-45.5 12.5t-48.5 4.5q-53 0 -100.5 -20.5t-81.5 -55.5v254h-100zM148 255
q0 18 3.5 35.5t10 33.5t16 30t21.5 26t26 21.5t30 16.5t33.5 10.5t35.5 3.5t35 -3.5t33 -10.5t30 -16.5t25.5 -21.5t21 -26t16.5 -30t10.5 -33.5t3.5 -35.5t-3.5 -35.5t-10.5 -33.5t-16.5 -30t-21 -26t-25.5 -21.5t-30 -16.5t-33 -10.5t-35 -3.5t-35.5 3.5t-33 10.5
t-29.5 16.5t-26 21.5t-21.5 26t-16.5 30t-10.5 33.5t-3.5 35.5z" />
    <glyph glyph-name="ydieresis" unicode="&#xff;" horiz-adv-x="509" 
d="M179 -60q-12 -30 -30 -42.5t-46 -12.5h-47v-86h67q56 0 89.5 25.5t57.5 82.5l244 603h-105l-150 -378l-155 378h-109l212 -500zM164 583q25 0 42 17.5t17 42.5t-17 42t-42 17q-24 0 -41.5 -17t-17.5 -42t17.5 -42.5t41.5 -17.5zM351 583q25 0 41.5 17.5t16.5 42.5
t-16.5 42t-41.5 17t-42 -17t-17 -42t17 -42.5t42 -17.5z" />
    <glyph glyph-name="Amacron" unicode="&#x100;" horiz-adv-x="692" 
d="M398 700h-105l-296 -700h109l76 184h325l76 -184h112zM218 276l126 305l126 -305h-252zM476 867h-260v-69h260v69z" />
    <glyph glyph-name="amacron" unicode="&#x101;" horiz-adv-x="521" 
d="M25 141q0 -66 49.5 -109t124.5 -43q51 0 92.5 20t66.5 55q10 -30 35.5 -47t62.5 -17h50v89h-26q-15 0 -22.5 7.5t-7.5 21.5v230q0 78 -52 124.5t-138 46.5q-57 0 -106.5 -16.5t-89.5 -50.5l45 -73q32 25 66 37t71 12q50 0 77.5 -25t27.5 -68v-33l-159 -12
q-79 -5 -123 -44t-44 -105zM122 142q0 31 21.5 49.5t63.5 21.5l144 12v-42q0 -48 -39 -81.5t-93 -33.5q-43 0 -70 20.5t-27 53.5zM383 676h-260v-69h260v69z" />
    <glyph glyph-name="Abreve" unicode="&#x102;" horiz-adv-x="692" 
d="M398 700h-105l-296 -700h109l76 184h325l76 -184h112zM218 276l126 305l126 -305h-252zM346 832q-26 0 -50.5 14.5t-37.5 57.5l-69 -21q15 -56 59 -86.5t98 -30.5t98 30.5t59 86.5l-69 21q-13 -43 -38 -57.5t-50 -14.5z" />
    <glyph glyph-name="abreve" unicode="&#x103;" horiz-adv-x="521" 
d="M25 141q0 -66 49.5 -109t124.5 -43q51 0 92.5 20t66.5 55q10 -30 35.5 -47t62.5 -17h50v89h-26q-15 0 -22.5 7.5t-7.5 21.5v230q0 78 -52 124.5t-138 46.5q-57 0 -106.5 -16.5t-89.5 -50.5l45 -73q32 25 66 37t71 12q50 0 77.5 -25t27.5 -68v-33l-159 -12
q-79 -5 -123 -44t-44 -105zM122 142q0 31 21.5 49.5t63.5 21.5l144 12v-42q0 -48 -39 -81.5t-93 -33.5q-43 0 -70 20.5t-27 53.5zM253 641q-26 0 -50.5 14.5t-37.5 57.5l-69 -21q15 -56 59 -86.5t98 -30.5t98 30.5t59 86.5l-69 21q-13 -43 -38 -57.5t-50 -14.5z" />
    <glyph glyph-name="Aogonek" unicode="&#x104;" horiz-adv-x="692" 
d="M695 0l-297 700h-105l-296 -700h109l76 184h325l76 -184h46q-46 -37 -62 -69t-16 -64q0 -37 25.5 -62.5t75.5 -25.5q16 0 31.5 3t28.5 8l-11 54q-9 -4 -18.5 -5.5t-19.5 -1.5q-22 0 -34.5 12.5t-12.5 34.5t14.5 50.5t64.5 65.5zM218 276l126 305l126 -305h-252z" />
    <glyph glyph-name="aogonek" unicode="&#x105;" horiz-adv-x="521" 
d="M25 141q0 -66 49.5 -109t124.5 -43q51 0 92.5 20t66.5 55q9 -27 30.5 -43.5t52.5 -19.5q-46 -38 -62.5 -70t-16.5 -64q0 -37 25.5 -62.5t75.5 -25.5q16 0 31.5 3t28.5 8l-11 54q-9 -4 -18.5 -5.5t-19.5 -1.5q-22 0 -34.5 12.5t-12.5 34.5t14.5 50.5t64.5 65.5v89h-26
q-15 0 -22.5 7.5t-7.5 21.5v230q0 78 -52 124.5t-138 46.5q-57 0 -106.5 -16.5t-89.5 -50.5l45 -73q32 25 66 37t71 12q50 0 77.5 -25t27.5 -68v-33l-159 -12q-79 -5 -123 -44t-44 -105zM122 142q0 31 21.5 49.5t63.5 21.5l144 12v-42q0 -48 -39 -81.5t-93 -33.5
q-43 0 -70 20.5t-27 53.5z" />
    <glyph glyph-name="Cacute" unicode="&#x106;" horiz-adv-x="725" 
d="M32 350q0 -30 4.5 -59t13.5 -56.5t21.5 -52.5t29 -47.5t36.5 -42t43 -35.5t48.5 -29t53.5 -22t58.5 -13.5t62.5 -4.5q97 0 176 44t128 114l-83 58q-36 -55 -94.5 -87.5t-127.5 -32.5q-24 0 -47.5 4t-45 12t-41 19t-36.5 25.5t-32 31.5t-26 36.5t-19.5 41.5t-12.5 46
t-4 50t4 50t12 46t19.5 41.5t26 36.5t32 31.5t37 25.5t41 19t45 12t47.5 4q66 0 124.5 -33t94.5 -87l83 58q-50 71 -129 114.5t-174 43.5q-32 0 -62 -4.5t-57.5 -13.5t-53 -22t-48.5 -29.5t-42.5 -36.5t-36 -42.5t-29.5 -47.5t-22 -52t-13.5 -55.5t-4.5 -58.5zM434 897
l-107 -125h99l124 125h-116z" />
    <glyph glyph-name="cacute" unicode="&#x107;" horiz-adv-x="539" 
d="M131 254q0 75 50.5 126t122.5 51q44 0 81 -20t62 -54l74 53q-37 50 -91 80.5t-126 30.5q-26 0 -50.5 -4.5t-47 -12.5t-42.5 -19.5t-38 -26t-33 -32t-26.5 -37.5t-19.5 -41.5t-12.5 -45t-4.5 -48.5q0 -24 4.5 -47.5t12.5 -45.5t19.5 -41.5t26.5 -37t33 -32t38 -26
t42.5 -19.5t47 -12.5t50.5 -4.5q72 0 126 30.5t91 79.5l-74 54q-25 -34 -62 -54.5t-81 -20.5q-18 0 -35 3.5t-32.5 10.5t-29.5 16.5t-25.5 21.5t-21 26t-16 30t-10 33.5t-3.5 35.5zM338 706l-107 -125h99l124 125h-116z" />
    <glyph glyph-name="Ccircumflex" unicode="&#x108;" horiz-adv-x="725" 
d="M32 350q0 -30 4.5 -59t13.5 -56.5t21.5 -52.5t29 -47.5t36.5 -42t43 -35.5t48.5 -29t53.5 -22t58.5 -13.5t62.5 -4.5q97 0 176 44t128 114l-83 58q-36 -55 -94.5 -87.5t-127.5 -32.5q-24 0 -47.5 4t-45 12t-41 19t-36.5 25.5t-32 31.5t-26 36.5t-19.5 41.5t-12.5 46
t-4 50t4 50t12 46t19.5 41.5t26 36.5t32 31.5t37 25.5t41 19t45 12t47.5 4q66 0 124.5 -33t94.5 -87l83 58q-50 71 -129 114.5t-174 43.5q-32 0 -62 -4.5t-57.5 -13.5t-53 -22t-48.5 -29.5t-42.5 -36.5t-36 -42.5t-29.5 -47.5t-22 -52t-13.5 -55.5t-4.5 -58.5zM327 772
l73 74l73 -74h89l-111 125h-102l-111 -125h89z" />
    <glyph glyph-name="ccircumflex" unicode="&#x109;" horiz-adv-x="539" 
d="M131 254q0 75 50.5 126t122.5 51q44 0 81 -20t62 -54l74 53q-37 50 -91 80.5t-126 30.5q-26 0 -50.5 -4.5t-47 -12.5t-42.5 -19.5t-38 -26t-33 -32t-26.5 -37.5t-19.5 -41.5t-12.5 -45t-4.5 -48.5q0 -24 4.5 -47.5t12.5 -45.5t19.5 -41.5t26.5 -37t33 -32t38 -26
t42.5 -19.5t47 -12.5t50.5 -4.5q72 0 126 30.5t91 79.5l-74 54q-25 -34 -62 -54.5t-81 -20.5q-18 0 -35 3.5t-32.5 10.5t-29.5 16.5t-25.5 21.5t-21 26t-16 30t-10 33.5t-3.5 35.5zM230 581l73 74l73 -74h89l-111 125h-102l-111 -125h89z" />
    <glyph glyph-name="Cdotaccent" unicode="&#x10a;" horiz-adv-x="725" 
d="M32 350q0 -30 4.5 -59t13.5 -56.5t21.5 -52.5t29 -47.5t36.5 -42t43 -35.5t48.5 -29t53.5 -22t58.5 -13.5t62.5 -4.5q97 0 176 44t128 114l-83 58q-36 -55 -94.5 -87.5t-127.5 -32.5q-24 0 -47.5 4t-45 12t-41 19t-36.5 25.5t-32 31.5t-26 36.5t-19.5 41.5t-12.5 46
t-4 50t4 50t12 46t19.5 41.5t26 36.5t32 31.5t37 25.5t41 19t45 12t47.5 4q66 0 124.5 -33t94.5 -87l83 58q-50 71 -129 114.5t-174 43.5q-32 0 -62 -4.5t-57.5 -13.5t-53 -22t-48.5 -29.5t-42.5 -36.5t-36 -42.5t-29.5 -47.5t-22 -52t-13.5 -55.5t-4.5 -58.5zM399 774
q25 0 42 17.5t17 42.5t-17 42t-42 17q-24 0 -41.5 -17t-17.5 -42t17.5 -42.5t41.5 -17.5z" />
    <glyph glyph-name="cdotaccent" unicode="&#x10b;" horiz-adv-x="539" 
d="M131 254q0 75 50.5 126t122.5 51q44 0 81 -20t62 -54l74 53q-37 50 -91 80.5t-126 30.5q-26 0 -50.5 -4.5t-47 -12.5t-42.5 -19.5t-38 -26t-33 -32t-26.5 -37.5t-19.5 -41.5t-12.5 -45t-4.5 -48.5q0 -24 4.5 -47.5t12.5 -45.5t19.5 -41.5t26.5 -37t33 -32t38 -26
t42.5 -19.5t47 -12.5t50.5 -4.5q72 0 126 30.5t91 79.5l-74 54q-25 -34 -62 -54.5t-81 -20.5q-18 0 -35 3.5t-32.5 10.5t-29.5 16.5t-25.5 21.5t-21 26t-16 30t-10 33.5t-3.5 35.5zM303 583q25 0 42 17.5t17 42.5t-17 42t-42 17q-24 0 -41.5 -17t-17.5 -42t17.5 -42.5
t41.5 -17.5z" />
    <glyph glyph-name="Ccaron" unicode="&#x10c;" horiz-adv-x="725" 
d="M32 350q0 -30 4.5 -59t13.5 -56.5t21.5 -52.5t29 -47.5t36.5 -42t43 -35.5t48.5 -29t53.5 -22t58.5 -13.5t62.5 -4.5q97 0 176 44t128 114l-83 58q-36 -55 -94.5 -87.5t-127.5 -32.5q-24 0 -47.5 4t-45 12t-41 19t-36.5 25.5t-32 31.5t-26 36.5t-19.5 41.5t-12.5 46
t-4 50t4 50t12 46t19.5 41.5t26 36.5t32 31.5t37 25.5t41 19t45 12t47.5 4q66 0 124.5 -33t94.5 -87l83 58q-50 71 -129 114.5t-174 43.5q-32 0 -62 -4.5t-57.5 -13.5t-53 -22t-48.5 -29.5t-42.5 -36.5t-36 -42.5t-29.5 -47.5t-22 -52t-13.5 -55.5t-4.5 -58.5zM473 897
l-73 -74l-73 74h-89l114 -125h96l114 125h-89z" />
    <glyph glyph-name="ccaron" unicode="&#x10d;" horiz-adv-x="539" 
d="M131 254q0 75 50.5 126t122.5 51q44 0 81 -20t62 -54l74 53q-37 50 -91 80.5t-126 30.5q-26 0 -50.5 -4.5t-47 -12.5t-42.5 -19.5t-38 -26t-33 -32t-26.5 -37.5t-19.5 -41.5t-12.5 -45t-4.5 -48.5q0 -24 4.5 -47.5t12.5 -45.5t19.5 -41.5t26.5 -37t33 -32t38 -26
t42.5 -19.5t47 -12.5t50.5 -4.5q72 0 126 30.5t91 79.5l-74 54q-25 -34 -62 -54.5t-81 -20.5q-18 0 -35 3.5t-32.5 10.5t-29.5 16.5t-25.5 21.5t-21 26t-16 30t-10 33.5t-3.5 35.5zM376 706l-73 -74l-73 74h-89l114 -125h96l114 125h-89z" />
    <glyph glyph-name="Dcaron" unicode="&#x10e;" horiz-adv-x="712" 
d="M680 350q0 29 -4.5 57t-13.5 54t-22 50.5t-29 46t-35.5 40.5t-42 35t-47 28.5t-51.5 21t-55.5 13t-58.5 4.5h-268v-700h268q30 0 58.5 4.5t55.5 13t51.5 21t47 28.5t42 34.5t35.5 40.5t29 46t22 50.5t13.5 54.5t4.5 57zM312 608q24 0 47 -4t44.5 -12t41 -19t36.5 -25
t31.5 -31t25.5 -36t19 -40.5t12 -44t4 -46.5t-4 -46.5t-12 -44t-19 -40.5t-25.5 -36t-31.5 -31t-36.5 -25t-41 -19t-44.5 -12t-47 -4h-154v516h154zM432 897l-73 -74l-73 74h-89l114 -125h96l114 125h-89z" />
    <glyph glyph-name="dcaron" unicode="&#x10f;" horiz-adv-x="751" 
d="M580 0v700h-101v-254q-34 35 -81 55t-99 20q-25 0 -48.5 -4.5t-45.5 -12.5t-42 -19.5t-37.5 -26t-32.5 -32t-26.5 -37.5t-19.5 -41.5t-12.5 -45t-4.5 -48.5q0 -24 4 -47.5t12.5 -45.5t20 -41.5t26 -37t32 -32t37.5 -26t42 -19.5t46 -12.5t49 -4.5q53 0 100 20.5t81 55.5
v-64h100zM481 254q0 -18 -3.5 -35.5t-10 -33.5t-16 -30t-21.5 -26t-26 -21.5t-29.5 -16.5t-33 -10.5t-35.5 -3.5t-35.5 3.5t-33 10.5t-29.5 16.5t-26 21.5t-21.5 26t-16 30t-10 33.5t-3.5 35.5q0 19 3.5 36t10 33t16 30.5t21.5 26.5t26 21.5t29.5 16t33 10t35.5 3.5
t35.5 -3.5t33 -10t29.5 -16t26 -21.5t21.5 -26.5t16 -30.5t10 -33t3.5 -36zM636 498h76l41 202h-98z" />
    <glyph glyph-name="Dcroat" unicode="&#x110;" horiz-adv-x="736" 
d="M5 304h72v-304h268q30 0 58.5 4.5t55.5 13t51.5 21t47 28.5t42 34.5t35.5 40.5t29 46t22 50.5t13.5 54.5t4.5 57t-4.5 57t-13.5 54t-22 50.5t-29 46t-35.5 40.5t-42 35t-47 28.5t-51.5 21t-55.5 13t-58.5 4.5h-268v-306h-72v-90zM336 608q24 0 47 -4t44.5 -12t41 -19
t36.5 -25t31.5 -31t25.5 -36t19 -40.5t12 -44t4 -46.5t-4 -46.5t-12 -44t-19 -40.5t-25.5 -36t-31.5 -31t-36.5 -25t-41 -19t-44.5 -12t-47 -4h-154v212h167v90h-167v214h154z" />
    <glyph glyph-name="dcroat" unicode="&#x111;" horiz-adv-x="635" 
d="M580 0v570h60v70h-60v60h-101v-60h-134v-70h134v-124q-34 35 -81 55t-99 20q-25 0 -48.5 -4.5t-45.5 -12.5t-42 -19.5t-37.5 -26t-32.5 -32t-26.5 -37.5t-19.5 -41.5t-12.5 -45t-4.5 -48.5q0 -24 4 -47.5t12.5 -45.5t20 -41.5t26 -37t32 -32t37.5 -26t42 -19.5t46 -12.5
t49 -4.5q53 0 100 20.5t81 55.5v-64h100zM481 254q0 -18 -3.5 -35.5t-10 -33.5t-16 -30t-21.5 -26t-26 -21.5t-29.5 -16.5t-33 -10.5t-35.5 -3.5t-35.5 3.5t-33 10.5t-29.5 16.5t-26 21.5t-21.5 26t-16 30t-10 33.5t-3.5 35.5q0 19 3.5 36t10 33t16 30.5t21.5 26.5t26 21.5
t29.5 16t33 10t35.5 3.5t35.5 -3.5t33 -10t29.5 -16t26 -21.5t21.5 -26.5t16 -30.5t10 -33t3.5 -36z" />
    <glyph glyph-name="Emacron" unicode="&#x112;" horiz-adv-x="516" 
d="M53 0h425v92h-320v214h310v91h-310v211h320v92h-425v-700zM404 867h-260v-69h260v69z" />
    <glyph glyph-name="emacron" unicode="&#x113;" horiz-adv-x="577" 
d="M30 255q0 -25 4 -49t12.5 -46t20 -41.5t26 -37t32.5 -32t38 -25.5t42 -19t46.5 -12t49.5 -4q69 0 125.5 29t94.5 80l-73 54q-28 -38 -65.5 -56.5t-81.5 -18.5q-64 0 -111.5 41.5t-57.5 103.5h415v33q0 25 -4 49t-11.5 46t-18 41.5t-24.5 36.5t-30.5 31.5t-35 25.5t-40 19
t-44 12t-47.5 4t-48.5 -4.5t-45 -12.5t-41 -19.5t-36.5 -26.5t-31 -32.5t-25 -37t-19 -41t-12 -44.5t-4 -47zM290 432q56 0 99 -36t56 -94h-311q13 58 56.5 94t99.5 36zM423 676h-260v-69h260v69z" />
    <glyph glyph-name="Ebreve" unicode="&#x114;" horiz-adv-x="516" 
d="M53 0h425v92h-320v214h310v91h-310v211h320v92h-425v-700zM275 832q-26 0 -50.5 14.5t-37.5 57.5l-69 -21q15 -56 59 -86.5t98 -30.5t98 30.5t59 86.5l-69 21q-13 -43 -38 -57.5t-50 -14.5z" />
    <glyph glyph-name="ebreve" unicode="&#x115;" horiz-adv-x="577" 
d="M30 255q0 -25 4 -49t12.5 -46t20 -41.5t26 -37t32.5 -32t38 -25.5t42 -19t46.5 -12t49.5 -4q69 0 125.5 29t94.5 80l-73 54q-28 -38 -65.5 -56.5t-81.5 -18.5q-64 0 -111.5 41.5t-57.5 103.5h415v33q0 25 -4 49t-11.5 46t-18 41.5t-24.5 36.5t-30.5 31.5t-35 25.5t-40 19
t-44 12t-47.5 4t-48.5 -4.5t-45 -12.5t-41 -19.5t-36.5 -26.5t-31 -32.5t-25 -37t-19 -41t-12 -44.5t-4 -47zM290 432q56 0 99 -36t56 -94h-311q13 58 56.5 94t99.5 36zM293 641q-26 0 -50.5 14.5t-37.5 57.5l-69 -21q15 -56 59 -86.5t98 -30.5t98 30.5t59 86.5l-69 21
q-13 -43 -38 -57.5t-50 -14.5z" />
    <glyph glyph-name="Edotaccent" unicode="&#x116;" horiz-adv-x="516" 
d="M53 0h425v92h-320v214h310v91h-310v211h320v92h-425v-700zM274 774q25 0 42 17.5t17 42.5t-17 42t-42 17q-24 0 -41.5 -17t-17.5 -42t17.5 -42.5t41.5 -17.5z" />
    <glyph glyph-name="edotaccent" unicode="&#x117;" horiz-adv-x="577" 
d="M30 255q0 -25 4 -49t12.5 -46t20 -41.5t26 -37t32.5 -32t38 -25.5t42 -19t46.5 -12t49.5 -4q69 0 125.5 29t94.5 80l-73 54q-28 -38 -65.5 -56.5t-81.5 -18.5q-64 0 -111.5 41.5t-57.5 103.5h415v33q0 25 -4 49t-11.5 46t-18 41.5t-24.5 36.5t-30.5 31.5t-35 25.5t-40 19
t-44 12t-47.5 4t-48.5 -4.5t-45 -12.5t-41 -19.5t-36.5 -26.5t-31 -32.5t-25 -37t-19 -41t-12 -44.5t-4 -47zM290 432q56 0 99 -36t56 -94h-311q13 58 56.5 94t99.5 36zM293 583q25 0 42 17.5t17 42.5t-17 42t-42 17q-24 0 -41.5 -17t-17.5 -42t17.5 -42.5t41.5 -17.5z" />
    <glyph glyph-name="Eogonek" unicode="&#x118;" horiz-adv-x="516" 
d="M53 0h359q-46 -37 -62 -69t-16 -64q0 -37 25.5 -62.5t75.5 -25.5q16 0 31.5 3t28.5 8l-11 54q-9 -4 -18.5 -5.5t-19.5 -1.5q-22 0 -34.5 12.5t-12.5 34.5t14.5 50.5t64.5 65.5v92h-320v214h310v91h-310v211h320v92h-425v-700z" />
    <glyph glyph-name="eogonek" unicode="&#x119;" horiz-adv-x="577" 
d="M30 255q0 -25 4 -49t12.5 -46t20 -41.5t26 -37t32.5 -32t38 -25.5t42 -19t46.5 -12t49.5 -4h1q-38 -34 -51.5 -63t-13.5 -59q0 -37 25.5 -62.5t75.5 -25.5q16 0 31.5 3t28.5 8l-11 54q-9 -4 -18.5 -5.5t-19.5 -1.5q-22 0 -34.5 12.5t-12.5 34.5t14.5 50.5t64.5 65.5
q43 12 78.5 37.5t61.5 60.5l-73 54q-28 -38 -65.5 -56.5t-81.5 -18.5q-64 0 -111.5 41.5t-57.5 103.5h415v33q0 25 -4 49t-11.5 46t-18 41.5t-24.5 36.5t-30.5 31.5t-35 25.5t-40 19t-44 12t-47.5 4t-48.5 -4.5t-45 -12.5t-41 -19.5t-36.5 -26.5t-31 -32.5t-25 -37t-19 -41
t-12 -44.5t-4 -47zM290 432q56 0 99 -36t56 -94h-311q13 58 56.5 94t99.5 36z" />
    <glyph glyph-name="Ecaron" unicode="&#x11a;" horiz-adv-x="516" 
d="M53 0h425v92h-320v214h310v91h-310v211h320v92h-425v-700zM348 897l-73 -74l-73 74h-89l114 -125h96l114 125h-89z" />
    <glyph glyph-name="ecaron" unicode="&#x11b;" horiz-adv-x="577" 
d="M30 255q0 -25 4 -49t12.5 -46t20 -41.5t26 -37t32.5 -32t38 -25.5t42 -19t46.5 -12t49.5 -4q69 0 125.5 29t94.5 80l-73 54q-28 -38 -65.5 -56.5t-81.5 -18.5q-64 0 -111.5 41.5t-57.5 103.5h415v33q0 25 -4 49t-11.5 46t-18 41.5t-24.5 36.5t-30.5 31.5t-35 25.5t-40 19
t-44 12t-47.5 4t-48.5 -4.5t-45 -12.5t-41 -19.5t-36.5 -26.5t-31 -32.5t-25 -37t-19 -41t-12 -44.5t-4 -47zM290 432q56 0 99 -36t56 -94h-311q13 58 56.5 94t99.5 36zM366 706l-73 -74l-73 74h-89l114 -125h96l114 125h-89z" />
    <glyph glyph-name="Gcircumflex" unicode="&#x11c;" horiz-adv-x="772" 
d="M32 350q0 -30 4.5 -59t13 -56.5t20.5 -52.5t28 -47.5t35 -42t41 -35.5t46.5 -29t51.5 -22t55.5 -13.5t59.5 -4.5q69 0 131.5 30t102.5 84v-102h101v374h-350v-91h249q-1 -20 -6 -39.5t-13 -37t-19.5 -33.5t-26.5 -30t-32.5 -25t-37.5 -19t-43 -12t-48 -4q-24 0 -46.5 4
t-43.5 12t-40 19t-35.5 25.5t-31 31.5t-25.5 37t-19 42t-12 46t-4 50t4 50.5t12 46.5t19 41.5t25.5 37t31 31.5t35.5 25t40 18.5t43 11.5t45 4q71 0 131 -33t97 -87l83 58q-50 71 -130 114.5t-179 43.5q-31 0 -60 -4.5t-56.5 -13.5t-52.5 -21.5t-47.5 -29t-42 -36t-36 -42
t-29 -47.5t-21.5 -52t-13.5 -56t-4.5 -60zM331 772l73 74l73 -74h89l-111 125h-102l-111 -125h89z" />
    <glyph glyph-name="gcircumflex" unicode="&#x11d;" horiz-adv-x="623" 
d="M574 510h-101v-63q-34 34 -80 54t-98 20q-25 0 -48 -4t-44.5 -12t-41.5 -19.5t-37 -26t-31.5 -31.5t-26 -36.5t-20 -41t-12.5 -44.5t-4 -47q0 -25 4 -48t12 -45t19.5 -41.5t26 -36.5t32 -31.5t37 -26t41.5 -19.5t45 -12t48 -4q51 0 97 19t80 53v-75q0 -52 -27.5 -79.5
t-81.5 -27.5h-106v-86h128q87 0 138 50t51 135v526zM130 259q0 18 3.5 35t10 32.5t16 29t21 25.5t25.5 21.5t29.5 16t32 10t34.5 3.5t34.5 -3.5t32 -10t29.5 -16t25.5 -21t21 -25.5t16 -29.5t10 -32.5t3.5 -35t-3.5 -35.5t-10 -33t-15.5 -29.5t-21 -26t-25.5 -21.5t-29 -16
t-32.5 -10t-35 -3.5t-34.5 3.5t-32 10t-29.5 16t-25.5 21.5t-21 26t-16 29.5t-10 33t-3.5 35.5zM231 581l73 74l73 -74h89l-111 125h-102l-111 -125h89z" />
    <glyph glyph-name="Gbreve" unicode="&#x11e;" horiz-adv-x="772" 
d="M32 350q0 -30 4.5 -59t13 -56.5t20.5 -52.5t28 -47.5t35 -42t41 -35.5t46.5 -29t51.5 -22t55.5 -13.5t59.5 -4.5q69 0 131.5 30t102.5 84v-102h101v374h-350v-91h249q-1 -20 -6 -39.5t-13 -37t-19.5 -33.5t-26.5 -30t-32.5 -25t-37.5 -19t-43 -12t-48 -4q-24 0 -46.5 4
t-43.5 12t-40 19t-35.5 25.5t-31 31.5t-25.5 37t-19 42t-12 46t-4 50t4 50.5t12 46.5t19 41.5t25.5 37t31 31.5t35.5 25t40 18.5t43 11.5t45 4q71 0 131 -33t97 -87l83 58q-50 71 -130 114.5t-179 43.5q-31 0 -60 -4.5t-56.5 -13.5t-52.5 -21.5t-47.5 -29t-42 -36t-36 -42
t-29 -47.5t-21.5 -52t-13.5 -56t-4.5 -60zM404 832q-26 0 -50.5 14.5t-37.5 57.5l-69 -21q15 -56 59 -86.5t98 -30.5t98 30.5t59 86.5l-69 21q-13 -43 -38 -57.5t-50 -14.5z" />
    <glyph glyph-name="gbreve" unicode="&#x11f;" horiz-adv-x="623" 
d="M574 510h-101v-63q-34 34 -80 54t-98 20q-25 0 -48 -4t-44.5 -12t-41.5 -19.5t-37 -26t-31.5 -31.5t-26 -36.5t-20 -41t-12.5 -44.5t-4 -47q0 -25 4 -48t12 -45t19.5 -41.5t26 -36.5t32 -31.5t37 -26t41.5 -19.5t45 -12t48 -4q51 0 97 19t80 53v-75q0 -52 -27.5 -79.5
t-81.5 -27.5h-106v-86h128q87 0 138 50t51 135v526zM130 259q0 18 3.5 35t10 32.5t16 29t21 25.5t25.5 21.5t29.5 16t32 10t34.5 3.5t34.5 -3.5t32 -10t29.5 -16t25.5 -21t21 -25.5t16 -29.5t10 -32.5t3.5 -35t-3.5 -35.5t-10 -33t-15.5 -29.5t-21 -26t-25.5 -21.5t-29 -16
t-32.5 -10t-35 -3.5t-34.5 3.5t-32 10t-29.5 16t-25.5 21.5t-21 26t-16 29.5t-10 33t-3.5 35.5zM304 641q-26 0 -50.5 14.5t-37.5 57.5l-69 -21q15 -56 59 -86.5t98 -30.5t98 30.5t59 86.5l-69 21q-13 -43 -38 -57.5t-50 -14.5z" />
    <glyph glyph-name="Gdotaccent" unicode="&#x120;" horiz-adv-x="772" 
d="M32 350q0 -30 4.5 -59t13 -56.5t20.5 -52.5t28 -47.5t35 -42t41 -35.5t46.5 -29t51.5 -22t55.5 -13.5t59.5 -4.5q69 0 131.5 30t102.5 84v-102h101v374h-350v-91h249q-1 -20 -6 -39.5t-13 -37t-19.5 -33.5t-26.5 -30t-32.5 -25t-37.5 -19t-43 -12t-48 -4q-24 0 -46.5 4
t-43.5 12t-40 19t-35.5 25.5t-31 31.5t-25.5 37t-19 42t-12 46t-4 50t4 50.5t12 46.5t19 41.5t25.5 37t31 31.5t35.5 25t40 18.5t43 11.5t45 4q71 0 131 -33t97 -87l83 58q-50 71 -130 114.5t-179 43.5q-31 0 -60 -4.5t-56.5 -13.5t-52.5 -21.5t-47.5 -29t-42 -36t-36 -42
t-29 -47.5t-21.5 -52t-13.5 -56t-4.5 -60zM403 774q25 0 42 17.5t17 42.5t-17 42t-42 17q-24 0 -41.5 -17t-17.5 -42t17.5 -42.5t41.5 -17.5z" />
    <glyph glyph-name="gdotaccent" unicode="&#x121;" horiz-adv-x="623" 
d="M574 510h-101v-63q-34 34 -80 54t-98 20q-25 0 -48 -4t-44.5 -12t-41.5 -19.5t-37 -26t-31.5 -31.5t-26 -36.5t-20 -41t-12.5 -44.5t-4 -47q0 -25 4 -48t12 -45t19.5 -41.5t26 -36.5t32 -31.5t37 -26t41.5 -19.5t45 -12t48 -4q51 0 97 19t80 53v-75q0 -52 -27.5 -79.5
t-81.5 -27.5h-106v-86h128q87 0 138 50t51 135v526zM130 259q0 18 3.5 35t10 32.5t16 29t21 25.5t25.5 21.5t29.5 16t32 10t34.5 3.5t34.5 -3.5t32 -10t29.5 -16t25.5 -21t21 -25.5t16 -29.5t10 -32.5t3.5 -35t-3.5 -35.5t-10 -33t-15.5 -29.5t-21 -26t-25.5 -21.5t-29 -16
t-32.5 -10t-35 -3.5t-34.5 3.5t-32 10t-29.5 16t-25.5 21.5t-21 26t-16 29.5t-10 33t-3.5 35.5zM304 583q25 0 42 17.5t17 42.5t-17 42t-42 17q-24 0 -41.5 -17t-17.5 -42t17.5 -42.5t41.5 -17.5z" />
    <glyph glyph-name="uni0122" unicode="&#x122;" horiz-adv-x="772" 
d="M32 350q0 -30 4.5 -59t13 -56.5t20.5 -52.5t28 -47.5t35 -42t41 -35.5t46.5 -29t51.5 -22t55.5 -13.5t59.5 -4.5q69 0 131.5 30t102.5 84v-102h101v374h-350v-91h249q-1 -20 -6 -39.5t-13 -37t-19.5 -33.5t-26.5 -30t-32.5 -25t-37.5 -19t-43 -12t-48 -4q-24 0 -46.5 4
t-43.5 12t-40 19t-35.5 25.5t-31 31.5t-25.5 37t-19 42t-12 46t-4 50t4 50.5t12 46.5t19 41.5t25.5 37t31 31.5t35.5 25t40 18.5t43 11.5t45 4q71 0 131 -33t97 -87l83 58q-50 71 -130 114.5t-179 43.5q-31 0 -60 -4.5t-56.5 -13.5t-52.5 -21.5t-47.5 -29t-42 -36t-36 -42
t-29 -47.5t-21.5 -52t-13.5 -56t-4.5 -60zM341 -213v-40q49 4 79 38.5t30 78.5q0 35 -16.5 55.5t-42.5 20.5q-19 0 -33.5 -14t-14.5 -33q0 -7 1.5 -13t4.5 -10.5t7 -8t8.5 -6.5t8.5 -5.5l8 -5t7 -5t4.5 -5.5t1.5 -6q0 -13 -15.5 -25.5t-37.5 -15.5z" />
    <glyph glyph-name="uni0123" unicode="&#x123;" horiz-adv-x="623" 
d="M351 732v40q-49 -4 -79 -38.5t-30 -78.5q0 -35 16.5 -55.5t42.5 -20.5q19 0 33.5 14t14.5 33q0 7 -1.5 13t-4.5 10.5t-7 8t-8 6.5t-8.5 5.5t-8.5 5t-7 5t-4.5 5t-1.5 6.5q0 13 15.5 25.5t37.5 15.5zM574 510h-101v-63q-34 34 -80 54t-98 20q-25 0 -48 -4t-44.5 -12
t-41.5 -19.5t-37 -26t-31.5 -31.5t-26 -36.5t-20 -41t-12.5 -44.5t-4 -47q0 -25 4 -48t12 -45t19.5 -41.5t26 -36.5t32 -31.5t37 -26t41.5 -19.5t45 -12t48 -4q51 0 97 19t80 53v-75q0 -52 -27.5 -79.5t-81.5 -27.5h-106v-86h128q87 0 138 50t51 135v526zM130 259
q0 18 3.5 35t10 32.5t16 29t21 25.5t25.5 21.5t29.5 16t32 10t34.5 3.5t34.5 -3.5t32 -10t29.5 -16t25.5 -21t21 -25.5t16 -29.5t10 -32.5t3.5 -35t-3.5 -35.5t-10 -33t-15.5 -29.5t-21 -26t-25.5 -21.5t-29 -16t-32.5 -10t-35 -3.5t-34.5 3.5t-32 10t-29.5 16t-25.5 21.5
t-21 26t-16 29.5t-10 33t-3.5 35.5z" />
    <glyph glyph-name="Hcircumflex" unicode="&#x124;" horiz-adv-x="659" 
d="M158 0v305h343v-305h105v700h-105v-303h-343v303h-105v-700h105zM257 772l73 74l73 -74h89l-111 125h-102l-111 -125h89z" />
    <glyph glyph-name="hcircumflex" unicode="&#x125;" 
d="M150 303q0 57 35.5 92t89.5 35t87 -34.5t33 -89.5v-306h101v326q0 20 -3.5 39.5t-10.5 37t-17 33t-23 29t-28.5 24t-33 17.5t-37.5 11t-42 4q-46 0 -85 -18t-66 -49v246h-101v-700h101v303zM26 771l73 74l73 -74h89l-111 125h-102l-111 -125h89z" />
    <glyph glyph-name="Hbar" unicode="&#x126;" horiz-adv-x="696" 
d="M176 0v305h344v-305h105v504h64v84h-64v112h-105v-112h-344v112h-105v-112h-64v-84h64v-504h105zM176 397v107h344v-107h-344z" />
    <glyph glyph-name="hbar" unicode="&#x127;" horiz-adv-x="551" 
d="M290 570v70h-134v60h-101v-60h-60v-70h60v-570h101v303q0 57 35.5 92t89.5 35t87 -34.5t33 -89.5v-306h101v326q0 20 -3.5 39.5t-10.5 37t-17 33t-23 29t-28.5 24t-33 17.5t-37.5 11t-42 4q-46 0 -85 -18t-66 -49v116h134z" />
    <glyph glyph-name="Itilde" unicode="&#x128;" horiz-adv-x="211" 
d="M158 0v700h-105v-700h105zM41 892q-35 0 -60 -26t-38 -79l66 -14q8 30 17.5 40.5t21.5 10.5q5 0 10.5 -1.5t11.5 -4.5t12.5 -6.5t13.5 -7.5t14.5 -8t15 -7.5t15.5 -6.5t15.5 -4.5t14.5 -1.5q35 0 60 26t38 78l-65 15q-8 -30 -18 -40.5t-22 -10.5q-5 0 -10.5 1.5
t-11.5 4.5t-12.5 6.5t-13.5 7.5t-14.5 8t-15 7.5t-15.5 6.5t-15.5 4.5t-14.5 1.5z" />
    <glyph glyph-name="itilde" unicode="&#x129;" horiz-adv-x="199" 
d="M150 510h-101v-510h101v510zM35 701q-35 0 -60 -26t-38 -79l66 -14q8 30 17.5 40.5t21.5 10.5q5 0 10.5 -1.5t11.5 -4.5t12.5 -6.5t13.5 -7.5t14.5 -8t15 -7.5t15.5 -6.5t15.5 -4.5t14.5 -1.5q35 0 60 26t38 78l-65 15q-8 -30 -18 -40.5t-22 -10.5q-5 0 -10.5 1.5
t-11.5 4.5t-12.5 6.5t-13.5 7.5t-14.5 8t-15 7.5t-15.5 6.5t-15.5 4.5t-14.5 1.5z" />
    <glyph glyph-name="Imacron" unicode="&#x12a;" horiz-adv-x="211" 
d="M158 0v700h-105v-700h105zM236 867h-260v-69h260v69z" />
    <glyph glyph-name="imacron" unicode="&#x12b;" horiz-adv-x="199" 
d="M150 510h-101v-510h101v510zM230 676h-260v-69h260v69z" />
    <glyph glyph-name="Ibreve" unicode="&#x12c;" horiz-adv-x="211" 
d="M158 0v700h-105v-700h105zM107 832q-26 0 -50.5 14.5t-37.5 57.5l-69 -21q15 -56 59 -86.5t98 -30.5t98 30.5t59 86.5l-69 21q-13 -43 -38 -57.5t-50 -14.5z" />
    <glyph glyph-name="ibreve" unicode="&#x12d;" horiz-adv-x="199" 
d="M150 510h-101v-510h101v510zM100 641q-26 0 -50.5 14.5t-37.5 57.5l-69 -21q15 -56 59 -86.5t98 -30.5t98 30.5t59 86.5l-69 21q-13 -43 -38 -57.5t-50 -14.5z" />
    <glyph glyph-name="Iogonek" unicode="&#x12e;" horiz-adv-x="211" 
d="M158 0v700h-105v-700h39q-46 -37 -62 -69t-16 -64q0 -37 25.5 -62.5t75.5 -25.5q16 0 31.5 3t28.5 8l-11 54q-9 -4 -18.5 -5.5t-19.5 -1.5q-22 0 -34.5 12.5t-12.5 34.5t14.5 50.5t64.5 65.5z" />
    <glyph glyph-name="iogonek" unicode="&#x12f;" horiz-adv-x="199" 
d="M100 581q25 0 42 18t17 43t-17 42.5t-42 17.5t-43 -17.5t-18 -42.5t18 -43t43 -18zM150 0v510h-101v-510h35q-46 -37 -62 -69t-16 -64q0 -37 25.5 -62.5t75.5 -25.5q16 0 31.5 3t28.5 8l-11 54q-9 -4 -18.5 -5.5t-19.5 -1.5q-22 0 -34.5 12.5t-12.5 34.5t14.5 50.5
t64.5 65.5z" />
    <glyph glyph-name="Idotaccent" unicode="&#x130;" horiz-adv-x="211" 
d="M158 0v700h-105v-700h105zM106 774q25 0 42 17.5t17 42.5t-17 42t-42 17q-24 0 -41.5 -17t-17.5 -42t17.5 -42.5t41.5 -17.5z" />
    <glyph glyph-name="dotlessi" unicode="&#x131;" horiz-adv-x="199" 
d="M150 510h-101v-510h101v510z" />
    <glyph glyph-name="IJ" unicode="&#x132;" horiz-adv-x="688" 
d="M158 0v700h-105v-700h105zM215 52q34 -30 82 -47.5t104 -17.5q26 0 50 4.5t45.5 12.5t40.5 20t35 27.5t28.5 34.5t21.5 41t13.5 47t4.5 52v474h-105v-459q0 -73 -39.5 -115.5t-100.5 -42.5q-33 0 -64.5 12t-54.5 33z" />
    <glyph glyph-name="ij" unicode="&#x133;" horiz-adv-x="398" 
d="M100 581q25 0 42 18t17 43t-17 42.5t-42 17.5t-43 -17.5t-18 -42.5t18 -43t43 -18zM150 510h-101v-510h101v510zM299 581q25 0 42 18t17 43t-17 42.5t-42 17.5t-43 -17.5t-18 -42.5t18 -43t43 -18zM231 -201q54 0 86 32t32 78v601h-101v-586q0 -19 -11 -29t-30 -10h-31
v-86h55z" />
    <glyph glyph-name="Jcircumflex" unicode="&#x134;" horiz-adv-x="476" 
d="M3 52q34 -30 82 -47.5t104 -17.5q26 0 50 4.5t45.5 12.5t40.5 20t35 27.5t28.5 34.5t21.5 41t13.5 47t4.5 52v474h-105v-459q0 -73 -39.5 -115.5t-100.5 -42.5q-33 0 -64.5 12t-54.5 33zM304 772l73 74l73 -74h89l-111 125h-102l-111 -125h89z" />
    <glyph glyph-name="jcircumflex" unicode="&#x135;" horiz-adv-x="199" 
d="M32 -201q54 0 86 32t32 78v601h-101v-586q0 -19 -11 -29t-30 -10h-31v-86h55zM27 581l73 74l73 -74h89l-111 125h-102l-111 -125h89z" />
    <glyph glyph-name="uni0136" unicode="&#x136;" horiz-adv-x="583" 
d="M53 700v-700h105v306l297 -306h140l-345 354l339 346h-133l-298 -307v307h-105zM243 -213v-40q49 4 79 38.5t30 78.5q0 35 -16.5 55.5t-42.5 20.5q-19 0 -33.5 -14t-14.5 -33q0 -7 1.5 -13t4.5 -10.5t7 -8t8.5 -6.5t8.5 -5.5l8 -5t7 -5t4.5 -5.5t1.5 -6
q0 -13 -15.5 -25.5t-37.5 -15.5z" />
    <glyph glyph-name="uni0137" unicode="&#x137;" horiz-adv-x="478" 
d="M49 700v-700h101v234l211 -234h127l-244 264l232 246h-120l-206 -225v415h-101zM193 -213v-40q49 4 79 38.5t30 78.5q0 35 -16.5 55.5t-42.5 20.5q-19 0 -33.5 -14t-14.5 -33q0 -7 1.5 -13t4.5 -10.5t7 -8t8.5 -6.5t8.5 -5.5l8 -5t7 -5t4.5 -5.5t1.5 -6
q0 -13 -15.5 -25.5t-37.5 -15.5z" />
    <glyph glyph-name="kgreenlandic" unicode="&#x138;" horiz-adv-x="478" 
d="M49 510v-510h101v234l211 -234h127l-244 264l232 246h-120l-206 -225v225h-101z" />
    <glyph glyph-name="Lacute" unicode="&#x139;" horiz-adv-x="504" 
d="M478 92h-320v608h-105v-700h425v92zM139 897l-107 -125h99l124 125h-116z" />
    <glyph glyph-name="lacute" unicode="&#x13a;" horiz-adv-x="199" 
d="M150 0v700h-101v-700h101zM134 896l-107 -125h99l124 125h-116z" />
    <glyph glyph-name="uni013B" unicode="&#x13b;" horiz-adv-x="504" 
d="M478 92h-320v608h-105v-700h425v92zM216 -213v-40q49 4 79 38.5t30 78.5q0 35 -16.5 55.5t-42.5 20.5q-19 0 -33.5 -14t-14.5 -33q0 -7 1.5 -13t4.5 -10.5t7 -8t8.5 -6.5t8.5 -5.5l8 -5t7 -5t4.5 -5.5t1.5 -6q0 -13 -15.5 -25.5t-37.5 -15.5z" />
    <glyph glyph-name="uni013C" unicode="&#x13c;" horiz-adv-x="199" 
d="M150 0v700h-101v-700h101zM44 -213v-40q49 4 79 38.5t30 78.5q0 35 -16.5 55.5t-42.5 20.5q-19 0 -33.5 -14t-14.5 -33q0 -7 1.5 -13t4.5 -10.5t7 -8t8.5 -6.5t8.5 -5.5l8 -5t7 -5t4.5 -5.5t1.5 -6q0 -13 -15.5 -25.5t-37.5 -15.5z" />
    <glyph glyph-name="Lcaron" unicode="&#x13d;" horiz-adv-x="511" 
d="M478 92h-320v608h-105v-700h425v92zM318 498h76l41 202h-98z" />
    <glyph glyph-name="lcaron" unicode="&#x13e;" horiz-adv-x="320" 
d="M150 0v700h-101v-700h101zM206 498h76l41 202h-98z" />
    <glyph glyph-name="Ldot" unicode="&#x13f;" horiz-adv-x="511" 
d="M478 92h-320v608h-105v-700h425v92zM351 299q25 0 42 17.5t17 42.5t-17 42t-42 17q-24 0 -41.5 -17t-17.5 -42t17.5 -42.5t41.5 -17.5z" />
    <glyph glyph-name="ldot" unicode="&#x140;" horiz-adv-x="329" 
d="M150 0v700h-101v-700h101zM256 281q25 0 42 17.5t17 42.5t-17 42t-42 17q-24 0 -41.5 -17t-17.5 -42t17.5 -42.5t41.5 -17.5z" />
    <glyph glyph-name="Lslash" unicode="&#x141;" horiz-adv-x="528" 
d="M5 169l72 58v-227h425v92h-320v216l153 124v91l-153 -123v300h-105v-381l-72 -58v-92z" />
    <glyph glyph-name="lslash" unicode="&#x142;" horiz-adv-x="261" 
d="M173 0v341l76 68v91l-76 -68v268h-101v-359l-62 -56v-91l62 56v-250h101z" />
    <glyph glyph-name="Nacute" unicode="&#x143;" horiz-adv-x="708" 
d="M152 0l-1 555l388 -555h116v700h-98l1 -554l-389 554h-116v-700h99zM389 897l-107 -125h99l124 125h-116z" />
    <glyph glyph-name="nacute" unicode="&#x144;" 
d="M496 326q0 20 -3.5 39.5t-10.5 37t-17 33t-23 29t-28.5 24t-33.5 17.5t-38 11t-42 4q-46 0 -84.5 -18t-65.5 -49v56h-101v-510h101v303q0 57 35.5 92t89.5 35t87 -34.5t33 -89.5v-306h101v326zM308 706l-107 -125h99l124 125h-116z" />
    <glyph glyph-name="uni0145" unicode="&#x145;" horiz-adv-x="708" 
d="M152 0l-1 555l388 -555h116v700h-98l1 -554l-389 554h-116v-700h99zM299 -213v-40q49 4 79 38.5t30 78.5q0 35 -16.5 55.5t-42.5 20.5q-19 0 -33.5 -14t-14.5 -33q0 -7 1.5 -13t4.5 -10.5t7 -8t8.5 -6.5t8.5 -5.5l8 -5t7 -5t4.5 -5.5t1.5 -6q0 -13 -15.5 -25.5
t-37.5 -15.5z" />
    <glyph glyph-name="uni0146" unicode="&#x146;" 
d="M496 326q0 20 -3.5 39.5t-10.5 37t-17 33t-23 29t-28.5 24t-33.5 17.5t-38 11t-42 4q-46 0 -84.5 -18t-65.5 -49v56h-101v-510h101v303q0 57 35.5 92t89.5 35t87 -34.5t33 -89.5v-306h101v326zM218 -213v-40q49 4 79 38.5t30 78.5q0 35 -16.5 55.5t-42.5 20.5
q-19 0 -33.5 -14t-14.5 -33q0 -7 1.5 -13t4.5 -10.5t7 -8t8.5 -6.5t8.5 -5.5l8 -5t7 -5t4.5 -5.5t1.5 -6q0 -13 -15.5 -25.5t-37.5 -15.5z" />
    <glyph glyph-name="Ncaron" unicode="&#x147;" horiz-adv-x="708" 
d="M152 0l-1 555l388 -555h116v700h-98l1 -554l-389 554h-116v-700h99zM427 897l-73 -74l-73 74h-89l114 -125h96l114 125h-89z" />
    <glyph glyph-name="ncaron" unicode="&#x148;" 
d="M496 326q0 20 -3.5 39.5t-10.5 37t-17 33t-23 29t-28.5 24t-33.5 17.5t-38 11t-42 4q-46 0 -84.5 -18t-65.5 -49v56h-101v-510h101v303q0 57 35.5 92t89.5 35t87 -34.5t33 -89.5v-306h101v326zM346 706l-73 -74l-73 74h-89l114 -125h96l114 125h-89z" />
    <glyph glyph-name="Eng" unicode="&#x14a;" horiz-adv-x="708" 
d="M655 -105v805h-98v-542l-388 542h-116v-700h99l-1 554l406 -568v-72q0 -19 -12 -29t-32 -10h-31v-88h58q54 0 84.5 31t30.5 77z" />
    <glyph glyph-name="eng" unicode="&#x14b;" 
d="M378 -201q54 0 86 32t32 78v417q0 20 -3.5 39.5t-10.5 37t-17 33t-23 29t-28.5 24t-33.5 17.5t-38 11t-42 4q-46 0 -84.5 -18t-65.5 -49v56h-101v-510h101v303q0 57 35.5 92t89.5 35t87 -34.5t33 -89.5v-382q0 -19 -11 -29t-30 -10h-31v-86h55z" />
    <glyph glyph-name="Omacron" unicode="&#x14c;" horiz-adv-x="801" 
d="M32 350q0 -30 4.5 -59t14 -56t22.5 -52t29.5 -47.5t36.5 -42t43 -36t48 -29.5t53 -22t57.5 -13.5t60.5 -4.5t60.5 4.5t57 13.5t53 22t48 29.5t42.5 36t36.5 42t29.5 47.5t22.5 52t14 56t4.5 59t-4.5 59t-14 56t-22.5 52t-29.5 47.5t-36.5 42t-42.5 36t-48 29.5t-53 22
t-57 13.5t-60.5 4.5t-60.5 -4.5t-57.5 -13.5t-53 -22t-48 -29.5t-43 -36t-36.5 -42t-29.5 -47.5t-22.5 -52t-14 -56t-4.5 -59zM139 350q0 25 4 48t12 45t19.5 41.5t26 37t31.5 32t36.5 26t41 20t44.5 12.5t47 4t47 -4t44.5 -12.5t41 -20t36.5 -26t31.5 -32t26 -37
t19.5 -41.5t12 -45t4 -48t-4 -48.5t-12 -45.5t-19.5 -41.5t-26 -37t-31.5 -32t-36.5 -26t-41 -19.5t-44.5 -12t-47 -4t-47 4t-44.5 12t-41 19.5t-36.5 26t-31.5 32t-26 37t-19.5 41.5t-12 45.5t-4 48.5zM530 867h-260v-69h260v69z" />
    <glyph glyph-name="omacron" unicode="&#x14d;" horiz-adv-x="608" 
d="M578 255q0 25 -4.5 48t-12.5 45t-20 41.5t-27 37t-33 32t-38.5 26t-43 19.5t-46.5 12.5t-49 4.5t-49 -4.5t-46.5 -12.5t-43 -19.5t-38.5 -26t-33 -32t-27 -37t-20 -41.5t-12.5 -45t-4.5 -48t4.5 -48t12.5 -45t20 -41.5t27 -37t33 -32.5t38.5 -26.5t43 -19.5t46.5 -12.5
t49 -4.5t49 4.5t46.5 12.5t43 19.5t38.5 26.5t33 32.5t27 37t20 41.5t12.5 45t4.5 48zM477 255q0 -74 -50.5 -125.5t-122.5 -51.5t-122.5 51.5t-50.5 125.5q0 73 50.5 124.5t122.5 51.5t122.5 -51.5t50.5 -124.5zM434 676h-260v-69h260v69z" />
    <glyph glyph-name="Obreve" unicode="&#x14e;" horiz-adv-x="801" 
d="M32 350q0 -30 4.5 -59t14 -56t22.5 -52t29.5 -47.5t36.5 -42t43 -36t48 -29.5t53 -22t57.5 -13.5t60.5 -4.5t60.5 4.5t57 13.5t53 22t48 29.5t42.5 36t36.5 42t29.5 47.5t22.5 52t14 56t4.5 59t-4.5 59t-14 56t-22.5 52t-29.5 47.5t-36.5 42t-42.5 36t-48 29.5t-53 22
t-57 13.5t-60.5 4.5t-60.5 -4.5t-57.5 -13.5t-53 -22t-48 -29.5t-43 -36t-36.5 -42t-29.5 -47.5t-22.5 -52t-14 -56t-4.5 -59zM139 350q0 25 4 48t12 45t19.5 41.5t26 37t31.5 32t36.5 26t41 20t44.5 12.5t47 4t47 -4t44.5 -12.5t41 -20t36.5 -26t31.5 -32t26 -37
t19.5 -41.5t12 -45t4 -48t-4 -48.5t-12 -45.5t-19.5 -41.5t-26 -37t-31.5 -32t-36.5 -26t-41 -19.5t-44.5 -12t-47 -4t-47 4t-44.5 12t-41 19.5t-36.5 26t-31.5 32t-26 37t-19.5 41.5t-12 45.5t-4 48.5zM401 832q-26 0 -50.5 14.5t-37.5 57.5l-69 -21q15 -56 59 -86.5
t98 -30.5t98 30.5t59 86.5l-69 21q-13 -43 -38 -57.5t-50 -14.5z" />
    <glyph glyph-name="obreve" unicode="&#x14f;" horiz-adv-x="608" 
d="M578 255q0 25 -4.5 48t-12.5 45t-20 41.5t-27 37t-33 32t-38.5 26t-43 19.5t-46.5 12.5t-49 4.5t-49 -4.5t-46.5 -12.5t-43 -19.5t-38.5 -26t-33 -32t-27 -37t-20 -41.5t-12.5 -45t-4.5 -48t4.5 -48t12.5 -45t20 -41.5t27 -37t33 -32.5t38.5 -26.5t43 -19.5t46.5 -12.5
t49 -4.5t49 4.5t46.5 12.5t43 19.5t38.5 26.5t33 32.5t27 37t20 41.5t12.5 45t4.5 48zM477 255q0 -74 -50.5 -125.5t-122.5 -51.5t-122.5 51.5t-50.5 125.5q0 73 50.5 124.5t122.5 51.5t122.5 -51.5t50.5 -124.5zM304 641q-26 0 -50.5 14.5t-37.5 57.5l-69 -21
q15 -56 59 -86.5t98 -30.5t98 30.5t59 86.5l-69 21q-13 -43 -38 -57.5t-50 -14.5z" />
    <glyph glyph-name="Ohungarumlaut" unicode="&#x150;" horiz-adv-x="801" 
d="M32 350q0 -30 4.5 -59t14 -56t22.5 -52t29.5 -47.5t36.5 -42t43 -36t48 -29.5t53 -22t57.5 -13.5t60.5 -4.5t60.5 4.5t57 13.5t53 22t48 29.5t42.5 36t36.5 42t29.5 47.5t22.5 52t14 56t4.5 59t-4.5 59t-14 56t-22.5 52t-29.5 47.5t-36.5 42t-42.5 36t-48 29.5t-53 22
t-57 13.5t-60.5 4.5t-60.5 -4.5t-57.5 -13.5t-53 -22t-48 -29.5t-43 -36t-36.5 -42t-29.5 -47.5t-22.5 -52t-14 -56t-4.5 -59zM139 350q0 25 4 48t12 45t19.5 41.5t26 37t31.5 32t36.5 26t41 20t44.5 12.5t47 4t47 -4t44.5 -12.5t41 -20t36.5 -26t31.5 -32t26 -37
t19.5 -41.5t12 -45t4 -48t-4 -48.5t-12 -45.5t-19.5 -41.5t-26 -37t-31.5 -32t-36.5 -26t-41 -19.5t-44.5 -12t-47 -4t-47 4t-44.5 12t-41 19.5t-36.5 26t-31.5 32t-26 37t-19.5 41.5t-12 45.5t-4 48.5zM348 897l-106 -125h91l120 125h-105zM531 897l-106 -125h91l119 125
h-104z" />
    <glyph glyph-name="ohungarumlaut" unicode="&#x151;" horiz-adv-x="608" 
d="M578 255q0 25 -4.5 48t-12.5 45t-20 41.5t-27 37t-33 32t-38.5 26t-43 19.5t-46.5 12.5t-49 4.5t-49 -4.5t-46.5 -12.5t-43 -19.5t-38.5 -26t-33 -32t-27 -37t-20 -41.5t-12.5 -45t-4.5 -48t4.5 -48t12.5 -45t20 -41.5t27 -37t33 -32.5t38.5 -26.5t43 -19.5t46.5 -12.5
t49 -4.5t49 4.5t46.5 12.5t43 19.5t38.5 26.5t33 32.5t27 37t20 41.5t12.5 45t4.5 48zM477 255q0 -74 -50.5 -125.5t-122.5 -51.5t-122.5 51.5t-50.5 125.5q0 73 50.5 124.5t122.5 51.5t122.5 -51.5t50.5 -124.5zM251 706l-106 -125h91l120 125h-105zM434 706l-106 -125h91
l119 125h-104z" />
    <glyph glyph-name="OE" unicode="&#x152;" horiz-adv-x="985" 
d="M32 350q0 -29 4.5 -57t13.5 -54t21.5 -50.5t29 -46t36 -40.5t42 -35t47 -28.5t51.5 -21t55.5 -13t58.5 -4.5h556v92h-320v214h310v91h-310v211h320v92h-556q-30 0 -58.5 -4.5t-55.5 -13t-51.5 -21t-47 -28.5t-42 -34.5t-36 -40.5t-29 -46t-21.5 -50.5t-13.5 -54.5
t-4.5 -57zM400 92q-24 0 -47 4t-44.5 12t-41 19t-36.5 25t-31.5 31t-25.5 36t-19 40.5t-12 44t-4 46.5t4 46.5t12 44t19 40.5t25.5 36t31.5 31t36.5 25t41 19t44.5 12t47 4h122v-516h-122z" />
    <glyph glyph-name="oe" unicode="&#x153;" horiz-adv-x="1026" 
d="M750 -11q69 0 125.5 29t93.5 80l-73 54q-28 -38 -65 -56.5t-82 -18.5q-64 0 -111 41.5t-57 103.5h415v33q0 25 -4 49t-11.5 46t-18.5 41.5t-24.5 36.5t-30 31.5t-35.5 25.5t-40.5 19t-44.5 12t-47 4q-67 0 -123 -31.5t-90 -82.5q-37 52 -95.5 83.5t-127.5 31.5
q-25 0 -49 -4.5t-46.5 -12.5t-43 -19.5t-38.5 -26t-33 -32t-27 -37t-20 -41.5t-12.5 -45t-4.5 -48t4.5 -48t12.5 -45t20 -41.5t27 -37t33 -32.5t38.5 -26.5t43 -19.5t46.5 -12.5t49 -4.5q69 0 127.5 32t95.5 83q35 -52 93.5 -83t129.5 -31zM738 432q56 0 99 -36t56 -94h-310
q13 58 56 94t99 36zM477 255q0 -74 -50.5 -125.5t-122.5 -51.5t-122.5 51.5t-50.5 125.5q0 73 50.5 124.5t122.5 51.5t122.5 -51.5t50.5 -124.5z" />
    <glyph glyph-name="Racute" unicode="&#x154;" horiz-adv-x="567" 
d="M158 0v295h117l171 -295h118l-181 307q62 19 101.5 70.5t39.5 117.5q0 21 -4 41.5t-12 39t-19 34.5t-25.5 30t-31 25t-35.5 19t-40 12t-43 4h-261v-700h105zM300 608q52 0 85.5 -32.5t33.5 -80.5q0 -46 -33.5 -79t-85.5 -33h-142v225h142zM320 897l-107 -125h99l124 125
h-116z" />
    <glyph glyph-name="racute" unicode="&#x155;" horiz-adv-x="324" 
d="M306 420v94h-35q-42 0 -72.5 -18t-49.5 -49v63h-100v-510h101v290q0 59 32.5 94.5t81.5 35.5h42zM227 706l-107 -125h99l124 125h-116z" />
    <glyph glyph-name="uni0156" unicode="&#x156;" horiz-adv-x="567" 
d="M158 0v295h117l171 -295h118l-181 307q62 19 101.5 70.5t39.5 117.5q0 21 -4 41.5t-12 39t-19 34.5t-25.5 30t-31 25t-35.5 19t-40 12t-43 4h-261v-700h105zM300 608q52 0 85.5 -32.5t33.5 -80.5q0 -46 -33.5 -79t-85.5 -33h-142v225h142zM241 -213v-40q49 4 79 38.5
t30 78.5q0 35 -16.5 55.5t-42.5 20.5q-19 0 -33.5 -14t-14.5 -33q0 -7 1.5 -13t4.5 -10.5t7 -8t8.5 -6.5t8.5 -5.5l8 -5t7 -5t4.5 -5.5t1.5 -6q0 -13 -15.5 -25.5t-37.5 -15.5z" />
    <glyph glyph-name="uni0157" unicode="&#x157;" horiz-adv-x="324" 
d="M306 420v94h-35q-42 0 -72.5 -18t-49.5 -49v63h-100v-510h101v290q0 59 32.5 94.5t81.5 35.5h42zM47 -213v-40q49 4 79 38.5t30 78.5q0 35 -16.5 55.5t-42.5 20.5q-19 0 -33.5 -14t-14.5 -33q0 -7 1.5 -13t4.5 -10.5t7 -8t8.5 -6.5t8.5 -5.5l8 -5t7 -5t4.5 -5.5t1.5 -6
q0 -13 -15.5 -25.5t-37.5 -15.5z" />
    <glyph glyph-name="Rcaron" unicode="&#x158;" horiz-adv-x="567" 
d="M158 0v295h117l171 -295h118l-181 307q62 19 101.5 70.5t39.5 117.5q0 21 -4 41.5t-12 39t-19 34.5t-25.5 30t-31 25t-35.5 19t-40 12t-43 4h-261v-700h105zM300 608q52 0 85.5 -32.5t33.5 -80.5q0 -46 -33.5 -79t-85.5 -33h-142v225h142zM359 897l-73 -74l-73 74h-89
l114 -125h96l114 125h-89z" />
    <glyph glyph-name="rcaron" unicode="&#x159;" horiz-adv-x="324" 
d="M306 420v94h-35q-42 0 -72.5 -18t-49.5 -49v63h-100v-510h101v290q0 59 32.5 94.5t81.5 35.5h42zM265 706l-73 -74l-73 74h-89l114 -125h96l114 125h-89z" />
    <glyph glyph-name="Sacute" unicode="&#x15a;" horiz-adv-x="564" 
d="M26 213q2 -25 9 -48t17.5 -43.5t25 -38.5t32 -32.5t38.5 -26t44.5 -19.5t49 -12t53.5 -4q108 0 173.5 58t65.5 145q0 74 -43.5 120.5t-134.5 71.5l-118 32q-49 13 -75 38.5t-26 64.5q0 47 35 75t89 28q63 0 103 -35t50 -97h103q-13 99 -82 160t-173 61q-25 0 -47.5 -3.5
t-43.5 -10.5t-39 -17.5t-33.5 -23.5t-27.5 -29t-20.5 -34.5t-13 -39t-4.5 -43.5q0 -72 44 -119.5t131 -70.5l117 -32q51 -14 77.5 -40.5t26.5 -65.5q0 -46 -35 -75t-99 -29q-70 0 -113.5 36t-53.5 99h-102zM309 897l-107 -125h99l124 125h-116z" />
    <glyph glyph-name="sacute" unicode="&#x15b;" horiz-adv-x="449" 
d="M241 -11q85 0 136 44t51 110q0 54 -35.5 91t-105.5 55l-88 23q-36 9 -54.5 25.5t-18.5 40.5q0 27 20.5 44.5t57.5 17.5q39 0 72.5 -22.5t42.5 -65.5h97q-10 72 -66 120.5t-145 48.5q-77 0 -127.5 -42t-50.5 -111q0 -54 35 -90.5t103 -53.5l94 -23q36 -10 53 -26.5
t17 -39.5q0 -29 -24 -47t-65 -18q-47 0 -81.5 22.5t-43.5 65.5h-97q13 -72 71.5 -120.5t151.5 -48.5zM249 706l-107 -125h99l124 125h-116z" />
    <glyph glyph-name="Scircumflex" unicode="&#x15c;" horiz-adv-x="564" 
d="M26 213q2 -25 9 -48t17.5 -43.5t25 -38.5t32 -32.5t38.5 -26t44.5 -19.5t49 -12t53.5 -4q108 0 173.5 58t65.5 145q0 74 -43.5 120.5t-134.5 71.5l-118 32q-49 13 -75 38.5t-26 64.5q0 47 35 75t89 28q63 0 103 -35t50 -97h103q-13 99 -82 160t-173 61q-25 0 -47.5 -3.5
t-43.5 -10.5t-39 -17.5t-33.5 -23.5t-27.5 -29t-20.5 -34.5t-13 -39t-4.5 -43.5q0 -72 44 -119.5t131 -70.5l117 -32q51 -14 77.5 -40.5t26.5 -65.5q0 -46 -35 -75t-99 -29q-70 0 -113.5 36t-53.5 99h-102zM202 772l73 74l73 -74h89l-111 125h-102l-111 -125h89z" />
    <glyph glyph-name="scircumflex" unicode="&#x15d;" horiz-adv-x="449" 
d="M241 -11q85 0 136 44t51 110q0 54 -35.5 91t-105.5 55l-88 23q-36 9 -54.5 25.5t-18.5 40.5q0 27 20.5 44.5t57.5 17.5q39 0 72.5 -22.5t42.5 -65.5h97q-10 72 -66 120.5t-145 48.5q-77 0 -127.5 -42t-50.5 -111q0 -54 35 -90.5t103 -53.5l94 -23q36 -10 53 -26.5
t17 -39.5q0 -29 -24 -47t-65 -18q-47 0 -81.5 22.5t-43.5 65.5h-97q13 -72 71.5 -120.5t151.5 -48.5zM141 581l73 74l73 -74h89l-111 125h-102l-111 -125h89z" />
    <glyph glyph-name="uni015E" unicode="&#x15e;" horiz-adv-x="564" 
d="M26 213q8 -92 72 -152t160 -70l-26 -82h38q24 0 39 -11t15 -30q0 -17 -13.5 -29t-36.5 -12q-19 0 -35 7.5t-29 23.5l-44 -36q17 -23 47 -36t65 -13q47 0 79 27t32 67q0 34 -24 57t-63 27l12 39q100 5 160 61.5t60 140.5q0 74 -43.5 120.5t-134.5 71.5l-118 32
q-49 13 -75 38.5t-26 64.5q0 47 35 75t89 28q63 0 103 -35t50 -97h103q-13 99 -82 160t-173 61q-25 0 -47.5 -3.5t-43.5 -10.5t-39 -17.5t-33.5 -23.5t-27.5 -29t-20.5 -34.5t-13 -39t-4.5 -43.5q0 -72 44 -119.5t131 -70.5l117 -32q51 -14 77.5 -40.5t26.5 -65.5
q0 -46 -35 -75t-99 -29q-70 0 -113.5 36t-53.5 99h-102z" />
    <glyph glyph-name="uni015F" unicode="&#x15f;" horiz-adv-x="449" 
d="M331 -133q0 34 -24 57t-63 27l12 38q78 4 125 47.5t47 106.5q0 54 -35.5 91t-105.5 55l-88 23q-36 9 -54.5 25.5t-18.5 40.5q0 27 20.5 44.5t57.5 17.5q39 0 72.5 -22.5t42.5 -65.5h97q-10 72 -66 120.5t-145 48.5q-77 0 -127.5 -42t-50.5 -111q0 -54 35 -90.5t103 -53.5
l94 -23q36 -10 53 -26.5t17 -39.5q0 -29 -24 -47t-65 -18q-47 0 -81.5 22.5t-43.5 65.5h-97q12 -64 59.5 -110t122.5 -56l-26 -83h38q24 0 39 -11t15 -30q0 -17 -13.5 -29t-36.5 -12q-19 0 -35 7.5t-29 23.5l-44 -36q17 -23 47 -36t65 -13q47 0 79 27t32 67z" />
    <glyph glyph-name="Scaron" unicode="&#x160;" horiz-adv-x="564" 
d="M26 213q2 -25 9 -48t17.5 -43.5t25 -38.5t32 -32.5t38.5 -26t44.5 -19.5t49 -12t53.5 -4q108 0 173.5 58t65.5 145q0 74 -43.5 120.5t-134.5 71.5l-118 32q-49 13 -75 38.5t-26 64.5q0 47 35 75t89 28q63 0 103 -35t50 -97h103q-13 99 -82 160t-173 61q-25 0 -47.5 -3.5
t-43.5 -10.5t-39 -17.5t-33.5 -23.5t-27.5 -29t-20.5 -34.5t-13 -39t-4.5 -43.5q0 -72 44 -119.5t131 -70.5l117 -32q51 -14 77.5 -40.5t26.5 -65.5q0 -46 -35 -75t-99 -29q-70 0 -113.5 36t-53.5 99h-102zM348 897l-73 -74l-73 74h-89l114 -125h96l114 125h-89z" />
    <glyph glyph-name="scaron" unicode="&#x161;" horiz-adv-x="449" 
d="M241 -11q85 0 136 44t51 110q0 54 -35.5 91t-105.5 55l-88 23q-36 9 -54.5 25.5t-18.5 40.5q0 27 20.5 44.5t57.5 17.5q39 0 72.5 -22.5t42.5 -65.5h97q-10 72 -66 120.5t-145 48.5q-77 0 -127.5 -42t-50.5 -111q0 -54 35 -90.5t103 -53.5l94 -23q36 -10 53 -26.5
t17 -39.5q0 -29 -24 -47t-65 -18q-47 0 -81.5 22.5t-43.5 65.5h-97q13 -72 71.5 -120.5t151.5 -48.5zM287 706l-73 -74l-73 74h-89l114 -125h96l114 125h-89z" />
    <glyph glyph-name="uni0162" unicode="&#x162;" horiz-adv-x="562" 
d="M383 -133q0 34 -24 57t-63 27l16 49h21v608h219v92h-542v-92h218v-608h27l-29 -91h38q24 0 39 -11t15 -30q0 -17 -13.5 -29t-36.5 -12q-19 0 -35 7.5t-29 23.5l-44 -36q17 -23 47 -36t65 -13q47 0 79 27t32 67z" />
    <glyph glyph-name="uni0163" unicode="&#x163;" horiz-adv-x="339" 
d="M12 421h97v-311q0 -41 23.5 -70.5t67.5 -36.5l-30 -94h38q24 0 39 -11t15 -30q0 -17 -13.5 -29t-36.5 -12q-19 0 -35 7.5t-29 23.5l-44 -36q17 -23 47 -36t65 -13q47 0 79 27t32 67q0 34 -24 57t-63 27l16 49h71v89h-67q-23 0 -36.5 11t-13.5 32v289h116v89h-116v150
h-101v-150h-97v-89z" />
    <glyph glyph-name="Tcaron" unicode="&#x164;" horiz-adv-x="562" 
d="M10 608h218v-608h105v608h219v92h-542v-92zM355 897l-73 -74l-73 74h-89l114 -125h96l114 125h-89z" />
    <glyph glyph-name="tcaron" unicode="&#x165;" horiz-adv-x="339" 
d="M230 0h97v89h-67q-23 0 -36.5 11t-13.5 32v289h117v89h-117v150h-101v-150h-97v-89h97v-311q0 -48 31.5 -79t89.5 -31zM270 574h76l41 202h-98z" />
    <glyph glyph-name="Tbar" unicode="&#x166;" horiz-adv-x="562" 
d="M466 297v89h-133v222h219v92h-542v-92h218v-222h-132v-89h132v-297h105v297h133z" />
    <glyph glyph-name="tbar" unicode="&#x167;" horiz-adv-x="352" 
d="M230 0h97v89h-67q-23 0 -36.5 11t-13.5 32v98h122v83h-122v108h116v89h-116v150h-101v-150h-97v-89h97v-108h-91v-83h91v-120q0 -48 31.5 -79t89.5 -31z" />
    <glyph glyph-name="Utilde" unicode="&#x168;" horiz-adv-x="656" 
d="M153 268v432h-105v-437q0 -31 5 -59.5t15 -53.5t24 -47t32 -40t39.5 -32t45.5 -23.5t50.5 -14.5t54.5 -5q54 0 102 22t82 60v-70h105v700h-105v-432q0 -84 -50.5 -135t-122.5 -51q-73 0 -122.5 51t-49.5 135zM260 892q-35 0 -60 -26t-38 -79l66 -14q8 30 17.5 40.5
t21.5 10.5q5 0 10.5 -1.5t11.5 -4.5t12.5 -6.5t13.5 -7.5t14.5 -8t15 -7.5t15.5 -6.5t15.5 -4.5t14.5 -1.5q35 0 60 26t38 78l-65 15q-8 -30 -18 -40.5t-22 -10.5q-5 0 -10.5 1.5t-11.5 4.5t-12.5 6.5t-13.5 7.5t-14.5 8t-15 7.5t-15.5 6.5t-15.5 4.5t-14.5 1.5z" />
    <glyph glyph-name="utilde" unicode="&#x169;" 
d="M49 184q0 -20 3.5 -39.5t10.5 -37t17 -33t23 -28.5t28.5 -23.5t33.5 -17.5t38 -11t42 -4q46 0 85 18t65 49v-57h101v510h-101v-303q0 -56 -35.5 -92t-89.5 -36t-87 35.5t-33 88.5v307h-101v-326zM208 701q-35 0 -60 -26t-38 -79l66 -14q8 30 17.5 40.5t21.5 10.5
q5 0 10.5 -1.5t11.5 -4.5t12.5 -6.5t13.5 -7.5t14.5 -8t15 -7.5t15.5 -6.5t15.5 -4.5t14.5 -1.5q35 0 60 26t38 78l-65 15q-8 -30 -18 -40.5t-22 -10.5q-5 0 -10.5 1.5t-11.5 4.5t-12.5 6.5t-13.5 7.5t-14.5 8t-15 7.5t-15.5 6.5t-15.5 4.5t-14.5 1.5z" />
    <glyph glyph-name="Umacron" unicode="&#x16a;" horiz-adv-x="656" 
d="M153 268v432h-105v-437q0 -31 5 -59.5t15 -53.5t24 -47t32 -40t39.5 -32t45.5 -23.5t50.5 -14.5t54.5 -5q54 0 102 22t82 60v-70h105v700h-105v-432q0 -84 -50.5 -135t-122.5 -51q-73 0 -122.5 51t-49.5 135zM455 867h-260v-69h260v69z" />
    <glyph glyph-name="umacron" unicode="&#x16b;" 
d="M49 184q0 -20 3.5 -39.5t10.5 -37t17 -33t23 -28.5t28.5 -23.5t33.5 -17.5t38 -11t42 -4q46 0 85 18t65 49v-57h101v510h-101v-303q0 -56 -35.5 -92t-89.5 -36t-87 35.5t-33 88.5v307h-101v-326zM403 676h-260v-69h260v69z" />
    <glyph glyph-name="Ubreve" unicode="&#x16c;" horiz-adv-x="656" 
d="M153 268v432h-105v-437q0 -31 5 -59.5t15 -53.5t24 -47t32 -40t39.5 -32t45.5 -23.5t50.5 -14.5t54.5 -5q54 0 102 22t82 60v-70h105v700h-105v-432q0 -84 -50.5 -135t-122.5 -51q-73 0 -122.5 51t-49.5 135zM326 832q-26 0 -50.5 14.5t-37.5 57.5l-69 -21
q15 -56 59 -86.5t98 -30.5t98 30.5t59 86.5l-69 21q-13 -43 -38 -57.5t-50 -14.5z" />
    <glyph glyph-name="ubreve" unicode="&#x16d;" 
d="M49 184q0 -20 3.5 -39.5t10.5 -37t17 -33t23 -28.5t28.5 -23.5t33.5 -17.5t38 -11t42 -4q46 0 85 18t65 49v-57h101v510h-101v-303q0 -56 -35.5 -92t-89.5 -36t-87 35.5t-33 88.5v307h-101v-326zM273 641q-26 0 -50.5 14.5t-37.5 57.5l-69 -21q15 -56 59 -86.5t98 -30.5
t98 30.5t59 86.5l-69 21q-13 -43 -38 -57.5t-50 -14.5z" />
    <glyph glyph-name="Uring" unicode="&#x16e;" horiz-adv-x="656" 
d="M153 268v432h-105v-437q0 -31 5 -59.5t15 -53.5t24 -47t32 -40t39.5 -32t45.5 -23.5t50.5 -14.5t54.5 -5q54 0 102 22t82 60v-70h105v700h-105v-432q0 -84 -50.5 -135t-122.5 -51q-73 0 -122.5 51t-49.5 135zM326 755q46 0 77.5 32t31.5 76q0 43 -31.5 74.5t-77.5 31.5
t-77.5 -31.5t-31.5 -74.5q0 -45 31.5 -76.5t77.5 -31.5zM326 804q-25 0 -42 17t-17 42q0 23 17 40t42 17t42 -17t17 -40q0 -25 -17 -42t-42 -17z" />
    <glyph glyph-name="uring" unicode="&#x16f;" 
d="M49 184q0 -20 3.5 -39.5t10.5 -37t17 -33t23 -28.5t28.5 -23.5t33.5 -17.5t38 -11t42 -4q46 0 85 18t65 49v-57h101v510h-101v-303q0 -56 -35.5 -92t-89.5 -36t-87 35.5t-33 88.5v307h-101v-326zM273 564q46 0 77.5 32t31.5 76q0 43 -31.5 74.5t-77.5 31.5t-77.5 -31.5
t-31.5 -74.5q0 -45 31.5 -76.5t77.5 -31.5zM273 613q-25 0 -42 17t-17 42q0 23 17 40t42 17t42 -17t17 -40q0 -25 -17 -42t-42 -17z" />
    <glyph glyph-name="Uhungarumlaut" unicode="&#x170;" horiz-adv-x="656" 
d="M153 268v432h-105v-437q0 -31 5 -59.5t15 -53.5t24 -47t32 -40t39.5 -32t45.5 -23.5t50.5 -14.5t54.5 -5q54 0 102 22t82 60v-70h105v700h-105v-432q0 -84 -50.5 -135t-122.5 -51q-73 0 -122.5 51t-49.5 135zM273 897l-106 -125h91l120 125h-105zM456 897l-106 -125h91
l119 125h-104z" />
    <glyph glyph-name="uhungarumlaut" unicode="&#x171;" 
d="M49 184q0 -20 3.5 -39.5t10.5 -37t17 -33t23 -28.5t28.5 -23.5t33.5 -17.5t38 -11t42 -4q46 0 85 18t65 49v-57h101v510h-101v-303q0 -56 -35.5 -92t-89.5 -36t-87 35.5t-33 88.5v307h-101v-326zM220 706l-106 -125h91l120 125h-105zM403 706l-106 -125h91l119 125h-104z
" />
    <glyph glyph-name="Uogonek" unicode="&#x172;" horiz-adv-x="656" 
d="M153 268v432h-105v-437q0 -31 5 -59.5t15 -53.5t24 -47t32 -40t39.5 -32t45.5 -23.5t50.5 -14.5t54.5 -5q54 0 102 22t82 60v-70h38q-46 -37 -62 -69t-16 -64q0 -37 25.5 -62.5t75.5 -25.5q16 0 31.5 3t28.5 8l-11 54q-9 -4 -18.5 -5.5t-19.5 -1.5q-22 0 -34.5 12.5
t-12.5 34.5t14.5 50.5t64.5 65.5h1v700h-105v-432q0 -84 -50.5 -135t-122.5 -51q-73 0 -122.5 51t-49.5 135z" />
    <glyph glyph-name="uogonek" unicode="&#x173;" 
d="M49 184q0 -20 3.5 -39.5t10.5 -37t17 -33t23 -28.5t28.5 -23.5t33.5 -17.5t38 -11t42 -4q46 0 85 18t65 49v-57h35q-46 -37 -62 -69t-16 -64q0 -37 25.5 -62.5t75.5 -25.5q16 0 31.5 3t28.5 8l-11 54q-9 -4 -18.5 -5.5t-19.5 -1.5q-22 0 -34.5 12.5t-12.5 34.5t14.5 50.5
t64.5 65.5v510h-101v-303q0 -56 -35.5 -92t-89.5 -36t-87 35.5t-33 88.5v307h-101v-326z" />
    <glyph glyph-name="Wcircumflex" unicode="&#x174;" horiz-adv-x="977" 
d="M537 700h-94l-180 -545l-140 545h-113l195 -700h104l180 540l179 -540h105l194 700h-109l-140 -544zM415 772l73 74l73 -74h89l-111 125h-102l-111 -125h89z" />
    <glyph glyph-name="wcircumflex" unicode="&#x175;" horiz-adv-x="744" 
d="M332 510l-123 -359l-102 359h-107l155 -510h91l126 369l127 -369h91l154 510h-103l-103 -359l-122 359h-84zM299 581l73 74l73 -74h89l-111 125h-102l-111 -125h89z" />
    <glyph glyph-name="Ycircumflex" unicode="&#x176;" horiz-adv-x="634" 
d="M369 0v299l270 401h-123l-198 -302l-198 302h-125l269 -399v-301h105zM245 772l73 74l73 -74h89l-111 125h-102l-111 -125h89z" />
    <glyph glyph-name="ycircumflex" unicode="&#x177;" horiz-adv-x="509" 
d="M179 -60q-12 -30 -30 -42.5t-46 -12.5h-47v-86h67q56 0 89.5 25.5t57.5 82.5l244 603h-105l-150 -378l-155 378h-109l212 -500zM184 581l73 74l73 -74h89l-111 125h-102l-111 -125h89z" />
    <glyph glyph-name="Ydieresis" unicode="&#x178;" horiz-adv-x="634" 
d="M369 0v299l270 401h-123l-198 -302l-198 302h-125l269 -399v-301h105zM224 774q25 0 42 17.5t17 42.5t-17 42t-42 17q-24 0 -41.5 -17t-17.5 -42t17.5 -42.5t41.5 -17.5zM411 774q25 0 41.5 17.5t16.5 42.5t-16.5 42t-41.5 17t-42 -17t-17 -42t17 -42.5t42 -17.5z" />
    <glyph glyph-name="Zacute" unicode="&#x179;" horiz-adv-x="556" 
d="M38 608h356l-371 -539v-69h504v92h-369l370 537v71h-490v-92zM316 897l-107 -125h99l124 125h-116z" />
    <glyph glyph-name="zacute" unicode="&#x17a;" horiz-adv-x="454" 
d="M31 421h267l-272 -348v-73h403v89h-276l270 345v76h-392v-89zM262 706l-107 -125h99l124 125h-116z" />
    <glyph glyph-name="Zdotaccent" unicode="&#x17b;" horiz-adv-x="556" 
d="M38 608h356l-371 -539v-69h504v92h-369l370 537v71h-490v-92zM281 774q25 0 42 17.5t17 42.5t-17 42t-42 17q-24 0 -41.5 -17t-17.5 -42t17.5 -42.5t41.5 -17.5z" />
    <glyph glyph-name="zdotaccent" unicode="&#x17c;" horiz-adv-x="454" 
d="M31 421h267l-272 -348v-73h403v89h-276l270 345v76h-392v-89zM227 583q25 0 42 17.5t17 42.5t-17 42t-42 17q-24 0 -41.5 -17t-17.5 -42t17.5 -42.5t41.5 -17.5z" />
    <glyph glyph-name="Zcaron" unicode="&#x17d;" horiz-adv-x="556" 
d="M38 608h356l-371 -539v-69h504v92h-369l370 537v71h-490v-92zM354 897l-73 -74l-73 74h-89l114 -125h96l114 125h-89z" />
    <glyph glyph-name="zcaron" unicode="&#x17e;" horiz-adv-x="454" 
d="M31 421h267l-272 -348v-73h403v89h-276l270 345v76h-392v-89zM300 706l-73 -74l-73 74h-89l114 -125h96l114 125h-89z" />
    <glyph glyph-name="florin" unicode="&#x192;" horiz-adv-x="341" 
d="M324 421v88h-101l13 86q4 21 12.5 31.5t27.5 10.5h68v89h-86q-57 0 -85 -33t-35 -84l-15 -100h-106v-88h93l-74 -489q-3 -22 -13 -34t-29 -12h-59v-87h81q54 0 83 34t36 82l75 506h114z" />
    <glyph glyph-name="uni0218" unicode="&#x218;" horiz-adv-x="564" 
d="M26 213q2 -25 9 -48t17.5 -43.5t25 -38.5t32 -32.5t38.5 -26t44.5 -19.5t49 -12t53.5 -4q108 0 173.5 58t65.5 145q0 74 -43.5 120.5t-134.5 71.5l-118 32q-49 13 -75 38.5t-26 64.5q0 47 35 75t89 28q63 0 103 -35t50 -97h103q-13 99 -82 160t-173 61q-25 0 -47.5 -3.5
t-43.5 -10.5t-39 -17.5t-33.5 -23.5t-27.5 -29t-20.5 -34.5t-13 -39t-4.5 -43.5q0 -72 44 -119.5t131 -70.5l117 -32q51 -14 77.5 -40.5t26.5 -65.5q0 -46 -35 -75t-99 -29q-70 0 -113.5 36t-53.5 99h-102zM233 -213v-40q49 4 79 38.5t30 78.5q0 35 -16.5 55.5t-42.5 20.5
q-19 0 -33.5 -14t-14.5 -33q0 -7 1.5 -13t4.5 -10.5t7 -8t8.5 -6.5t8.5 -5.5l8 -5t7 -5t4.5 -5.5t1.5 -6q0 -13 -15.5 -25.5t-37.5 -15.5z" />
    <glyph glyph-name="uni0219" unicode="&#x219;" horiz-adv-x="449" 
d="M241 -11q85 0 136 44t51 110q0 54 -35.5 91t-105.5 55l-88 23q-36 9 -54.5 25.5t-18.5 40.5q0 27 20.5 44.5t57.5 17.5q39 0 72.5 -22.5t42.5 -65.5h97q-10 72 -66 120.5t-145 48.5q-77 0 -127.5 -42t-50.5 -111q0 -54 35 -90.5t103 -53.5l94 -23q36 -10 53 -26.5
t17 -39.5q0 -29 -24 -47t-65 -18q-47 0 -81.5 22.5t-43.5 65.5h-97q13 -72 71.5 -120.5t151.5 -48.5zM175 -213v-40q49 4 79 38.5t30 78.5q0 35 -16.5 55.5t-42.5 20.5q-19 0 -33.5 -14t-14.5 -33q0 -7 1.5 -13t4.5 -10.5t7 -8t8.5 -6.5t8.5 -5.5l8 -5t7 -5t4.5 -5.5t1.5 -6
q0 -13 -15.5 -25.5t-37.5 -15.5z" />
    <glyph glyph-name="uni021A" unicode="&#x21a;" horiz-adv-x="562" 
d="M10 608h218v-608h105v608h219v92h-542v-92zM227 -213v-40q49 4 79 38.5t30 78.5q0 35 -16.5 55.5t-42.5 20.5q-19 0 -33.5 -14t-14.5 -33q0 -7 1.5 -13t4.5 -10.5t7 -8t8.5 -6.5t8.5 -5.5l8 -5t7 -5t4.5 -5.5t1.5 -6q0 -13 -15.5 -25.5t-37.5 -15.5z" />
    <glyph glyph-name="uni021B" unicode="&#x21b;" horiz-adv-x="339" 
d="M230 0h97v89h-67q-23 0 -36.5 11t-13.5 32v289h117v89h-117v150h-101v-150h-97v-89h97v-311q0 -48 31.5 -79t89.5 -31zM171 -213v-40q49 4 79 38.5t30 78.5q0 35 -16.5 55.5t-42.5 20.5q-19 0 -33.5 -14t-14.5 -33q0 -7 1.5 -13t4.5 -10.5t7 -8t8.5 -6.5t8.5 -5.5l8 -5
t7 -5t4.5 -5.5t1.5 -6q0 -13 -15.5 -25.5t-37.5 -15.5z" />
    <glyph glyph-name="uni0237" unicode="&#x237;" horiz-adv-x="199" 
d="M32 -201q54 0 86 32t32 78v601h-101v-586q0 -19 -11 -29t-30 -10h-31v-86h55z" />
    <glyph glyph-name="circumflex" unicode="&#x2c6;" horiz-adv-x="510" 
d="M183 581l73 74l73 -74h89l-111 125h-102l-111 -125h89z" />
    <glyph glyph-name="caron" unicode="&#x2c7;" horiz-adv-x="510" 
d="M329 706l-73 -74l-73 74h-89l114 -125h96l114 125h-89z" />
    <glyph glyph-name="breve" unicode="&#x2d8;" horiz-adv-x="510" 
d="M255 641q-26 0 -50.5 14.5t-37.5 57.5l-69 -21q15 -56 59 -86.5t98 -30.5t98 30.5t59 86.5l-69 21q-13 -43 -38 -57.5t-50 -14.5z" />
    <glyph glyph-name="dotaccent" unicode="&#x2d9;" horiz-adv-x="266" 
d="M132 583q25 0 42 17.5t17 42.5t-17 42t-42 17q-24 0 -41.5 -17t-17.5 -42t17.5 -42.5t41.5 -17.5z" />
    <glyph glyph-name="ring" unicode="&#x2da;" horiz-adv-x="510" 
d="M255 564q46 0 77.5 32t31.5 76q0 43 -31.5 74.5t-77.5 31.5t-77.5 -31.5t-31.5 -74.5q0 -45 31.5 -76.5t77.5 -31.5zM255 613q-25 0 -42 17t-17 42q0 23 17 40t42 17t42 -17t17 -40q0 -25 -17 -42t-42 -17z" />
    <glyph glyph-name="ogonek" unicode="&#x2db;" horiz-adv-x="510" 
d="M316 0l-41 19q-61 -44 -82 -80t-21 -72q0 -37 25.5 -62.5t75.5 -25.5q16 0 31.5 3t28.5 8l-11 54q-9 -4 -18.5 -5.5t-19.5 -1.5q-22 0 -34.5 12.5t-12.5 34.5t14.5 50.5t64.5 65.5z" />
    <glyph glyph-name="tilde" unicode="&#x2dc;" horiz-adv-x="510" 
d="M186 701q-35 0 -60 -26t-38 -79l66 -14q8 30 17.5 40.5t21.5 10.5q5 0 10.5 -1.5t11.5 -4.5t12.5 -6.5t13.5 -7.5t14.5 -8t15 -7.5t15.5 -6.5t15.5 -4.5t14.5 -1.5q35 0 60 26t38 78l-65 15q-8 -30 -18 -40.5t-22 -10.5q-5 0 -10.5 1.5t-11.5 4.5t-12.5 6.5t-13.5 7.5
t-14.5 8t-15 7.5t-15.5 6.5t-15.5 4.5t-14.5 1.5z" />
    <glyph glyph-name="hungarumlaut" unicode="&#x2dd;" horiz-adv-x="526" 
d="M205 706l-106 -125h91l120 125h-105zM388 706l-106 -125h91l119 125h-104z" />
    <glyph glyph-name="uni09F3" unicode="&#x9f3;" horiz-adv-x="641" 
d="M205 175v217h66v84h-66v120q0 44 -28.5 74t-79.5 30h-64v-91h37q17 0 27 -9t10 -26v-98h-74v-84h74v-227q0 -76 55 -127t148 -51q25 0 49.5 3.5t47 11t43 17.5t39.5 23t35 28.5t29.5 33.5t24.5 37.5t18 40.5t11 43.5t4 46.5t-4 46.5t-11 43t-17.5 38.5t-23.5 33.5
t-28.5 28t-33 21t-36.5 13t-40 4.5q-24 0 -45.5 -6.5t-46.5 -18.5l33 -84q13 7 28 11.5t29 4.5q40 0 69 -39t29 -96q0 -21 -4 -40.5t-11.5 -37.5t-18.5 -34t-24.5 -29.5t-29.5 -24t-34 -18t-37.5 -11.5t-40.5 -4q-48 0 -78 26t-30 76z" />
    <glyph glyph-name="Wgrave" unicode="&#x1e80;" horiz-adv-x="977" 
d="M537 700h-94l-180 -545l-140 545h-113l195 -700h104l180 540l179 -540h105l194 700h-109l-140 -544zM452 897h-116l124 -125h100z" />
    <glyph glyph-name="wgrave" unicode="&#x1e81;" horiz-adv-x="744" 
d="M332 510l-123 -359l-102 359h-107l155 -510h91l126 369l127 -369h91l154 510h-103l-103 -359l-122 359h-84zM336 706h-116l124 -125h100z" />
    <glyph glyph-name="Wacute" unicode="&#x1e82;" horiz-adv-x="977" 
d="M537 700h-94l-180 -545l-140 545h-113l195 -700h104l180 540l179 -540h105l194 700h-109l-140 -544zM523 897l-107 -125h99l124 125h-116z" />
    <glyph glyph-name="wacute" unicode="&#x1e83;" horiz-adv-x="744" 
d="M332 510l-123 -359l-102 359h-107l155 -510h91l126 369l127 -369h91l154 510h-103l-103 -359l-122 359h-84zM407 706l-107 -125h99l124 125h-116z" />
    <glyph glyph-name="Wdieresis" unicode="&#x1e84;" horiz-adv-x="977" 
d="M537 700h-94l-180 -545l-140 545h-113l195 -700h104l180 540l179 -540h105l194 700h-109l-140 -544zM394 774q25 0 42 17.5t17 42.5t-17 42t-42 17q-24 0 -41.5 -17t-17.5 -42t17.5 -42.5t41.5 -17.5zM581 774q25 0 41.5 17.5t16.5 42.5t-16.5 42t-41.5 17t-42 -17
t-17 -42t17 -42.5t42 -17.5z" />
    <glyph glyph-name="wdieresis" unicode="&#x1e85;" horiz-adv-x="744" 
d="M332 510l-123 -359l-102 359h-107l155 -510h91l126 369l127 -369h91l154 510h-103l-103 -359l-122 359h-84zM279 583q25 0 42 17.5t17 42.5t-17 42t-42 17q-24 0 -41.5 -17t-17.5 -42t17.5 -42.5t41.5 -17.5zM466 583q25 0 41.5 17.5t16.5 42.5t-16.5 42t-41.5 17
t-42 -17t-17 -42t17 -42.5t42 -17.5z" />
    <glyph glyph-name="Ygrave" unicode="&#x1ef2;" horiz-adv-x="634" 
d="M369 0v299l270 401h-123l-198 -302l-198 302h-125l269 -399v-301h105zM282 897h-116l124 -125h100z" />
    <glyph glyph-name="ygrave" unicode="&#x1ef3;" horiz-adv-x="509" 
d="M179 -60q-12 -30 -30 -42.5t-46 -12.5h-47v-86h67q56 0 89.5 25.5t57.5 82.5l244 603h-105l-150 -378l-155 378h-109l212 -500zM221 706h-116l124 -125h100z" />
    <glyph glyph-name="uni2002" unicode="&#x2002;" horiz-adv-x="500" 
 />
    <glyph glyph-name="uni2003" unicode="&#x2003;" horiz-adv-x="1000" 
 />
    <glyph glyph-name="uni2009" unicode="&#x2009;" horiz-adv-x="175" 
 />
    <glyph glyph-name="uni200A" unicode="&#x200a;" horiz-adv-x="100" 
 />
    <glyph glyph-name="uni200B" unicode="&#x200b;" horiz-adv-x="0" 
 />
    <glyph glyph-name="endash" unicode="&#x2013;" horiz-adv-x="571" 
d="M34 255h503v87h-503v-87z" />
    <glyph glyph-name="emdash" unicode="&#x2014;" horiz-adv-x="783" 
d="M34 255h715v87h-715v-87z" />
    <glyph glyph-name="uni2015" unicode="&#x2015;" horiz-adv-x="983" 
d="M34 255h915v87h-915v-87z" />
    <glyph glyph-name="quoteleft" unicode="&#x2018;" horiz-adv-x="195" 
d="M155 676v49q-58 -10 -93 -54t-35 -102q0 -43 19.5 -67.5t51.5 -24.5q23 0 40.5 17t17.5 41q0 8 -1.5 14.5t-4.5 12t-7 9.5t-8.5 7.5t-9.5 6.5t-9.5 6t-8.5 5.5t-7 5t-4.5 5.5t-1.5 7q0 19 17.5 38.5t43.5 23.5z" />
    <glyph glyph-name="quoteright" unicode="&#x2019;" horiz-adv-x="195" 
d="M42 528v-49q58 10 93 54t35 102q0 43 -19.5 67.5t-51.5 24.5q-23 0 -40.5 -17t-17.5 -41q0 -8 1.5 -14.5t4.5 -12t7 -9.5t8.5 -7.5t9.5 -6.5t9.5 -6t8.5 -5.5t7 -5t4.5 -5.5t1.5 -7q0 -19 -17.5 -38.5t-43.5 -23.5z" />
    <glyph glyph-name="quotesinglbase" unicode="&#x201a;" horiz-adv-x="195" 
d="M38 -86v-49q58 10 93 54t35 102q0 43 -19.5 67.5t-51.5 24.5q-23 0 -40.5 -17t-17.5 -41q0 -8 1.5 -14.5t4.5 -12t7 -9.5t8.5 -7.5t9.5 -6.5t9.5 -6t8.5 -5.5t7 -5t4.5 -5.5t1.5 -7q0 -19 -17.5 -38.5t-43.5 -23.5z" />
    <glyph glyph-name="quotedblleft" unicode="&#x201c;" horiz-adv-x="361" 
d="M155 675v49q-58 -10 -93 -54t-35 -102q0 -43 19.5 -67.5t51.5 -24.5q23 0 40.5 17t17.5 41q0 8 -1.5 14.5t-4.5 12t-7 9.5t-8.5 7.5t-9.5 6.5t-9.5 6t-8.5 5.5t-7 5t-4.5 5.5t-1.5 7q0 19 17.5 38.5t43.5 23.5zM321 675v49q-58 -10 -93 -54t-35 -102q0 -43 19.5 -67.5
t51.5 -24.5q23 0 40.5 17t17.5 41q0 8 -1.5 14.5t-4.5 12t-7 9.5t-8.5 7.5t-9.5 6.5t-9.5 6t-8.5 5.5t-7 5t-4.5 5.5t-1.5 7q0 19 17.5 38.5t43.5 23.5z" />
    <glyph glyph-name="quotedblright" unicode="&#x201d;" horiz-adv-x="361" 
d="M206 527v-49q58 10 93 54t35 102q0 43 -19.5 67.5t-51.5 24.5q-23 0 -40.5 -17t-17.5 -41q0 -8 1.5 -14.5t4.5 -12t7 -9.5t8.5 -7.5t9.5 -6.5t9.5 -6t8.5 -5.5t7 -5t4.5 -5.5t1.5 -7q0 -19 -17.5 -38.5t-43.5 -23.5zM40 527v-49q58 10 93 54t35 102q0 43 -19.5 67.5
t-51.5 24.5q-23 0 -40.5 -17t-17.5 -41q0 -8 1.5 -14.5t4.5 -12t7 -9.5t8.5 -7.5t9.5 -6.5t9.5 -6t8.5 -5.5t7 -5t4.5 -5.5t1.5 -7q0 -19 -17.5 -38.5t-43.5 -23.5z" />
    <glyph glyph-name="quotedblbase" unicode="&#x201e;" horiz-adv-x="361" 
d="M204 -86v-49q58 10 93 54t35 102q0 43 -19.5 67.5t-51.5 24.5q-23 0 -40.5 -17t-17.5 -41q0 -8 1.5 -14.5t4.5 -12t7 -9.5t8.5 -7.5t9.5 -6.5t9.5 -6t8.5 -5.5t7 -5t4.5 -5.5t1.5 -7q0 -19 -17.5 -38.5t-43.5 -23.5zM38 -86v-49q58 10 93 54t35 102q0 43 -19.5 67.5
t-51.5 24.5q-23 0 -40.5 -17t-17.5 -41q0 -8 1.5 -14.5t4.5 -12t7 -9.5t8.5 -7.5t9.5 -6.5t9.5 -6t8.5 -5.5t7 -5t4.5 -5.5t1.5 -7q0 -19 -17.5 -38.5t-43.5 -23.5z" />
    <glyph glyph-name="dagger" unicode="&#x2020;" horiz-adv-x="417" 
d="M167 0h84v430h124v80h-124v190h-84v-190h-124v-80h124v-430z" />
    <glyph glyph-name="daggerdbl" unicode="&#x2021;" horiz-adv-x="417" 
d="M167 0h84v191h124v79h-124v160h124v80h-124v190h-84v-190h-124v-80h124v-160h-124v-79h124v-191z" />
    <glyph glyph-name="bullet" unicode="&#x2022;" horiz-adv-x="283" 
d="M143 432q-46 0 -77.5 -31.5t-31.5 -75.5q0 -45 31.5 -76.5t77.5 -31.5q44 0 75.5 31.5t31.5 76.5q0 44 -31.5 75.5t-75.5 31.5z" />
    <glyph glyph-name="ellipsis" unicode="&#x2026;" horiz-adv-x="565" 
d="M98 114q-25 0 -43.5 -18.5t-18.5 -43.5q0 -26 18.5 -44t43.5 -18q26 0 44 18t18 44q0 25 -18 43.5t-44 18.5zM283 114q-25 0 -43.5 -18.5t-18.5 -43.5q0 -26 18.5 -44t43.5 -18q26 0 44 18t18 44q0 25 -18 43.5t-44 18.5zM468 114q-25 0 -43.5 -18.5t-18.5 -43.5
q0 -26 18.5 -44t43.5 -18q26 0 44 18t18 44q0 25 -18 43.5t-44 18.5z" />
    <glyph glyph-name="guilsinglleft" unicode="&#x2039;" horiz-adv-x="395" 
d="M366 510h-107l-237 -255l237 -255h110l-234 257z" />
    <glyph glyph-name="guilsinglright" unicode="&#x203a;" horiz-adv-x="395" 
d="M18 0h107l237 255l-237 255h-110l234 -257z" />
    <glyph glyph-name="fraction" unicode="&#x2044;" horiz-adv-x="561" 
d="M126 0l380 700h-81l-380 -700h81z" />
    <glyph glyph-name="uni2070" unicode="&#x2070;" horiz-adv-x="363" 
d="M36 457q0 -68 40 -109t105 -41t105.5 41t40.5 109v102q0 68 -40.5 108.5t-105.5 40.5t-105 -40.5t-40 -108.5v-102zM255 460q0 -43 -20 -65.5t-54 -22.5t-53.5 22.5t-19.5 65.5v96q0 42 19.5 65t53.5 23t54 -22.5t20 -65.5v-96z" />
    <glyph glyph-name="uni2074" unicode="&#x2074;" horiz-adv-x="356" 
d="M211 315h72v94h45v61h-45v230h-95l-164 -236v-55h187v-94zM101 470l110 162v-162h-110z" />
    <glyph glyph-name="uni2075" unicode="&#x2075;" horiz-adv-x="335" 
d="M179 563q-22 0 -39.5 -6t-33.5 -22l3 101h166v64h-228l-9 -213l60 -9q13 13 27.5 19t34.5 6q33 0 51.5 -19t18.5 -46q0 -28 -20 -48t-51 -20q-26 0 -45 12.5t-30 35.5l-59 -33q17 -36 52.5 -57t86.5 -21q61 0 99.5 39.5t38.5 95.5q0 51 -34.5 86t-88.5 35z" />
    <glyph glyph-name="uni2076" unicode="&#x2076;" horiz-adv-x="351" 
d="M189 646q22 0 41.5 -10.5t33.5 -28.5l46 44q-22 27 -51.5 41.5t-69.5 14.5q-71 0 -112.5 -49.5t-41.5 -139.5v-28q0 -82 41 -131.5t109 -49.5q57 0 95 38.5t38 99.5q0 49 -35 86.5t-86 37.5q-25 0 -51.5 -14t-38.5 -45v15q0 60 24 89.5t58 29.5zM182 371q-30 0 -49.5 20
t-19.5 50q0 31 20 50.5t49 19.5t49 -19.5t20 -50.5t-20 -50.5t-49 -19.5z" />
    <glyph glyph-name="uni2077" unicode="&#x2077;" horiz-adv-x="326" 
d="M301 646v54h-276v-64h196l-169 -321h84z" />
    <glyph glyph-name="uni2078" unicode="&#x2078;" horiz-adv-x="351" 
d="M175 307q60 0 100 32.5t40 83.5q0 33 -20.5 57t-53.5 34q28 11 44.5 33.5t16.5 51.5q0 46 -36.5 76.5t-90.5 30.5t-90 -30.5t-36 -76.5q0 -29 16.5 -51.5t44.5 -33.5q-33 -10 -53.5 -34t-20.5 -57q0 -51 39.5 -83.5t99.5 -32.5zM175 541q-23 0 -39.5 15t-16.5 37t16 37
t40 15q25 0 41 -15t16 -37t-16.5 -37t-40.5 -15zM175 484q28 0 47.5 -17t19.5 -42t-19 -40.5t-48 -15.5q-28 0 -47 15.5t-19 40.5t19 42t47 17z" />
    <glyph glyph-name="uni2079" unicode="&#x2079;" horiz-adv-x="351" 
d="M166 370q-22 0 -40 11.5t-31 33.5l-58 -34q20 -34 52 -53.5t78 -19.5q68 0 108 49.5t40 139.5v28q0 82 -40.5 131.5t-107.5 49.5q-57 0 -95.5 -38.5t-38.5 -99.5q0 -49 35 -86.5t86 -37.5q25 0 51.5 14t38.5 45v-15q0 -60 -23 -89t-55 -29zM170 644q29 0 48.5 -20
t19.5 -50q0 -31 -20 -50.5t-48 -19.5q-30 0 -49.5 19.5t-19.5 50.5t19.5 50.5t49.5 19.5z" />
    <glyph glyph-name="uni2080" unicode="&#x2080;" horiz-adv-x="363" 
d="M36 142q0 -68 40 -109t105 -41t105.5 41t40.5 109v102q0 68 -40.5 108.5t-105.5 40.5t-105 -40.5t-40 -108.5v-102zM255 145q0 -43 -20 -65.5t-54 -22.5t-53.5 22.5t-19.5 65.5v96q0 42 19.5 65t53.5 23t54 -22.5t20 -65.5v-96z" />
    <glyph glyph-name="uni2081" unicode="&#x2081;" horiz-adv-x="288" 
d="M263 64h-83v321h-142v-64h69v-257h-82v-64h238v64z" />
    <glyph glyph-name="uni2082" unicode="&#x2082;" horiz-adv-x="318" 
d="M284 276q0 49 -36 82t-94 33q-46 0 -81 -21t-55 -60l57 -32q13 25 32 38t42 13q27 0 44.5 -16t17.5 -42q0 -20 -8.5 -37.5t-30.5 -40.5l-140 -146v-47h258v64l-156 -2l91 94q34 35 46.5 62.5t12.5 57.5z" />
    <glyph glyph-name="uni2083" unicode="&#x2083;" horiz-adv-x="337" 
d="M164 391q-49 0 -84.5 -21t-53.5 -57l60 -30q11 22 29 34t43 12q26 0 43 -14.5t17 -37.5q0 -22 -15 -36.5t-39 -14.5h-50v-60h56q27 0 43.5 -15.5t16.5 -37.5q0 -25 -18.5 -41.5t-49.5 -16.5q-27 0 -47.5 12.5t-33.5 35.5l-59 -33q18 -35 54.5 -56.5t88.5 -21.5
q60 0 99 34t39 83q0 32 -20 57.5t-51 36.5q26 11 42 32.5t16 49.5q0 45 -36 75.5t-90 30.5z" />
    <glyph glyph-name="uni2084" unicode="&#x2084;" horiz-adv-x="356" 
d="M211 0h72v94h45v61h-45v230h-95l-164 -236v-55h187v-94zM101 155l110 162v-162h-110z" />
    <glyph glyph-name="uni2085" unicode="&#x2085;" horiz-adv-x="335" 
d="M179 248q-22 0 -39.5 -6t-33.5 -22l3 101h166v64h-228l-9 -213l60 -9q13 13 27.5 19t34.5 6q33 0 51.5 -19t18.5 -46q0 -28 -20 -48t-51 -20q-26 0 -45 12.5t-30 35.5l-59 -33q17 -36 52.5 -57t86.5 -21q61 0 99.5 39.5t38.5 95.5q0 51 -34.5 86t-88.5 35z" />
    <glyph glyph-name="uni2086" unicode="&#x2086;" horiz-adv-x="351" 
d="M189 331q22 0 41.5 -10.5t33.5 -28.5l46 44q-22 27 -51.5 41.5t-69.5 14.5q-71 0 -112.5 -49.5t-41.5 -139.5v-28q0 -82 41 -131.5t109 -49.5q57 0 95 38.5t38 99.5q0 49 -35 86.5t-86 37.5q-25 0 -51.5 -14t-38.5 -45v15q0 60 24 89.5t58 29.5zM182 56q-30 0 -49.5 20
t-19.5 50q0 31 20 50.5t49 19.5t49 -19.5t20 -50.5t-20 -50.5t-49 -19.5z" />
    <glyph glyph-name="uni2087" unicode="&#x2087;" horiz-adv-x="326" 
d="M301 331v54h-276v-64h196l-169 -321h84z" />
    <glyph glyph-name="uni2088" unicode="&#x2088;" horiz-adv-x="351" 
d="M175 -8q60 0 100 32.5t40 83.5q0 33 -20.5 57t-53.5 34q28 11 44.5 33.5t16.5 51.5q0 46 -36.5 76.5t-90.5 30.5t-90 -30.5t-36 -76.5q0 -29 16.5 -51.5t44.5 -33.5q-33 -10 -53.5 -34t-20.5 -57q0 -51 39.5 -83.5t99.5 -32.5zM175 226q-23 0 -39.5 15t-16.5 37t16 37
t40 15q25 0 41 -15t16 -37t-16.5 -37t-40.5 -15zM175 169q28 0 47.5 -17t19.5 -42t-19 -40.5t-48 -15.5q-28 0 -47 15.5t-19 40.5t19 42t47 17z" />
    <glyph glyph-name="uni2089" unicode="&#x2089;" horiz-adv-x="351" 
d="M166 55q-22 0 -40 11.5t-31 33.5l-58 -34q20 -34 52 -53.5t78 -19.5q68 0 108 49.5t40 139.5v28q0 82 -40.5 131.5t-107.5 49.5q-57 0 -95.5 -38.5t-38.5 -99.5q0 -49 35 -86.5t86 -37.5q25 0 51.5 14t38.5 45v-15q0 -60 -23 -89t-55 -29zM170 329q29 0 48.5 -20
t19.5 -50q0 -31 -20 -50.5t-48 -19.5q-30 0 -49.5 19.5t-19.5 50.5t19.5 50.5t49.5 19.5z" />
    <glyph glyph-name="uni20A9" unicode="&#x20a9;" horiz-adv-x="986" 
d="M13 315v-68h128l69 -247h103l79 247h202l79 -247h103l69 247h128v68h-109l20 71h89v68h-71l69 246h-108l-61 -246h-183l-79 246h-91l-79 -246h-183l-60 246h-112l69 -246h-71v-68h89l20 -71h-109zM458 454l35 111l35 -111h-70zM222 315l-18 71h144l-23 -71h-103zM413 315
l23 71h114l23 -71h-160zM664 315l-23 71h144l-17 -71h-104zM238 247h65l-37 -114zM686 247h65l-28 -115z" />
    <glyph glyph-name="Euro" unicode="&#x20ac;" horiz-adv-x="725" 
d="M15 315v-68h102q7 -29 17.5 -55.5t24 -50t30.5 -44t37 -37.5t43 -30.5t48 -22.5t52 -14t56 -5q80 0 144 32t123 97l-81 64q-42 -50 -87.5 -74t-97.5 -24q-74 0 -127 44t-75 120h174l25 68h-211q-1 8 -1 16.5v17.5q0 10 0.5 19t1.5 18h235l26 68h-249q22 75 75 118.5
t125 43.5q55 0 101 -24.5t87 -73.5l80 64q-60 65 -123 97t-143 32q-29 0 -56.5 -4.5t-52.5 -14t-48 -22.5t-43 -30t-37 -37.5t-31 -44t-24.5 -49.5t-17.5 -55h-102v-68h91q-1 -9 -1 -18v-19v-17.5t1 -16.5h-91z" />
    <glyph glyph-name="uni20B9" unicode="&#x20b9;" horiz-adv-x="598" 
d="M501 0l-312 277h48q81 0 139.5 48t72.5 120h109v80h-109q-5 27 -17.5 51.5t-30.5 43.5h157v80h-511v-80h181q48 0 81 -26.5t44 -68.5h-307v-80h306q-11 -40 -44 -66t-80 -26h-181v-59l333 -294h121z" />
    <glyph glyph-name="trademark" unicode="&#x2122;" horiz-adv-x="671" 
d="M321 700v-279h54l-1 194l77 -194h40l78 196l-2 -196h55v279h-72l-78 -201l-80 201h-71zM27 700v-48h94v-231h58v231h96v48h-248z" />
    <glyph glyph-name="uni2190" unicode="&#x2190;" horiz-adv-x="1001" 
d="M91 350l272 -375h116l-239 325h681v100h-681l239 325h-116z" />
    <glyph glyph-name="uni2191" unicode="&#x2191;" horiz-adv-x="1000" 
d="M500 747l-375 -272v-115l325 238v-681h100v681l325 -238v115z" />
    <glyph glyph-name="uni2192" unicode="&#x2192;" horiz-adv-x="1001" 
d="M522 725l240 -327h-683v-96h683l-240 -327h112l274 375l-274 375h-112z" />
    <glyph glyph-name="uni2193" unicode="&#x2193;" horiz-adv-x="1000" 
d="M875 257l-327 -240v683h-96v-683l-327 240v-112l375 -274l375 274v112z" />
    <glyph glyph-name="minus" unicode="&#x2212;" horiz-adv-x="529" 
d="M481 402h-433v-76h433v76z" />
    <glyph glyph-name="approxequal" unicode="&#x2248;" horiz-adv-x="529" 
d="M151 433q12 0 24.5 -2t25 -5t25 -7.5t24.5 -9.5t24.5 -9.5l25 -9t25 -7.5t25 -5t24.5 -2q27 0 51.5 7.5t55.5 26.5v75q-30 -18 -53 -27t-49 -9q-13 0 -25 2t-24.5 5t-25 7.5t-25 9.5t-25 9.5l-25 9t-24.5 7.5t-24.5 5t-24.5 2q-27 0 -52 -7.5t-55 -26.5v-75
q29 18 52.5 27t49.5 9zM151 266q12 0 24.5 -2t25 -5t25 -7.5t24.5 -9t24.5 -9.5t25 -9.5t25 -7.5t25 -5t24.5 -2q27 0 51.5 7.5t55.5 26.5v75q-30 -17 -53 -26.5t-49 -9.5q-13 0 -25 2t-24.5 5t-25 7.5t-25 9.5t-25 9.5l-25 9t-24.5 7.5t-24.5 5t-24.5 2q-27 0 -52 -7.5
t-55 -25.5v-76q29 18 52.5 27t49.5 9z" />
    <glyph glyph-name="notequal" unicode="&#x2260;" horiz-adv-x="529" 
d="M45 121h91l86 115h259v73h-205l69 92h136v73h-82l86 115h-92l-86 -115h-259v-73h205l-68 -92h-137v-73h83z" />
    <glyph glyph-name="lessequal" unicode="&#x2264;" horiz-adv-x="541" 
d="M464 523v87l-412 -184v-78l412 -184v89l-315 135zM52 263v-85l412 -184v85z" />
    <glyph glyph-name="greaterequal" unicode="&#x2265;" horiz-adv-x="541" 
d="M56 521l315 -136l-315 -133v-88l412 184v78l-412 184v-89zM468 263l-412 -184v-85l412 184v85z" />
    <glyph glyph-name="uni25A0" unicode="&#x25a0;" horiz-adv-x="850" 
d="M775 700h-700v-700h700v700z" />
    <glyph glyph-name="uni25CF" unicode="&#x25cf;" horiz-adv-x="819" 
d="M769 351q0 30 -4.5 58t-13.5 55t-22 51.5t-29.5 47t-36 42t-42 36t-47 29.5t-51.5 22t-55 13.5t-58 4.5t-58.5 -4.5t-55 -13.5t-51.5 -22t-47.5 -29.5t-42 -36t-36 -42t-29.5 -47t-22 -51.5t-13.5 -55t-4.5 -58t4.5 -58.5t13.5 -55t22 -51.5t29.5 -47.5t36 -42t42 -36
t47.5 -29.5t51.5 -22t55 -13.5t58.5 -4.5t58 4.5t55 13.5t51.5 22t47 29.5t42 36t36 42t29.5 47.5t22 51.5t13.5 55t4.5 58.5z" />
    <glyph glyph-name="check" unicode="&#x2713;" horiz-adv-x="1002" 
d="M918 671l-542 -541l-292 291v-138l292 -291l542 541v138z" />
    <glyph glyph-name="close" unicode="&#x2715;" horiz-adv-x="1002" 
d="M871 649l-71 71l-298 -300l-298 300l-71 -71l300 -298l-300 -298l71 -71l298 300l298 -300l71 71l-300 298z" />
    <glyph glyph-name="fi" unicode="&#xfb01;" horiz-adv-x="530" 
d="M12 421h98v-421h101v421h169v-421h101v510h-270v85q0 20 10.5 31t29.5 11h158v88h-179q-57 0 -88.5 -32.5t-31.5 -80.5v-102h-98v-89z" />
    <glyph glyph-name="fl" unicode="&#xfb02;" horiz-adv-x="530" 
d="M12 421h98v-421h101v421h110v89h-110v85q0 20 10.5 31t29.5 11h129v-637h101v725h-251q-57 0 -88.5 -32.5t-31.5 -80.5v-102h-98v-89z" />
    <glyph glyph-name="Uber" horiz-adv-x="2119" 
d="M154 268v432h-105v-438q0 -31 5 -59t15 -53.5t24 -47t32 -39.5t39 -32t45 -23.5t50.5 -14.5t54.5 -5q54 0 102 20t83 57v-65h104v700h-105v-432q0 -83 -50 -134.5t-122 -51.5q-73 0 -122.5 51t-49.5 135zM681 0h100v64q34 -35 81.5 -55.5t100.5 -20.5q25 0 48.5 4.5
t45.5 12.5t42 19.5t37.5 26t32 32t26 37t20 41.5t12.5 45.5t4 47.5q0 25 -4 48.5t-12.5 45t-20 41.5t-26 37.5t-32 32t-37.5 26t-42 19.5t-45.5 12.5t-48.5 4.5q-53 0 -100 -20.5t-81 -55.5v255h-101v-700zM1271 255q0 -25 4 -49t12.5 -46t20 -41.5t26 -37t32.5 -32
t38 -25.5t42 -19t46 -12t50 -4q69 0 125.5 29t94.5 80l-73 54q-28 -38 -65.5 -56.5t-81.5 -18.5q-64 0 -111.5 41.5t-57.5 103.5h415v33q0 25 -4 49t-11.5 46t-18 41.5t-24.5 36.5t-30.5 31.5t-35 25.5t-40 19t-44 12t-47.5 4t-48.5 -4.5t-45 -12.5t-41 -19.5t-36.5 -26.5
t-31 -32.5t-25 -37t-19 -41t-12 -44.5t-4 -47zM2101 420v94h-35q-42 0 -72.5 -18t-49.5 -49v63h-100v-510h101v290q0 59 32.5 94.5t81.5 35.5h42zM1531 432q56 0 99 -36t56 -94h-311q13 58 56.5 94t99.5 36zM780 254q0 19 3.5 36t10.5 33t16.5 30.5t21.5 26.5t26 21.5
t29.5 16t33 10t35.5 3.5t35 -3.5t33 -10t30 -16t25.5 -21.5t21 -26.5t16.5 -30.5t10.5 -33t3.5 -36q0 -18 -3.5 -35.5t-10.5 -33.5t-16.5 -30t-21 -26t-25.5 -21.5t-30 -16.5t-33 -10.5t-35 -3.5t-35.5 3.5t-33.5 10.5t-30 16.5t-26 21.5t-21.5 26t-16 30t-10 33.5
t-3.5 35.5z" />
    <glyph glyph-name="idotaccent" horiz-adv-x="199" 
d="M100 581q25 0 42 18t17 43t-17 42.5t-42 17.5t-43 -17.5t-18 -42.5t18 -43t43 -18zM150 510h-101v-510h101v510z" />
    <glyph glyph-name="cordinal" horiz-adv-x="391" 
d="M109 519q0 47 33 80.5t79 33.5q30 0 54 -13.5t40 -35.5l61 45q-27 35 -65 56.5t-90 21.5q-21 0 -40.5 -3.5t-37 -11t-33.5 -17.5t-29 -22.5t-23.5 -27.5t-18 -32t-11.5 -35.5t-4 -38.5t4 -38.5t11.5 -35.5t18 -32t23.5 -28t29 -23.5t33.5 -17.5t37 -11t40.5 -4
q52 0 90 21.5t65 57.5l-61 44q-16 -22 -40 -35t-54 -13q-46 0 -79 33t-33 82z" />
    <glyph glyph-name="a.school" horiz-adv-x="629" 
d="M580 0v510h-101v-64q-34 35 -81 55t-99 20q-25 0 -48.5 -4.5t-45.5 -12.5t-42 -19.5t-37.5 -26t-32.5 -32t-26.5 -37.5t-19.5 -41.5t-12.5 -45t-4.5 -48.5q0 -24 4 -47.5t12.5 -45.5t20 -41.5t26 -37t32 -32t37.5 -26t42 -19.5t46 -12.5t49 -4.5q53 0 100 20.5t81 55.5
v-64h100zM481 254q0 -18 -3.5 -35.5t-10 -33.5t-16 -30t-21.5 -26t-26 -21.5t-29.5 -16.5t-33 -10.5t-35.5 -3.5t-35.5 3.5t-33 10.5t-29.5 16.5t-26 21.5t-21.5 26t-16 30t-10 33.5t-3.5 35.5q0 19 3.5 36t10 33t16 30.5t21.5 26.5t26 21.5t29.5 16t33 10t35.5 3.5
t35.5 -3.5t33 -10t29.5 -16t26 -21.5t21.5 -26.5t16 -30.5t10 -33t3.5 -36z" />
    <glyph glyph-name="aacute.school" horiz-adv-x="629" 
d="M580 0v510h-101v-64q-34 35 -81 55t-99 20q-25 0 -48.5 -4.5t-45.5 -12.5t-42 -19.5t-37.5 -26t-32.5 -32t-26.5 -37.5t-19.5 -41.5t-12.5 -45t-4.5 -48.5q0 -24 4 -47.5t12.5 -45.5t20 -41.5t26 -37t32 -32t37.5 -26t42 -19.5t46 -12.5t49 -4.5q53 0 100 20.5t81 55.5
v-64h100zM481 254q0 -18 -3.5 -35.5t-10 -33.5t-16 -30t-21.5 -26t-26 -21.5t-29.5 -16.5t-33 -10.5t-35.5 -3.5t-35.5 3.5t-33 10.5t-29.5 16.5t-26 21.5t-21.5 26t-16 30t-10 33.5t-3.5 35.5q0 19 3.5 36t10 33t16 30.5t21.5 26.5t26 21.5t29.5 16t33 10t35.5 3.5
t35.5 -3.5t33 -10t29.5 -16t26 -21.5t21.5 -26.5t16 -30.5t10 -33t3.5 -36zM344 706l-107 -125h99l124 125h-116z" />
    <glyph glyph-name="abreve.school" horiz-adv-x="629" 
d="M580 0v510h-101v-64q-34 35 -81 55t-99 20q-25 0 -48.5 -4.5t-45.5 -12.5t-42 -19.5t-37.5 -26t-32.5 -32t-26.5 -37.5t-19.5 -41.5t-12.5 -45t-4.5 -48.5q0 -24 4 -47.5t12.5 -45.5t20 -41.5t26 -37t32 -32t37.5 -26t42 -19.5t46 -12.5t49 -4.5q53 0 100 20.5t81 55.5
v-64h100zM481 254q0 -18 -3.5 -35.5t-10 -33.5t-16 -30t-21.5 -26t-26 -21.5t-29.5 -16.5t-33 -10.5t-35.5 -3.5t-35.5 3.5t-33 10.5t-29.5 16.5t-26 21.5t-21.5 26t-16 30t-10 33.5t-3.5 35.5q0 19 3.5 36t10 33t16 30.5t21.5 26.5t26 21.5t29.5 16t33 10t35.5 3.5
t35.5 -3.5t33 -10t29.5 -16t26 -21.5t21.5 -26.5t16 -30.5t10 -33t3.5 -36zM309 641q-26 0 -50.5 14.5t-37.5 57.5l-69 -21q15 -56 59 -86.5t98 -30.5t98 30.5t59 86.5l-69 21q-13 -43 -38 -57.5t-50 -14.5z" />
    <glyph glyph-name="acircumflex.school" horiz-adv-x="629" 
d="M580 0v510h-101v-64q-34 35 -81 55t-99 20q-25 0 -48.5 -4.5t-45.5 -12.5t-42 -19.5t-37.5 -26t-32.5 -32t-26.5 -37.5t-19.5 -41.5t-12.5 -45t-4.5 -48.5q0 -24 4 -47.5t12.5 -45.5t20 -41.5t26 -37t32 -32t37.5 -26t42 -19.5t46 -12.5t49 -4.5q53 0 100 20.5t81 55.5
v-64h100zM481 254q0 -18 -3.5 -35.5t-10 -33.5t-16 -30t-21.5 -26t-26 -21.5t-29.5 -16.5t-33 -10.5t-35.5 -3.5t-35.5 3.5t-33 10.5t-29.5 16.5t-26 21.5t-21.5 26t-16 30t-10 33.5t-3.5 35.5q0 19 3.5 36t10 33t16 30.5t21.5 26.5t26 21.5t29.5 16t33 10t35.5 3.5
t35.5 -3.5t33 -10t29.5 -16t26 -21.5t21.5 -26.5t16 -30.5t10 -33t3.5 -36zM236 581l73 74l73 -74h89l-111 125h-102l-111 -125h89z" />
    <glyph glyph-name="adieresis.school" horiz-adv-x="629" 
d="M580 0v510h-101v-64q-34 35 -81 55t-99 20q-25 0 -48.5 -4.5t-45.5 -12.5t-42 -19.5t-37.5 -26t-32.5 -32t-26.5 -37.5t-19.5 -41.5t-12.5 -45t-4.5 -48.5q0 -24 4 -47.5t12.5 -45.5t20 -41.5t26 -37t32 -32t37.5 -26t42 -19.5t46 -12.5t49 -4.5q53 0 100 20.5t81 55.5
v-64h100zM481 254q0 -18 -3.5 -35.5t-10 -33.5t-16 -30t-21.5 -26t-26 -21.5t-29.5 -16.5t-33 -10.5t-35.5 -3.5t-35.5 3.5t-33 10.5t-29.5 16.5t-26 21.5t-21.5 26t-16 30t-10 33.5t-3.5 35.5q0 19 3.5 36t10 33t16 30.5t21.5 26.5t26 21.5t29.5 16t33 10t35.5 3.5
t35.5 -3.5t33 -10t29.5 -16t26 -21.5t21.5 -26.5t16 -30.5t10 -33t3.5 -36zM216 583q25 0 42 17.5t17 42.5t-17 42t-42 17q-24 0 -41.5 -17t-17.5 -42t17.5 -42.5t41.5 -17.5zM403 583q25 0 41.5 17.5t16.5 42.5t-16.5 42t-41.5 17t-42 -17t-17 -42t17 -42.5t42 -17.5z" />
    <glyph glyph-name="agrave.school" horiz-adv-x="629" 
d="M580 0v510h-101v-64q-34 35 -81 55t-99 20q-25 0 -48.5 -4.5t-45.5 -12.5t-42 -19.5t-37.5 -26t-32.5 -32t-26.5 -37.5t-19.5 -41.5t-12.5 -45t-4.5 -48.5q0 -24 4 -47.5t12.5 -45.5t20 -41.5t26 -37t32 -32t37.5 -26t42 -19.5t46 -12.5t49 -4.5q53 0 100 20.5t81 55.5
v-64h100zM481 254q0 -18 -3.5 -35.5t-10 -33.5t-16 -30t-21.5 -26t-26 -21.5t-29.5 -16.5t-33 -10.5t-35.5 -3.5t-35.5 3.5t-33 10.5t-29.5 16.5t-26 21.5t-21.5 26t-16 30t-10 33.5t-3.5 35.5q0 19 3.5 36t10 33t16 30.5t21.5 26.5t26 21.5t29.5 16t33 10t35.5 3.5
t35.5 -3.5t33 -10t29.5 -16t26 -21.5t21.5 -26.5t16 -30.5t10 -33t3.5 -36zM273 706h-116l124 -125h100z" />
    <glyph glyph-name="amacron.school" horiz-adv-x="629" 
d="M580 0v510h-101v-64q-34 35 -81 55t-99 20q-25 0 -48.5 -4.5t-45.5 -12.5t-42 -19.5t-37.5 -26t-32.5 -32t-26.5 -37.5t-19.5 -41.5t-12.5 -45t-4.5 -48.5q0 -24 4 -47.5t12.5 -45.5t20 -41.5t26 -37t32 -32t37.5 -26t42 -19.5t46 -12.5t49 -4.5q53 0 100 20.5t81 55.5
v-64h100zM481 254q0 -18 -3.5 -35.5t-10 -33.5t-16 -30t-21.5 -26t-26 -21.5t-29.5 -16.5t-33 -10.5t-35.5 -3.5t-35.5 3.5t-33 10.5t-29.5 16.5t-26 21.5t-21.5 26t-16 30t-10 33.5t-3.5 35.5q0 19 3.5 36t10 33t16 30.5t21.5 26.5t26 21.5t29.5 16t33 10t35.5 3.5
t35.5 -3.5t33 -10t29.5 -16t26 -21.5t21.5 -26.5t16 -30.5t10 -33t3.5 -36zM439 676h-260v-69h260v69z" />
    <glyph glyph-name="aogonek.school" horiz-adv-x="629" 
d="M580 0v510h-101v-64q-34 35 -81 55t-99 20q-25 0 -48.5 -4.5t-45.5 -12.5t-42 -19.5t-37.5 -26t-32.5 -32t-26.5 -37.5t-19.5 -41.5t-12.5 -45t-4.5 -48.5q0 -24 4 -47.5t12.5 -45.5t20 -41.5t26 -37t32 -32t37.5 -26t42 -19.5t46 -12.5t49 -4.5q53 0 100 20.5t81 55.5
v-64h34q-46 -37 -62 -69t-16 -64q0 -37 25.5 -62.5t75.5 -25.5q16 0 31.5 3t28.5 8l-11 54q-9 -4 -18.5 -5.5t-19.5 -1.5q-22 0 -34.5 12.5t-12.5 34.5t14.5 50.5t64.5 65.5zM481 254q0 -18 -3.5 -35.5t-10 -33.5t-16 -30t-21.5 -26t-26 -21.5t-29.5 -16.5t-33 -10.5
t-35.5 -3.5t-35.5 3.5t-33 10.5t-29.5 16.5t-26 21.5t-21.5 26t-16 30t-10 33.5t-3.5 35.5q0 19 3.5 36t10 33t16 30.5t21.5 26.5t26 21.5t29.5 16t33 10t35.5 3.5t35.5 -3.5t33 -10t29.5 -16t26 -21.5t21.5 -26.5t16 -30.5t10 -33t3.5 -36z" />
    <glyph glyph-name="aring.school" horiz-adv-x="629" 
d="M580 0v510h-101v-64q-34 35 -81 55t-99 20q-25 0 -48.5 -4.5t-45.5 -12.5t-42 -19.5t-37.5 -26t-32.5 -32t-26.5 -37.5t-19.5 -41.5t-12.5 -45t-4.5 -48.5q0 -24 4 -47.5t12.5 -45.5t20 -41.5t26 -37t32 -32t37.5 -26t42 -19.5t46 -12.5t49 -4.5q53 0 100 20.5t81 55.5
v-64h100zM481 254q0 -18 -3.5 -35.5t-10 -33.5t-16 -30t-21.5 -26t-26 -21.5t-29.5 -16.5t-33 -10.5t-35.5 -3.5t-35.5 3.5t-33 10.5t-29.5 16.5t-26 21.5t-21.5 26t-16 30t-10 33.5t-3.5 35.5q0 19 3.5 36t10 33t16 30.5t21.5 26.5t26 21.5t29.5 16t33 10t35.5 3.5
t35.5 -3.5t33 -10t29.5 -16t26 -21.5t21.5 -26.5t16 -30.5t10 -33t3.5 -36zM309 564q46 0 77.5 32t31.5 76q0 43 -31.5 74.5t-77.5 31.5t-77.5 -31.5t-31.5 -74.5q0 -45 31.5 -76.5t77.5 -31.5zM309 613q-25 0 -42 17t-17 42q0 23 17 40t42 17t42 -17t17 -40q0 -25 -17 -42
t-42 -17z" />
    <glyph glyph-name="atilde.school" horiz-adv-x="629" 
d="M580 0v510h-101v-64q-34 35 -81 55t-99 20q-25 0 -48.5 -4.5t-45.5 -12.5t-42 -19.5t-37.5 -26t-32.5 -32t-26.5 -37.5t-19.5 -41.5t-12.5 -45t-4.5 -48.5q0 -24 4 -47.5t12.5 -45.5t20 -41.5t26 -37t32 -32t37.5 -26t42 -19.5t46 -12.5t49 -4.5q53 0 100 20.5t81 55.5
v-64h100zM481 254q0 -18 -3.5 -35.5t-10 -33.5t-16 -30t-21.5 -26t-26 -21.5t-29.5 -16.5t-33 -10.5t-35.5 -3.5t-35.5 3.5t-33 10.5t-29.5 16.5t-26 21.5t-21.5 26t-16 30t-10 33.5t-3.5 35.5q0 19 3.5 36t10 33t16 30.5t21.5 26.5t26 21.5t29.5 16t33 10t35.5 3.5
t35.5 -3.5t33 -10t29.5 -16t26 -21.5t21.5 -26.5t16 -30.5t10 -33t3.5 -36zM244 701q-35 0 -60 -26t-38 -79l66 -14q8 30 17.5 40.5t21.5 10.5q5 0 10.5 -1.5t11.5 -4.5t12.5 -6.5t13.5 -7.5t14.5 -8t15 -7.5t15.5 -6.5t15.5 -4.5t14.5 -1.5q35 0 60 26t38 78l-65 15
q-8 -30 -18 -40.5t-22 -10.5q-5 0 -10.5 1.5t-11.5 4.5t-12.5 6.5t-13.5 7.5t-14.5 8t-15 7.5t-15.5 6.5t-15.5 4.5t-14.5 1.5z" />
    <glyph glyph-name="caronSlovak" horiz-adv-x="177" 
d="M31 498h76l41 202h-98z" />
    <glyph glyph-name="uni00200326" horiz-adv-x="232" 
d="M58 -213v-40q49 4 79 38.5t30 78.5q0 35 -16.5 55.5t-42.5 20.5q-19 0 -33.5 -14t-14.5 -33q0 -7 1.5 -13t4.5 -10.5t7 -8t8.5 -6.5t8.5 -5.5l8 -5t7 -5t4.5 -5.5t1.5 -6q0 -13 -15.5 -25.5t-37.5 -15.5z" />
    <glyph glyph-name="colon.alt" horiz-adv-x="195" 
d="M98 553q-25 0 -44 -18t-19 -43q0 -26 19 -44t44 -18t43 18t18 44q0 25 -18 43t-43 18zM98 235q-25 0 -44 -18.5t-19 -43.5t19 -43.5t44 -18.5t43 18.5t18 43.5t-18 43.5t-43 18.5z" />
    <glyph glyph-name="reversequoteleft" horiz-adv-x="195" 
d="M157 528q-26 4 -43.5 23.5t-17.5 38.5q0 4 1.5 7t4.5 5.5t7 5t8.5 5.5t9.5 6t9.5 6.5t8.5 7.5t7 9.5t4.5 12t1.5 14.5q0 24 -17.5 41t-40.5 17q-32 0 -51.5 -24.5t-19.5 -67.5q0 -58 35 -102t93 -54v49z" />
    <glyph glyph-name="reversequotedblleft" horiz-adv-x="361" 
d="M157 528q-26 4 -43.5 23.5t-17.5 38.5q0 4 1.5 7t4.5 5.5t7 5t8.5 5.5t9.5 6t9.5 6.5t8.5 7.5t7 9.5t4.5 12t1.5 14.5q0 24 -17.5 41t-40.5 17q-32 0 -51.5 -24.5t-19.5 -67.5q0 -58 35 -102t93 -54v49zM323 528q-26 4 -43.5 23.5t-17.5 38.5q0 4 1.5 7t4.5 5.5t7 5
t8.5 5.5t9.5 6t9.5 6.5t8.5 7.5t7 9.5t4.5 12t1.5 14.5q0 24 -17.5 41t-40.5 17q-32 0 -51.5 -24.5t-19.5 -67.5q0 -58 35 -102t93 -54v49z" />
    <glyph glyph-name="at.cap" horiz-adv-x="811" 
d="M392 169q39 0 72.5 16.5t56.5 44.5q15 -26 41.5 -39.5t63.5 -13.5q14 0 28 3t27.5 9.5t25.5 16t22 21.5t18.5 27t14.5 33t9 38.5t3 43.5q0 29 -4.5 57t-13 53.5t-21 49.5t-29 45t-36 39.5t-42 34t-47.5 27.5t-53 20t-58 12.5t-62 4.5q-30 0 -59.5 -4.5t-56.5 -13.5
t-52.5 -22t-48 -29.5t-42.5 -36t-36.5 -42t-29.5 -47.5t-22.5 -52t-14 -56t-4.5 -59t4.5 -59t13.5 -56t22 -52t29.5 -47.5t36.5 -42t42.5 -36t47.5 -29.5t52 -22t56.5 -13.5t59.5 -4.5q70 0 132.5 23t110.5 64l-41 43q-40 -35 -93 -54.5t-113 -19.5q-25 0 -49 4t-46 11.5
t-43 18.5t-39.5 24.5t-34.5 30t-29.5 35.5t-24 40.5t-17.5 44t-11 47t-4 50.5t4 50t11 47t18 44t24.5 40t29.5 35.5t34.5 30.5t39.5 25t43.5 18.5t46.5 11.5t49 4q30 0 58.5 -4.5t54 -13t48 -20.5t42.5 -27.5t36 -34.5t29 -40.5t21.5 -45t13 -49.5t4.5 -54
q0 -57 -21.5 -93.5t-55.5 -36.5q-27 0 -41 15.5t-14 37.5v221h-77v-34q-22 19 -50.5 30.5t-59.5 11.5q-73 0 -124.5 -51.5t-51.5 -124.5q0 -18 3.5 -35t10 -32.5t16 -29.5t21.5 -26t26 -21.5t30 -16t33.5 -10t35.5 -3.5zM398 238q-43 0 -74 31t-31 74q0 45 31 75.5t74 30.5
t74 -30.5t31 -75.5q0 -43 -31 -74t-74 -31z" />
    <glyph glyph-name="dollar.alt" horiz-adv-x="569" 
d="M212 321l116 -33q49 -14 73.5 -38t24.5 -58q0 -43 -32.5 -70t-92.5 -27q-68 0 -110 34t-51 93h-99q7 -81 63.5 -135t142.5 -68v-83h76v80q95 5 149 57t54 127q0 69 -41.5 113.5t-126.5 68.5l-118 33q-46 14 -70.5 36t-24.5 57q0 44 34.5 70.5t85.5 26.5q63 0 103 -33.5
t50 -90.5h99q-10 78 -62 131.5t-132 68.5v82h-76v-78q-87 -5 -144 -55t-57 -128q0 -68 41.5 -113t124.5 -68z" />
    <glyph glyph-name="NTD" horiz-adv-x="1699" 
d="M1367 295l31 -8v-191q-41 10 -66 38.5t-31 69.5h-91q7 -75 58.5 -125t129.5 -63v-75h70v72q88 4 139 52.5t51 119.5q0 63 -39 103.5t-118 62.5l-33 9v187q36 -10 58.5 -37.5t30.5 -66.5h91q-10 72 -58 122t-122 63v74h-70v-71q-79 -4 -132.5 -50.5t-53.5 -118.5
q0 -63 39 -104t116 -63zM143 0l-1 511l358 -511h107v644h-90v-510l-357 510h-107v-644h90zM664 559h201v-559h97v559h201v85h-499v-85zM1393 377q-44 13 -67 34.5t-23 55.5q0 37 26.5 60t68.5 27v-179zM1477 269q46 -14 68.5 -36.5t22.5 -54.5q0 -36 -25.5 -60t-74.5 -28
v181z" />
    <glyph glyph-name=".ttfautohint" horiz-adv-x="850" 
d="M0 0z" />
    </font>
</defs>
</svg>
