<?xml version="1.0" standalone="no"?>
<!DOCTYPE svg PUBLIC "-//W3C//DTD SVG 1.1//EN" "http://www.w3.org/Graphics/SVG/1.1/DTD/svg11.dtd" >
<svg xmlns="http://www.w3.org/2000/svg" xmlns:xlink="http://www.w3.org/1999/xlink" version="1.1">
<metadata>
Created by FontForge 20201107 at Tue Mar 22 23:55:24 2022
 By 
(c) 2018 Uber Technologies, Inc. All rights reserved.
</metadata>
<defs>
<font id="UberMove-Light" horiz-adv-x="503" >
  <font-face 
    font-family="Uber Move Light"
    font-weight="300"
    font-stretch="normal"
    units-per-em="1000"
    panose-1="2 1 3 3 3 2 1 6 3 3"
    ascent="800"
    descent="-200"
    x-height="495"
    cap-height="700"
    bbox="-72 -226 2101 958"
    underline-thickness="50"
    underline-position="-125"
    unicode-range="U+000D-FB02"
  />
<missing-glyph horiz-adv-x="514" 
d="M60 -100h394v850h-394v-850z" />
    <glyph glyph-name=".notdef" horiz-adv-x="514" 
d="M60 -100h394v850h-394v-850z" />
    <glyph glyph-name="uni0000" horiz-adv-x="200" 
 />
    <glyph glyph-name="uni0000" horiz-adv-x="200" 
 />
    <glyph glyph-name="uni000D" unicode="&#xd;" horiz-adv-x="200" 
 />
    <glyph glyph-name="space" unicode=" " horiz-adv-x="200" 
 />
    <glyph glyph-name="exclam" unicode="!" horiz-adv-x="146" 
d="M95 178l2 522h-48l3 -522h43zM74 64q-15 0 -25.5 -11.5t-10.5 -25.5q0 -16 10.5 -26.5t25.5 -10.5q14 0 25 10.5t11 26.5q0 14 -11 25.5t-25 11.5z" />
    <glyph glyph-name="quotedbl" unicode="&#x22;" horiz-adv-x="258" 
d="M58 560h38l4 172h-46zM162 560h38l4 172h-46z" />
    <glyph glyph-name="numbersign" unicode="#" horiz-adv-x="627" 
d="M77 0h46l66 230h182l-66 -230h45l66 230h136v39h-125l46 162h129v39h-118l66 230h-45l-66 -230h-182l66 230h-46l-66 -230h-136v-39h125l-46 -162h-129v-39h118zM200 269l46 162h182l-46 -162h-182z" />
    <glyph glyph-name="dollar" unicode="$" horiz-adv-x="525" 
d="M194 348l44 -14v-273q-61 10 -101 50.5t-51 103.5h-47q10 -81 64 -133t135 -62v-83h45v80q86 0 141 48t55 129q0 60 -40.5 100t-114.5 63l-41 13v269q57 -10 93.5 -50t45.5 -104h46q-8 81 -58 133t-127 64v78h-45v-75q-84 0 -139.5 -47t-55.5 -126q0 -57 39 -99t112 -65z
M213 391q-63 20 -93.5 50.5t-30.5 76.5q0 53 42.5 88.5t106.5 36.5v-260zM300 317q70 -21 101 -51.5t31 -79.5q0 -56 -40 -91t-109 -37v264z" />
    <glyph glyph-name="percent" unicode="%" horiz-adv-x="795" 
d="M218 376q69 0 117 49.5t48 119.5q0 17 -3.5 33t-9.5 30.5t-14.5 28t-20 24.5t-24.5 20t-28 15.5t-31.5 10t-33.5 3.5q-18 0 -34.5 -3.5t-31.5 -10t-28.5 -15.5t-24.5 -20t-20 -24.5t-15 -28t-9.5 -30.5t-3.5 -33q0 -70 49 -119.5t118 -49.5zM227 0l387 700h-46l-387 -700
h46zM218 416q-53 0 -88.5 39t-35.5 91q0 51 36.5 87.5t87.5 36.5q49 0 85 -36.5t36 -87.5q0 -52 -36 -91t-85 -39zM577 324q-69 0 -117 -49.5t-48 -119.5q0 -17 3.5 -33t9.5 -30.5t14.5 -28t20 -24.5t24.5 -20t28 -15.5t31.5 -10t33.5 -3.5q18 0 35 3.5t32 10t28.5 15.5
t24.5 20t20 24.5t15 28t9.5 30.5t3.5 33q0 70 -49 119.5t-119 49.5zM577 284q54 0 89 -39t35 -91q0 -51 -36.5 -87.5t-87.5 -36.5q-49 0 -85 36.5t-36 87.5q0 52 36 91t85 39z" />
    <glyph glyph-name="ampersand" unicode="&#x26;" horiz-adv-x="621" 
d="M487 50q25 -29 46 -39.5t55 -10.5h28v42h-26q-19 0 -35.5 9.5t-33.5 29.5l-49 56q10 14 19.5 29.5t19.5 31.5l91 152l-40 22l-90 -152q-7 -13 -15 -25t-15 -23l-173 201l53 33q53 33 77 68.5t24 84.5q0 63 -44.5 104.5t-112.5 41.5q-66 0 -109.5 -42.5t-43.5 -107.5
q0 -40 16 -74.5t57 -81.5l15 -17l-59 -35q-57 -34 -84 -76.5t-27 -96.5q0 -19 4 -37t11.5 -34.5t18.5 -31t24.5 -27t29.5 -22t34.5 -16.5t38.5 -10.5t42 -3.5q66 0 114.5 23.5t95.5 83.5zM219 431q-31 36 -45.5 65t-14.5 59q0 49 30 78.5t79 29.5q46 0 77.5 -30.5
t31.5 -76.5q0 -33 -19 -62t-56 -51l-62 -37zM77 174q0 40 21 73t58 57l73 45l186 -216q-43 -56 -84 -77.5t-97 -21.5q-66 0 -111.5 40t-45.5 100z" />
    <glyph glyph-name="quotesingle" unicode="'" horiz-adv-x="155" 
d="M58 560h38l4 172h-46z" />
    <glyph glyph-name="parenleft" unicode="(" horiz-adv-x="343" 
d="M104 332q0 143 56.5 254.5t161.5 177.5l-25 37q-113 -73 -177 -192.5t-64 -276.5t64 -276.5t177 -192.5l26 37q-105 67 -162 178t-57 254z" />
    <glyph glyph-name="parenright" unicode=")" horiz-adv-x="343" 
d="M240 332q0 -143 -56.5 -254.5t-161.5 -177.5l25 -37q113 73 177 192.5t64 276.5t-64 276.5t-177 192.5l-26 -37q105 -67 162 -178t57 -254z" />
    <glyph glyph-name="asterisk" unicode="*" horiz-adv-x="414" 
d="M346 418l20 32l-124 76l124 75l-20 31l-121 -74l1 142h-38l1 -142l-121 74l-20 -31l124 -75l-124 -76l20 -32l121 75l-1 -142h38l-1 142z" />
    <glyph glyph-name="plus" unicode="+" horiz-adv-x="504" 
d="M273 152v185h177v42h-177v180h-43v-180h-177v-42h177v-185h43z" />
    <glyph glyph-name="comma" unicode="," horiz-adv-x="146" 
d="M30 -79v-26q40 5 62 37t22 74q0 25 -11 40t-30 15q-12 0 -22.5 -9.5t-10.5 -22.5q0 -6 1.5 -10.5t4.5 -8t6.5 -6.5t7.5 -5.5t7.5 -4.5t6.5 -4.5t4.5 -5t1.5 -6.5q0 -17 -14.5 -35t-35.5 -22z" />
    <glyph glyph-name="hyphen" unicode="-" horiz-adv-x="391" 
d="M40 277h311v43h-311v-43z" />
    <glyph glyph-name="period" unicode="." horiz-adv-x="146" 
d="M74 63q-14 0 -25 -11t-11 -25q0 -16 11 -26.5t25 -10.5t24.5 10.5t10.5 26.5q0 14 -10.5 25t-24.5 11z" />
    <glyph glyph-name="slash" unicode="/" horiz-adv-x="364" 
d="M55 0l304 700h-49l-304 -700h49z" />
    <glyph glyph-name="zero" unicode="0" horiz-adv-x="622" 
d="M55 275q0 -128 70.5 -205.5t185.5 -77.5q114 0 184.5 77.5t70.5 205.5v151q0 128 -70.5 205.5t-184.5 77.5q-116 0 -186 -77.5t-70 -205.5v-151zM520 277q0 -111 -57 -177t-152 -66q-96 0 -153 66t-57 177v147q0 111 57 177t153 66q95 0 152 -66t57 -177v-147z" />
    <glyph glyph-name="one" unicode="1" horiz-adv-x="414" 
d="M379 43h-147v657h-192v-43h146v-614h-145v-43h338v43z" />
    <glyph glyph-name="two" unicode="2" horiz-adv-x="495" 
d="M452 513q0 18 -3.5 35t-10 33t-16 30.5t-21.5 27.5t-26 24t-30.5 19.5t-34.5 14.5t-37 9t-40 3q-66 0 -121 -28.5t-89 -76.5l38 -25q28 40 74 64t98 24q72 0 122.5 -44.5t50.5 -109.5q1 -61 -29 -106t-77 -94l-271 -281v-32h435v43h-370l245 251q50 51 82 100.5t31 118.5
z" />
    <glyph glyph-name="three" unicode="3" horiz-adv-x="512" 
d="M227 708q-65 0 -120 -28.5t-89 -76.5l37 -25q28 40 74 64t99 24q69 0 118.5 -43t49.5 -105q0 -56 -40.5 -96t-97.5 -40h-72v-43h82q63 0 108 -43.5t45 -108.5t-50.5 -109.5t-122.5 -44.5q-60 0 -113 25.5t-84 70.5l-37 -27q36 -51 99 -81t135 -30q20 0 39.5 3t37.5 9
t34.5 14.5t30.5 19.5t26 24t21.5 27.5t16 30.5t10 33t3.5 35q0 62 -36 110t-93 66q46 18 75 60.5t29 94.5q0 20 -4 38.5t-12.5 35.5t-20 32t-26 28t-31.5 23.5t-36.5 17.5t-40.5 11t-44 4z" />
    <glyph glyph-name="four" unicode="4" horiz-adv-x="555" 
d="M384 0h46v192h106v42h-106v466h-58l-359 -474v-34h371v-192zM71 233l313 415v-414z" />
    <glyph glyph-name="five" unicode="5" horiz-adv-x="536" 
d="M258 431q-42 0 -78 -11.5t-67 -32.5l11 270h324v43h-364l-17 -363l36 -5q28 26 66.5 41.5t90.5 15.5q81 0 134.5 -51.5t53.5 -125.5q0 -19 -3.5 -36.5t-10.5 -34t-16.5 -30.5t-22 -26.5t-27.5 -22t-32 -16.5t-36 -10.5t-40 -3.5q-59 0 -111 25.5t-83 70.5l-37 -27
q37 -52 98.5 -81.5t132.5 -29.5q22 0 43 3.5t40.5 10t37 16.5t32.5 22t27.5 26.5t22.5 30.5t17 34.5t10.5 37.5t3.5 40q0 24 -4.5 46t-13 41.5t-21 37t-28 32.5t-34.5 26.5t-40.5 19.5t-45 12.5t-49.5 4.5z" />
    <glyph glyph-name="six" unicode="6" horiz-adv-x="586" 
d="M312 -10q22 0 42 3.5t39 10.5t36 17t32 22.5t27.5 27.5t22.5 32t17 36t10.5 39t3.5 42q0 24 -4.5 46t-13 42t-20.5 37.5t-27.5 32.5t-34 26.5t-39.5 19.5t-43.5 12.5t-47.5 4.5q-82 0 -142 -51t-73 -132q-2 19 -3.5 38.5t-0.5 40.5q0 160 60.5 245t159.5 85q45 0 91 -24
t74 -63l38 25q-37 48 -91 76.5t-112 28.5q-30 0 -57 -6.5t-51.5 -19.5t-45 -31.5t-38 -42.5t-30.5 -52.5t-22.5 -61.5t-14 -70t-4.5 -77v-13q0 -34 4 -65.5t11.5 -60.5t18 -54.5t24.5 -47.5t31 -40.5t36.5 -33t41 -24.5t45.5 -15t50 -5zM311 34q-19 0 -37.5 3.5t-35 10.5
t-31.5 16.5t-27.5 22t-22.5 27t-17 31t-10.5 34.5t-3.5 37t3.5 37.5t10.5 35t17 31t22.5 26.5t27.5 22t31.5 17t35 10.5t37.5 3.5t37.5 -3.5t35 -10.5t31.5 -17t27.5 -22t22.5 -26.5t17 -31t10.5 -35t3.5 -37.5t-3.5 -37t-10.5 -34.5t-17 -31t-22.5 -27t-27.5 -22
t-31.5 -16.5t-35 -10.5t-37.5 -3.5z" />
    <glyph glyph-name="seven" unicode="7" horiz-adv-x="495" 
d="M484 666v34h-472v-43h419l-373 -657h52z" />
    <glyph glyph-name="eight" unicode="8" horiz-adv-x="548" 
d="M503 183q0 63 -36.5 111.5t-98.5 68.5q50 20 79.5 63t29.5 96q0 81 -57.5 134t-145.5 53t-145.5 -53t-57.5 -134q0 -53 30 -96t80 -63q-63 -20 -99.5 -68.5t-36.5 -111.5q0 -21 4.5 -40t13 -36.5t20.5 -32.5t27.5 -28t33.5 -23t39 -17t43.5 -10.5t47.5 -3.5t47.5 3.5
t43.5 10.5t39 17t33.5 23t27.5 28t20.5 32.5t13 36.5t4.5 40zM274 668q69 0 113.5 -40t44.5 -103t-44.5 -103t-113.5 -40t-113.5 40t-44.5 103t44.5 103t113.5 40zM274 340q80 0 131.5 -43.5t51.5 -110.5t-51.5 -110t-131.5 -43t-131.5 43t-51.5 110t51.5 110.5t131.5 43.5z
" />
    <glyph glyph-name="nine" unicode="9" horiz-adv-x="586" 
d="M274 710q-21 0 -41.5 -3.5t-39.5 -10.5t-36 -17t-32 -22.5t-27.5 -27.5t-22.5 -32t-17 -36t-10.5 -39t-3.5 -42q0 -24 4.5 -46t13 -42t20.5 -37.5t27.5 -32.5t34 -26.5t39.5 -19.5t43.5 -12.5t47.5 -4.5q82 0 142 51t73 132q2 -19 3.5 -38.5t0.5 -40.5q0 -160 -60.5 -245
t-159.5 -85q-45 0 -91 24t-74 63l-38 -25q37 -48 91 -76.5t112 -28.5q30 0 57 6.5t51.5 19.5t45 31.5t38 42.5t30.5 52.5t22.5 61.5t14 70t4.5 77v13q0 34 -4 65.5t-11.5 60.5t-18 54.5t-24.5 47.5t-31 40.5t-36.5 33t-41 24.5t-45.5 15t-50 5zM275 666q19 0 37.5 -3.5
t35 -10.5t31.5 -16.5t27.5 -22t22.5 -27t17 -31t10.5 -34.5t3.5 -37t-3.5 -37.5t-10.5 -35t-17 -31t-22.5 -26.5t-27.5 -22t-31.5 -17t-35 -10.5t-37.5 -3.5t-37.5 3.5t-35 10.5t-31.5 17t-27.5 22t-22.5 26.5t-17 31t-10.5 35t-3.5 37.5t3.5 37t10.5 34.5t17 31t22.5 27
t27.5 22t31.5 16.5t35 10.5t37.5 3.5z" />
    <glyph glyph-name="colon" unicode=":" horiz-adv-x="146" 
d="M74 63q-14 0 -25 -11t-11 -25q0 -16 11 -26.5t25 -10.5t24.5 10.5t10.5 26.5q0 14 -10.5 25t-24.5 11zM74 509q-14 0 -25 -11t-11 -25q0 -16 11 -26.5t25 -10.5t24.5 10.5t10.5 26.5q0 14 -10.5 25t-24.5 11z" />
    <glyph glyph-name="semicolon" unicode=";" horiz-adv-x="146" 
d="M30 -79v-26q40 5 62 37t22 74q0 25 -11 40t-30 15q-12 0 -22.5 -9.5t-10.5 -22.5q0 -6 1.5 -10.5t4.5 -8t6.5 -6.5t7.5 -5.5t7.5 -4.5t6.5 -4.5t4.5 -5t1.5 -6.5q0 -17 -14.5 -35t-35.5 -22zM74 509q-14 0 -25 -11t-11 -25q0 -16 11 -26.5t25 -10.5t24.5 10.5t10.5 26.5
q0 14 -10.5 25t-24.5 11z" />
    <glyph glyph-name="less" unicode="&#x3c;" horiz-adv-x="362" 
d="M320 495h-56l-232 -247l232 -248h58l-230 249z" />
    <glyph glyph-name="equal" unicode="=" horiz-adv-x="504" 
d="M450 452h-397v-40h397v40zM450 303h-397v-41h397v41z" />
    <glyph glyph-name="greater" unicode="&#x3e;" horiz-adv-x="362" 
d="M44 0h55l232 247l-232 248h-58l230 -249z" />
    <glyph glyph-name="question" unicode="?" horiz-adv-x="471" 
d="M436 511q0 22 -4 42t-11.5 38.5t-19 34.5t-26 30t-31.5 25t-37.5 18.5t-43 11.5t-47.5 4q-61 0 -116 -28t-90 -77l37 -25q29 41 74 64.5t95 23.5q80 0 127 -46.5t47 -114.5q0 -64 -42.5 -110t-116.5 -46h-30l3 -169h41l3 128q22 1 41.5 6t36.5 13t32 18.5t27 24
t21.5 28.5t16 32.5t10 36t3.5 37.5zM220 64q-14 0 -25 -11.5t-11 -25.5q0 -16 11 -26.5t25 -10.5t25 10.5t11 26.5q0 14 -11 25.5t-25 11.5z" />
    <glyph glyph-name="at" unicode="@" horiz-adv-x="804" 
d="M388 72q43 0 78 19.5t57 52.5q12 -30 37 -45t59 -15q13 0 26.5 3t25.5 9.5t23.5 15.5t21 21t17.5 26.5t13.5 31.5t8.5 36.5t3 40.5q0 34 -5.5 65t-16 59.5t-26 53.5t-34.5 47t-42.5 40.5t-49.5 32.5t-55.5 24t-61 15t-65.5 5q-30 0 -58 -4.5t-55 -13.5t-51.5 -22
t-46.5 -29.5t-41.5 -36t-36 -42t-29 -47.5t-21.5 -52t-13.5 -55.5t-4.5 -58.5t4.5 -58.5t13.5 -55.5t21.5 -51.5t29 -47t36 -42t41.5 -36t46.5 -29t51.5 -21.5t55 -13.5t58 -4.5q70 0 132 21t111 60l-29 32q-42 -34 -97.5 -53t-116.5 -19q-26 0 -51 4t-48 12t-44.5 19.5
t-41 25.5t-36.5 31.5t-31 37t-25 41.5t-19 46t-12 49t-4 52t4 52t12 49t19 46t25 42t31 37.5t36.5 32t41 26t44.5 19.5t48 12t51 4q30 0 57.5 -4.5t53 -13t48.5 -21t43 -28.5t37 -35.5t30 -42t22 -47.5t14 -53t5 -58q0 -59 -26 -100t-67 -41q-28 0 -43 17.5t-15 42.5v224
h-45v-57q-22 29 -55 46t-73 17q-70 0 -120 -50t-50 -121q0 -72 49.5 -122t120.5 -50zM391 114q-53 0 -89.5 38t-36.5 92t36.5 91.5t89.5 37.5q51 0 88.5 -37.5t37.5 -91.5t-37.5 -92t-88.5 -38z" />
    <glyph glyph-name="A" unicode="A" horiz-adv-x="646" 
d="M346 700h-46l-300 -700h51l88 209h366l89 -209h52zM158 253l164 386l164 -386h-328z" />
    <glyph glyph-name="B" unicode="B" horiz-adv-x="544" 
d="M55 0h258q22 0 43 4t39.5 11.5t35 18t30 24t24.5 29t18.5 33t11.5 37t4 39.5q0 63 -42 113.5t-108 66.5q46 22 73 60.5t27 84.5q0 19 -4 36.5t-11 33.5t-17.5 30t-23.5 26.5t-28.5 22t-33.5 16.5t-37.5 10.5t-40.5 3.5h-218v-700zM274 656q63 0 105 -39t42 -95
q0 -54 -42 -93.5t-105 -39.5h-171v267h171zM314 44h-211v301h211q68 0 112.5 -43.5t44.5 -105.5t-44.5 -107t-112.5 -45z" />
    <glyph glyph-name="C" unicode="C" horiz-adv-x="734" 
d="M35 349q0 -30 4.5 -58.5t13.5 -55.5t22 -51.5t29.5 -47t36 -42t42 -36t47.5 -29t52 -21.5t56 -13.5t59 -4.5q99 0 180.5 47.5t128.5 124.5l-41 21q-42 -67 -113 -108t-155 -41q-26 0 -51 4t-48.5 12t-45.5 19t-41.5 25.5t-36.5 31.5t-31 36.5t-25 41.5t-19 45.5t-12 48.5
t-4 51t4 51.5t12 49t19 45t25 41.5t31 37t36.5 31.5t41.5 26t45.5 19.5t48.5 12t51 4q84 0 155 -41.5t112 -108.5l41 23q-47 77 -129 124t-179 47q-30 0 -59 -4.5t-56 -13.5t-52 -22t-47.5 -29.5t-42 -36t-36 -42t-29.5 -47.5t-22 -52t-13.5 -55.5t-4.5 -58.5z" />
    <glyph glyph-name="D" unicode="D" horiz-adv-x="696" 
d="M661 349q0 29 -4.5 57t-13.5 54t-21.5 50.5t-28.5 46t-35 40.5t-41 35t-46 28.5t-50.5 21.5t-54.5 13.5t-57 4.5h-249v-700h249q29 0 57 4.5t54.5 13t50.5 21t46 28.5t41 35t35 40.5t28.5 45.5t21.5 50t13.5 54t4.5 57zM310 657q25 0 49 -4t47 -12t43.5 -19t39.5 -25
t35.5 -30.5t30.5 -36t24.5 -40.5t18 -44t11.5 -47.5t4 -49.5t-4 -49.5t-11.5 -47.5t-18 -44t-24.5 -40t-30.5 -35.5t-35.5 -30.5t-39.5 -25t-43.5 -18.5t-47 -11.5t-49 -4h-202v614h202z" />
    <glyph glyph-name="E" unicode="E" horiz-adv-x="494" 
d="M60 0h394v43h-346v286h336v44h-336v284h346v43h-394v-700z" />
    <glyph glyph-name="F" unicode="F" horiz-adv-x="489" 
d="M108 0v329h336v44h-336v284h346v43h-394v-700h48z" />
    <glyph glyph-name="G" unicode="G" horiz-adv-x="763" 
d="M35 349q0 -30 4.5 -58.5t13.5 -55.5t21.5 -51.5t28.5 -47t35 -42t41 -36t46.5 -29t50.5 -21.5t54.5 -13.5t57.5 -4.5q90 0 162.5 44t109.5 111v-145h46v348h-327v-44h281q1 -26 -3 -50.5t-12 -46.5t-19.5 -42.5t-26.5 -38t-33 -32t-38.5 -26t-43 -19.5t-46.5 -12t-50 -4
t-50 4t-47 12t-44 19t-40 25.5t-35.5 31.5t-30 36.5t-24.5 41.5t-18.5 45.5t-11.5 49t-4 51.5t4 51.5t11.5 49t18.5 45t25 41.5t31 37t36 31.5t40.5 26t44.5 19.5t47.5 12t50.5 4q85 0 157 -41.5t113 -108.5l41 23q-47 77 -130 124t-181 47q-30 0 -58 -4.5t-55 -13.5
t-51.5 -22t-46.5 -29.5t-41.5 -36t-36 -42t-29 -47.5t-21.5 -52t-13.5 -55.5t-4.5 -58.5z" />
    <glyph glyph-name="H" unicode="H" horiz-adv-x="629" 
d="M108 0v329h413v-329h48v700h-48v-327h-413v327h-48v-700h48z" />
    <glyph glyph-name="I" unicode="I" horiz-adv-x="168" 
d="M108 0v700h-48v-700h48z" />
    <glyph glyph-name="J" unicode="J" horiz-adv-x="428" 
d="M7 42q31 -23 71.5 -36.5t84.5 -13.5q22 0 43 3.5t40 11t36 18t31.5 25t26 32t19.5 38.5t12 45.5t4 52.5v482h-48v-483q0 -89 -47.5 -134.5t-116.5 -45.5q-37 0 -70.5 11t-59.5 31z" />
    <glyph glyph-name="K" unicode="K" horiz-adv-x="504" 
d="M60 700v-700h48v331l342 -331h66l-365 355l361 345h-63l-341 -326v326h-48z" />
    <glyph glyph-name="L" unicode="L" horiz-adv-x="479" 
d="M454 43h-346v657h-48v-700h394v43z" />
    <glyph glyph-name="M" unicode="M" horiz-adv-x="799" 
d="M106 0l-1 650l274 -650h41l273 650l-1 -650h47v700h-73l-266 -631l-267 631h-73v-700h46z" />
    <glyph glyph-name="N" unicode="N" horiz-adv-x="674" 
d="M107 0l-1 631l455 -631h53v700h-47l1 -629l-454 629h-54v-700h47z" />
    <glyph glyph-name="O" unicode="O" horiz-adv-x="794" 
d="M35 349q0 -30 4.5 -58.5t13.5 -55.5t22 -51.5t29.5 -47t36 -42t42 -36t47.5 -29t52 -21.5t56 -13.5t59 -4.5t58.5 4.5t55.5 13.5t52 21.5t47.5 29t42.5 36t36.5 42t29.5 47t22 51.5t13.5 55.5t4.5 58.5t-4.5 58.5t-13.5 55.5t-22 52t-29.5 47.5t-36.5 42t-42.5 36
t-47.5 29.5t-52 22t-55.5 13.5t-58.5 4.5t-59 -4.5t-56 -13.5t-52 -22t-47.5 -29.5t-42 -36t-36 -42t-29.5 -47.5t-22 -52t-13.5 -55.5t-4.5 -58.5zM83 349q0 26 4 51.5t12 49t19 45t25 41.5t31 37t36.5 31.5t41.5 26t45.5 19.5t48.5 12t51 4t51 -4t48.5 -12t45 -19.5
t41 -26t36.5 -31.5t31.5 -37t25.5 -41.5t19 -45t12 -49t4 -51.5t-4 -51t-12 -48.5t-19 -45.5t-25.5 -41.5t-31.5 -36.5t-36.5 -31.5t-41 -25.5t-45 -19t-48.5 -12t-51 -4t-51 4t-48.5 12t-45.5 19t-41.5 25.5t-36.5 31.5t-31 36.5t-25 41.5t-19 45.5t-12 48.5t-4 51z" />
    <glyph glyph-name="P" unicode="P" horiz-adv-x="512" 
d="M60 0h48v302h175q22 0 43 4t39.5 11.5t34.5 18t30 24t24.5 29.5t18 33.5t11.5 37t4 39.5q0 21 -4 40.5t-11.5 37.5t-18 34t-24.5 30t-30 25t-34.5 18.5t-39.5 11.5t-43 4h-223v-700zM283 657q68 0 112.5 -46.5t44.5 -110.5q0 -65 -44.5 -110t-112.5 -45h-175v312h175z
" />
    <glyph glyph-name="Q" unicode="Q" horiz-adv-x="794" 
d="M35 349q0 -30 4.5 -58.5t13.5 -55.5t22 -51.5t29.5 -47t36 -42t42 -36t47.5 -29t52 -21.5t56 -13.5t59 -4.5q55 0 106 15.5t94 43.5l74 -90l36 29l-73 89q57 49 91 120t34 152q0 30 -4.5 58.5t-13.5 55.5t-22 52t-29.5 47.5t-36.5 42t-42.5 36t-47.5 29.5t-52 22
t-55.5 13.5t-58.5 4.5t-59 -4.5t-56 -13.5t-52 -22t-47.5 -29.5t-42 -36t-36 -42t-29.5 -47.5t-22 -52t-13.5 -55.5t-4.5 -58.5zM83 349q0 26 4 51.5t12 49t19 45t25 41.5t31 37t36.5 31.5t41.5 26t45.5 19.5t48.5 12t51 4t51 -4t48.5 -12t45 -19.5t41 -26t36.5 -31.5
t31.5 -37t25.5 -41.5t19 -45t12 -49t4 -51.5q0 -70 -28.5 -131.5t-77.5 -104.5l-86 106l-36 -30l85 -104q-37 -24 -80.5 -37.5t-90.5 -13.5q-26 0 -51 4t-48.5 12t-45.5 19t-41.5 25.5t-36.5 31.5t-31 36.5t-25 41.5t-19 45.5t-12 48.5t-4 51z" />
    <glyph glyph-name="R" unicode="R" horiz-adv-x="517" 
d="M108 0v312h152l193 -312h55l-195 315q73 13 119.5 66t46.5 123q0 20 -4 39.5t-11.5 37t-18.5 33t-24.5 29t-30 24t-35 18t-39.5 11.5t-43 4h-213v-700h48zM274 657q68 0 112.5 -45t44.5 -108q0 -62 -44.5 -106t-112.5 -44h-166v303h166z" />
    <glyph glyph-name="S" unicode="S" horiz-adv-x="530" 
d="M32 204q11 -96 80 -154.5t171 -58.5q96 0 154 52.5t58 136.5q0 65 -40.5 109t-120.5 69l-118 36q-65 19 -97 52.5t-32 82.5q0 59 44 97.5t112 38.5q79 0 129 -45t60 -126h47q-10 97 -74.5 156t-159.5 59q-90 0 -147.5 -52t-57.5 -134q0 -60 40.5 -104.5t115.5 -67.5
l112 -34q72 -22 105.5 -56.5t33.5 -88.5q0 -63 -45.5 -100t-120.5 -37q-81 0 -134 44.5t-67 124.5h-48z" />
    <glyph glyph-name="T" unicode="T" horiz-adv-x="517" 
d="M10 657h224v-657h48v657h225v43h-497v-43z" />
    <glyph glyph-name="U" unicode="U" horiz-adv-x="622" 
d="M101 257v443h-48v-442q0 -30 5 -57.5t14.5 -52t23 -45.5t31 -38.5t37.5 -31t43 -22.5t48 -14t51 -5q66 0 121 31t87 85v-108h48v700h-48v-443q0 -25 -4 -48t-12 -43t-19.5 -37.5t-25.5 -32t-30.5 -26t-35.5 -19t-39 -11.5t-42 -4t-42.5 4t-39 11.5t-35 19t-30 26
t-24.5 32t-18.5 37.5t-11.5 43t-4 48z" />
    <glyph glyph-name="V" unicode="V" horiz-adv-x="646" 
d="M300 0h46l300 700h-51l-271 -639l-272 639h-52z" />
    <glyph glyph-name="W" unicode="W" horiz-adv-x="904" 
d="M475 700h-45l-208 -619l-161 619h-51l186 -700h44l212 625l212 -625h45l185 700h-50l-161 -619z" />
    <glyph glyph-name="X" unicode="X" horiz-adv-x="571" 
d="M-5 0h54l235 329l236 -329h56l-263 368l238 332h-55l-210 -295l-210 295h-57l238 -334z" />
    <glyph glyph-name="Y" unicode="Y" horiz-adv-x="557" 
d="M302 0v316l260 384h-51l-232 -343l-232 343h-52l259 -381v-319h48z" />
    <glyph glyph-name="Z" unicode="Z" horiz-adv-x="508" 
d="M33 657h389l-400 -623v-34h455v43h-395l400 623v34h-449v-43z" />
    <glyph glyph-name="bracketleft" unicode="[" horiz-adv-x="308" 
d="M285 -125v40h-187v835h187v40h-233v-915h233z" />
    <glyph glyph-name="backslash" unicode="\" horiz-adv-x="364" 
d="M358 0l-304 700h-49l304 -700h49z" />
    <glyph glyph-name="bracketright" unicode="]" horiz-adv-x="308" 
d="M23 790v-40h187v-835h-187v-40h233v915h-233z" />
    <glyph glyph-name="asciicircum" unicode="^" horiz-adv-x="519" 
d="M50 350h50l160 298l160 -298h50l-190 350h-41z" />
    <glyph glyph-name="underscore" unicode="_" horiz-adv-x="483" 
d="M484 -80h-485v-40h485v40z" />
    <glyph glyph-name="grave" unicode="`" horiz-adv-x="510" 
d="M239 687h-64l113 -112h54z" />
    <glyph glyph-name="a" unicode="a" horiz-adv-x="472" 
d="M28 135q0 -65 47.5 -104.5t118.5 -39.5q53 0 95.5 24t65.5 64v-13q0 -31 20.5 -48.5t54.5 -17.5h29v43h-24q-16 0 -24.5 7.5t-8.5 21.5v279q0 69 -45.5 110t-121.5 41q-51 0 -91.5 -16t-77.5 -50l30 -33q28 30 61.5 44t73.5 14q59 0 91.5 -31t32.5 -85v-60l-170 -11
q-74 -5 -115.5 -42t-41.5 -97zM74 134q0 43 30.5 69t87.5 30l163 11v-59q0 -63 -46 -107.5t-112 -44.5q-54 0 -88.5 29t-34.5 72z" />
    <glyph glyph-name="b" unicode="b" horiz-adv-x="599" 
d="M55 0h46v107q31 -53 86 -84.5t123 -31.5q24 0 46.5 4t43.5 12t39.5 19t35 25t30.5 30.5t25 35.5t18.5 40.5t11.5 44t4 46.5t-4 46.5t-11.5 43t-19 39.5t-25 35.5t-30.5 30.5t-35.5 25t-39.5 19t-43 12t-46 4q-68 0 -122.5 -31.5t-86.5 -85.5v314h-46v-700zM100 248
q0 20 3.5 38.5t9.5 36t15.5 33.5t21 30t25 25.5t29 21t32.5 16t35.5 10t37.5 3.5t37.5 -3.5t35.5 -10t32.5 -16t29.5 -21t25.5 -25.5t20.5 -30t15 -33.5t9.5 -36t3.5 -38.5t-3.5 -39t-9.5 -36.5t-15 -33.5t-20.5 -30t-25.5 -26t-29.5 -21t-32.5 -15.5t-35.5 -10t-37.5 -3.5
t-37.5 3.5t-35.5 10t-32.5 16t-29.5 21t-25.5 25.5t-20.5 30t-15 33.5t-9.5 36.5t-3.5 39z" />
    <glyph glyph-name="c" unicode="c" horiz-adv-x="516" 
d="M81 248q0 20 3.5 39t9.5 36.5t15.5 33.5t21 30t25 25.5t29 20.5t32.5 15.5t35.5 10t37.5 3.5q51 0 96 -24.5t74 -64.5l37 25q-34 48 -88.5 76.5t-118.5 28.5q-24 0 -46.5 -4t-43.5 -12t-40 -19t-35.5 -25t-30.5 -30.5t-25 -35.5t-18.5 -40t-11.5 -43t-4 -46t4 -46
t11.5 -43t18.5 -40t25 -36t30.5 -31t35.5 -25t40 -19t43.5 -12t46.5 -4q64 0 118.5 28.5t88.5 76.5l-37 25q-29 -40 -74 -64t-96 -24q-19 0 -37.5 3.5t-35.5 10t-32.5 15.5t-29 21t-25 26t-21 30t-15.5 33.5t-9.5 36t-3.5 38.5z" />
    <glyph glyph-name="d" unicode="d" horiz-adv-x="599" 
d="M544 0v700h-46v-313q-32 53 -87 84.5t-121 31.5q-24 0 -46.5 -4t-43 -12t-39.5 -19t-35.5 -25t-30.5 -30.5t-25 -35.5t-19 -39.5t-12 -43t-4 -46.5t4 -46.5t11.5 -44t18.5 -40.5t25 -35.5t30.5 -30.5t35.5 -25t40 -19t43.5 -12t46.5 -4q67 0 121.5 31t86.5 84v-106h46z
M499 248q0 -20 -3.5 -39t-9.5 -36.5t-15 -33.5t-20.5 -30t-25.5 -25.5t-29.5 -21t-32.5 -16t-35.5 -10t-37.5 -3.5t-37.5 3.5t-35.5 10t-32.5 15.5t-29.5 21t-25.5 26t-20.5 30t-15 33.5t-9.5 36.5t-3.5 39t3.5 38.5t9.5 36t15 33.5t20.5 30t25.5 25.5t29.5 21t32.5 16
t35.5 10t37.5 3.5t37.5 -3.5t35.5 -10t32.5 -16t29 -21t25 -25.5t21 -30t15.5 -33.5t9.5 -36t3.5 -38.5z" />
    <glyph glyph-name="e" unicode="e" horiz-adv-x="558" 
d="M35 248q0 -24 4 -46t11.5 -43t18.5 -40t25 -36t30.5 -31t35.5 -25t40 -19t43.5 -12t46.5 -4q64 0 118.5 28.5t88.5 76.5l-37 25q-28 -40 -73.5 -64t-96.5 -24q-21 0 -40.5 4t-37.5 11.5t-34.5 18.5t-30.5 24.5t-25.5 29.5t-20 34t-14 38t-6.5 41h442v23q0 22 -4 43.5
t-11 41.5t-17 38.5t-23 34.5t-28.5 29.5t-33 24t-37 18t-40.5 11.5t-43 4q-24 0 -46 -4t-42.5 -12t-39 -19t-35 -25t-30 -30.5t-24.5 -35.5t-18.5 -39.5t-11.5 -43t-4 -46.5zM286 462q73 0 127.5 -53.5t61.5 -131.5h-392q10 78 68 131.5t135 53.5z" />
    <glyph glyph-name="f" unicode="f" horiz-adv-x="275" 
d="M15 453h92v-453h46v453h106v42h-106v108q0 26 13 40.5t36 14.5h57v42h-64q-40 0 -64 -26.5t-24 -70.5v-108h-92v-42z" />
    <glyph glyph-name="g" unicode="g" horiz-adv-x="596" 
d="M540 495h-46v-106q-32 52 -86 83t-120 31q-24 0 -46 -4t-42.5 -11.5t-39.5 -18.5t-35.5 -25t-30.5 -30.5t-25 -35.5t-18.5 -39.5t-11.5 -43t-4 -45.5q0 -24 4 -46.5t11.5 -43.5t18.5 -40t25 -35.5t30.5 -30.5t35 -25t39.5 -18.5t43 -11.5t46 -4q66 0 120.5 31t85.5 82
v-113q0 -69 -34 -103t-103 -34h-88v-43h95q84 0 130 46t46 130v504zM81 250q0 20 3.5 38.5t9.5 35.5t15 33t20.5 29.5t25 25.5t29 21t32 15.5t35 10t37.5 3.5t37 -3.5t35 -10t32.5 -15.5t29 -21t25 -25.5t20.5 -29.5t15 -33t9.5 -35.5t3.5 -38.5t-3.5 -38.5t-9.5 -36
t-15 -33.5t-20.5 -30t-25 -26t-29 -21t-32 -15.5t-35 -10t-37.5 -3.5t-37.5 3.5t-35 10t-32 15.5t-29 20.5t-25 25.5t-20.5 30t-15 33.5t-9.5 36.5t-3.5 39z" />
    <glyph glyph-name="h" unicode="h" 
d="M101 303q0 67 44.5 112.5t113.5 45.5q64 0 103 -42.5t39 -106.5v-312h46v320q0 19 -3.5 37t-10 34.5t-15.5 31t-21 27t-26.5 22.5t-31 17t-35.5 10.5t-39 3.5q-54 0 -98 -24.5t-66 -67.5v289h-46v-700h46v303z" />
    <glyph glyph-name="i" unicode="i" horiz-adv-x="157" 
d="M79 599q14 0 25 11t11 26t-11 25.5t-25 10.5t-25 -10.5t-11 -25.5t11 -26t25 -11zM101 495h-46v-495h46v495z" />
    <glyph glyph-name="j" unicode="j" horiz-adv-x="157" 
d="M79 599q14 0 25 11t11 26t-11 25.5t-25 10.5t-25 -10.5t-11 -25.5t11 -26t25 -11zM18 -185q38 0 60.5 21t22.5 55v604h-46v-599q0 -18 -11 -28t-32 -10h-33v-43h39z" />
    <glyph glyph-name="k" unicode="k" horiz-adv-x="417" 
d="M55 700v-700h46v238l260 -238h66l-284 256l276 239h-64l-254 -224v429h-46z" />
    <glyph glyph-name="l" unicode="l" horiz-adv-x="157" 
d="M101 0v700h-46v-700h46z" />
    <glyph glyph-name="m" unicode="m" horiz-adv-x="818" 
d="M101 303q0 67 42 112.5t107 45.5q61 0 98.5 -42.5t37.5 -106.5v-312h46v303q0 67 42 112.5t107 45.5q61 0 98.5 -42.5t37.5 -106.5v-312h46v320q0 19 -3.5 37t-9.5 34.5t-15 31t-21 27t-26 22.5t-30 17t-34 10.5t-37 3.5q-61 0 -106.5 -31t-64.5 -77q-19 48 -61 78
t-99 30q-51 0 -92.5 -24t-62.5 -66v82h-46v-495h46v303z" />
    <glyph glyph-name="n" unicode="n" 
d="M447 320q0 19 -3.5 37t-10 34.5t-15.5 31t-21 27t-26.5 22.5t-31 17t-35.5 10.5t-39 3.5q-54 0 -98 -24.5t-66 -67.5v84h-46v-495h46v303q0 67 44.5 112.5t113.5 45.5q64 0 103 -42.5t39 -106.5v-312h46v320z" />
    <glyph glyph-name="o" unicode="o" horiz-adv-x="580" 
d="M545 248q0 24 -4 46t-11.5 43t-18.5 40t-25 35.5t-30.5 30.5t-35.5 25t-40 19t-43.5 12t-46.5 4t-46.5 -4t-43.5 -12t-40 -19t-35.5 -25t-30.5 -30.5t-25 -35.5t-18.5 -40t-11.5 -43t-4 -46t4 -46t11.5 -43t18.5 -40t25 -36t30.5 -31t35.5 -25t40 -19t43.5 -12t46.5 -4
t46.5 4t43.5 12t40 19t35.5 25t30.5 31t25 36t18.5 40t11.5 43t4 46zM499 248q0 -20 -3.5 -38.5t-10 -36t-15.5 -33.5t-20.5 -30t-25.5 -26t-29.5 -21t-32.5 -15.5t-35 -10t-37 -3.5t-37.5 3.5t-35.5 10t-32.5 15.5t-29 21t-25 26t-21 30t-15.5 33.5t-9.5 36t-3.5 38.5
t3.5 39t9.5 36.5t15.5 33.5t21 30t25 25.5t29 20.5t32.5 15.5t35.5 10t37.5 3.5t37 -3.5t35 -10t32.5 -15.5t29.5 -20.5t25.5 -25.5t20.5 -30t15.5 -33.5t10 -36.5t3.5 -39z" />
    <glyph glyph-name="p" unicode="p" horiz-adv-x="599" 
d="M55 495v-680h46v294q32 -54 86.5 -85.5t122.5 -31.5q24 0 46 4t43 12t39.5 19t35.5 25t30.5 30.5t25 35.5t19 40t11.5 43.5t4 46.5t-4 46.5t-11.5 43.5t-18.5 40t-25 35.5t-30.5 30.5t-35 25t-39.5 19t-43.5 12t-46.5 4q-68 0 -123 -31t-86 -84v106h-46zM100 248
q0 20 3.5 38.5t9.5 36t15 33.5t20.5 30t25.5 25.5t29.5 21t32.5 16t35.5 10t37.5 3.5t37.5 -3.5t35.5 -10t32.5 -15.5t29.5 -21t25.5 -26t20.5 -30t15 -33.5t9.5 -36t3.5 -38.5t-3.5 -38.5t-9.5 -36t-15 -33.5t-20.5 -30t-25.5 -25.5t-29.5 -21t-32.5 -16t-35.5 -10
t-37.5 -3.5t-37.5 3.5t-35.5 10t-32.5 16t-29 21t-25 25.5t-21 30t-15.5 33.5t-9.5 36t-3.5 38.5z" />
    <glyph glyph-name="q" unicode="q" horiz-adv-x="599" 
d="M544 495h-46v-105q-32 52 -86.5 83t-121.5 31q-24 0 -46.5 -4t-43.5 -12t-40 -19t-35.5 -25t-30.5 -30.5t-25 -35.5t-18.5 -40t-11.5 -43.5t-4 -46.5t4 -46.5t12 -43.5t19 -40t25 -35.5t30.5 -30.5t35.5 -25t39.5 -19t43 -12t46.5 -4q66 0 121 31.5t87 84.5v-293h46v680z
M499 248q0 -20 -3.5 -38.5t-9.5 -36t-15.5 -33.5t-21 -30t-25 -25.5t-29 -21t-32.5 -16t-35.5 -10t-37.5 -3.5t-37.5 3.5t-35.5 10t-32.5 16t-29.5 21t-25.5 25.5t-20.5 30t-15 33.5t-9.5 36t-3.5 38.5t3.5 38.5t9.5 36t15 33.5t20.5 30t25.5 26t29.5 21t32.5 15.5t35.5 10
t37.5 3.5t37.5 -3.5t35.5 -10t32.5 -16t29.5 -21t25.5 -25.5t20.5 -30t15 -33.5t9.5 -36t3.5 -38.5z" />
    <glyph glyph-name="r" unicode="r" horiz-adv-x="271" 
d="M256 455v44h-35q-41 0 -72.5 -21t-47.5 -55v72h-46v-495h46v313q0 58 33 100t89 42h33z" />
    <glyph glyph-name="s" unicode="s" horiz-adv-x="402" 
d="M215 -9q71 0 115.5 38t44.5 98q0 47 -31.5 81.5t-96.5 53.5l-78 23q-46 13 -68.5 34.5t-22.5 54.5q0 40 29 64t75 24q52 0 89.5 -31.5t45.5 -80.5h45q-9 68 -59 110.5t-122 42.5q-64 0 -106 -36.5t-42 -96.5q0 -46 30 -78t92 -50l72 -21q54 -16 78.5 -39.5t24.5 -59.5
q0 -40 -33 -65t-84 -25q-56 0 -95.5 32t-48.5 83h-46q10 -69 63.5 -112.5t128.5 -43.5z" />
    <glyph glyph-name="t" unicode="t" horiz-adv-x="289" 
d="M200 0h74v42h-68q-25 0 -39 13t-14 35v363h121v42h-121v151h-46v-151h-92v-42h92v-368q0 -39 25 -62t68 -23z" />
    <glyph glyph-name="u" unicode="u" 
d="M55 176q0 -19 3.5 -37.5t10 -35t16 -31t21.5 -27t26.5 -22.5t31 -17t35.5 -10.5t39 -3.5q54 0 97.5 24.5t65.5 66.5v-83h46v495h-46v-303q0 -67 -44 -112t-113 -45q-64 0 -103.5 42t-39.5 106v312h-46v-319z" />
    <glyph glyph-name="v" unicode="v" horiz-adv-x="430" 
d="M198 0h34l203 495h-48l-171 -423l-172 423h-49z" />
    <glyph glyph-name="w" unicode="w" horiz-adv-x="668" 
d="M313 495l-141 -418l-125 418h-47l150 -495h39l145 430l146 -430h38l150 495h-46l-125 -420l-141 420h-43z" />
    <glyph glyph-name="x" unicode="x" horiz-adv-x="420" 
d="M-5 0h52l162 221l162 -221h54l-188 257l174 238h-52l-148 -202l-149 202h-54l176 -238z" />
    <glyph glyph-name="y" unicode="y" horiz-adv-x="430" 
d="M155 -82q-12 -30 -32 -45t-52 -15h-42v-43h49q49 0 75.5 26.5t44.5 71.5l237 582h-47l-171 -424l-174 424h-48l198 -482z" />
    <glyph glyph-name="z" unicode="z" horiz-adv-x="416" 
d="M30 453h299l-302 -419v-34h364v42h-307l301 419v34h-355v-42z" />
    <glyph glyph-name="braceleft" unicode="{" horiz-adv-x="382" 
d="M241 182q21 49 2 91.5t-69 59.5q50 17 69 59.5t-2 91.5l-62 142q-25 58 -3 95t82 38q19 0 37.5 -3.5t40.5 -13.5l14 36q-23 11 -43 16.5t-48 5.5q-89 0 -123.5 -56t4.5 -139l53 -116q27 -54 5 -94.5t-78 -40.5h-88v-42h88q56 0 78 -40.5t-5 -94.5l-53 -116
q-39 -83 -4.5 -139t123.5 -56q28 0 48 5.5t43 16.5l-14 36q-22 -10 -40.5 -13.5t-37.5 -3.5q-60 1 -82 38t3 95z" />
    <glyph glyph-name="bar" unicode="|" horiz-adv-x="176" 
d="M101 -185v885h-46v-885h46z" />
    <glyph glyph-name="braceright" unicode="}" horiz-adv-x="382" 
d="M141 484q-21 -49 -2 -91.5t69 -59.5q-50 -17 -69 -59.5t2 -91.5l62 -142q25 -58 3 -95t-82 -38q-19 0 -37.5 3.5t-40.5 13.5l-14 -36q23 -11 43 -16.5t48 -5.5q89 0 123.5 56t-4.5 139l-53 116q-27 54 -5 94.5t78 40.5h88v42h-88q-56 0 -78 40.5t5 94.5l53 116
q39 83 4.5 139t-123.5 56q-28 0 -48 -5.5t-43 -16.5l14 -36q22 10 40.5 13.5t37.5 3.5q60 -1 82 -38t-3 -95z" />
    <glyph glyph-name="asciitilde" unicode="~" horiz-adv-x="509" 
d="M84 317q17 50 31.5 67t34.5 17q8 0 17 -2t19 -6t21 -9t22 -11t23 -12t23.5 -12t23 -11t22.5 -9t21 -6t19 -2q36 0 62 31t43 87l-41 11q-17 -50 -32 -67t-35 -17q-8 0 -16.5 2t-18.5 6t-21 9t-22.5 11l-23 12l-23 12t-23 11t-22.5 9t-21 6t-19 2q-37 0 -62.5 -31
t-42.5 -87z" />
    <glyph glyph-name="uni00A0" unicode="&#xa0;" horiz-adv-x="200" 
 />
    <glyph glyph-name="exclamdown" unicode="&#xa1;" horiz-adv-x="146" 
d="M53 522l-2 -522h48l-3 522h-43zM74 636q15 0 25.5 11.5t10.5 25.5q0 16 -10.5 26.5t-25.5 10.5q-14 0 -25 -10.5t-11 -26.5q0 -14 11 -25.5t25 -11.5z" />
    <glyph glyph-name="cent" unicode="&#xa2;" horiz-adv-x="521" 
d="M303 609h-45v-108q-24 -3 -46 -10t-42.5 -17.5t-38 -24.5t-32.5 -31t-27 -36.5t-20 -41t-12.5 -45t-4.5 -47.5t4.5 -47.5t12.5 -45t20 -41t27 -36.5t32.5 -31t38 -25t42.5 -18t46 -10v-107h45v105q60 3 110.5 31t83.5 74l-37 25q-28 -38 -68.5 -61.5t-88.5 -26.5v428
q48 -4 88.5 -27.5t68.5 -61.5l37 25q-33 46 -83.5 74t-110.5 31v106zM81 248q0 81 51 140.5t126 71.5v-424q-75 12 -126 71.5t-51 140.5z" />
    <glyph glyph-name="sterling" unicode="&#xa3;" horiz-adv-x="545" 
d="M362 364h-201l-16 62q-28 111 11.5 175t125.5 64q69 0 116.5 -42.5t53.5 -111.5h45q-7 90 -65 143t-150 53q-27 0 -51 -5t-44.5 -15t-37 -24.5t-29 -32.5t-20 -40.5t-10.5 -48.5t-1 -55.5t10 -61.5l15 -60h-72v-41h83l37 -148q15 -63 -12.5 -97.5t-73.5 -34.5h-45v-43
h484v43h-346q26 18 38.5 51.5t0.5 79.5l-37 149h191v41z" />
    <glyph glyph-name="yen" unicode="&#xa5;" horiz-adv-x="577" 
d="M89 201v-42h175v-159h48v159h176v42h-176v92h176v42h-163l247 365h-51l-231 -343l-233 343h-52l248 -365h-164v-42h175v-92h-175z" />
    <glyph glyph-name="section" unicode="&#xa7;" horiz-adv-x="476" 
d="M407 27q0 35 -16.5 63t-51.5 50q53 11 85 49t32 92q0 50 -33.5 87.5t-96.5 59.5l-118 41q-49 16 -71.5 42t-22.5 62q0 41 30 67t77 26q50 0 89.5 -32t46.5 -79h46q-9 65 -61 108t-122 43q-67 0 -108.5 -38.5t-41.5 -99.5q0 -34 16 -61.5t47 -47.5q-51 -9 -82.5 -47
t-31.5 -95q0 -49 34 -87t96 -60l118 -40q50 -18 73 -44.5t23 -63.5q0 -40 -29 -65t-78 -25q-50 0 -90.5 32.5t-47.5 78.5h-45q9 -65 62 -108t122 -43q67 0 108.5 37.5t41.5 97.5zM315 389q49 -16 72.5 -44t23.5 -69q0 -57 -46.5 -87t-118.5 -8l-86 29q-49 16 -72.5 43.5
t-23.5 68.5q0 14 3 27t9 24.5t14.5 20.5t19 16t22 11.5t24.5 6.5t26.5 1t27.5 -6z" />
    <glyph glyph-name="dieresis" unicode="&#xa8;" horiz-adv-x="508" 
d="M178 599q14 0 25 11t11 26t-11 25.5t-25 10.5t-25 -10.5t-11 -25.5t11 -26t25 -11zM330 599q14 0 25 11t11 26t-11 25.5t-25 10.5t-25 -10.5t-11 -25.5t11 -26t25 -11z" />
    <glyph glyph-name="copyright" unicode="&#xa9;" horiz-adv-x="804" 
d="M402 -10q30 0 58 4.5t54.5 13.5t51 22t47 29.5t41.5 36t35.5 42t29 47.5t21.5 52t13.5 55.5t4.5 58.5t-4.5 58.5t-13.5 55.5t-21.5 51.5t-29 47t-35.5 42t-41.5 36t-47 29t-51 21.5t-54.5 13.5t-58 4.5t-58 -4.5t-55 -13.5t-51.5 -22t-46.5 -29.5t-41.5 -36t-36 -42
t-29 -47.5t-21.5 -52t-13.5 -55.5t-4.5 -58.5t4.5 -58.5t13.5 -55.5t21.5 -51.5t29 -47t36 -42t41.5 -36t46.5 -29t51.5 -21.5t55 -13.5t58 -4.5zM402 31q-26 0 -51 4t-48.5 12t-45 19.5t-40.5 25.5t-36 31.5t-31 37t-25.5 41.5t-19 46t-11.5 49t-4 52t4 52t11.5 49t19 46
t25.5 42t31 37.5t36 32t40.5 26t45 19.5t48.5 12t51 4t50.5 -4t48 -12t45 -19.5t41 -25.5t36 -31.5t30.5 -37t25.5 -41.5t19 -46t11.5 -49t4 -52t-4 -52t-11.5 -49t-19 -46t-25.5 -42t-30.5 -37.5t-36 -32t-41 -26t-45 -19.5t-48 -12t-50.5 -4zM274 349q0 60 40 100.5
t96 40.5q34 0 63 -15.5t48 -42.5l35 25q-24 34 -62 54.5t-84 20.5q-19 0 -37.5 -3.5t-35 -10.5t-31 -17t-26.5 -22.5t-22 -27t-17 -31t-10.5 -34.5t-3.5 -37t3.5 -37t10.5 -34t17 -31t22 -27t26.5 -22t31 -17t35 -10.5t37.5 -3.5q46 0 84 20.5t62 54.5l-35 25
q-19 -28 -48 -43t-63 -15q-56 0 -96 40.5t-40 99.5z" />
    <glyph glyph-name="ordfeminine" unicode="&#xaa;" horiz-adv-x="356" 
d="M27 451q0 -46 33.5 -74.5t84.5 -28.5q37 0 66 16t45 42q0 -23 16.5 -37t41.5 -14h24v38h-17q-11 0 -17 5.5t-6 15.5v186q0 50 -32.5 79.5t-88.5 29.5q-37 0 -67 -11t-56 -35l25 -30q19 19 42.5 28.5t50.5 9.5q40 0 62 -20t22 -57v-36l-117 -8q-53 -3 -82.5 -29.5
t-29.5 -69.5zM69 450q0 28 20 45t56 19l111 9v-39q0 -41 -30.5 -70t-75.5 -29q-35 0 -58 18.5t-23 46.5z" />
    <glyph glyph-name="guillemotleft" unicode="&#xab;" horiz-adv-x="553" 
d="M319 495h-55l-232 -247l232 -248h58l-230 249zM510 495h-55l-232 -247l232 -248h58l-230 249z" />
    <glyph glyph-name="registered" unicode="&#xae;" horiz-adv-x="480" 
d="M240 313q21 0 40 4t37 11.5t34 18t29.5 24t24 29.5t18 34t11.5 37.5t4 40.5t-4 40.5t-11.5 37.5t-18 34t-24 29.5t-29.5 24t-34 18t-37 11.5t-40 4t-40 -4t-37 -11.5t-34 -18t-29.5 -24t-24 -29.5t-18 -34t-11.5 -37.5t-4 -40.5t4 -40.5t11.5 -37.5t18 -34t24 -29.5
t29.5 -24t34 -18t37 -11.5t40 -4zM240 345q-69 0 -116.5 49t-47.5 118t47.5 118t116.5 49t116.5 -49t47.5 -118t-47.5 -118t-116.5 -49zM176 421h33v75h29l43 -75h37l-47 79q16 6 26 19.5t10 32.5q0 23 -16.5 39.5t-39.5 16.5h-75v-187zM242 579q13 0 22 -8t9 -19
q0 -12 -9 -20t-22 -8h-33v55h33z" />
    <glyph glyph-name="macron" unicode="&#xaf;" horiz-adv-x="510" 
d="M382 646h-247v-39h247v39z" />
    <glyph glyph-name="degree" unicode="&#xb0;" horiz-adv-x="384" 
d="M193 426q58 0 99 42t41 102q0 56 -41 98t-99 42q-60 0 -101 -42t-41 -98q0 -60 41 -102t101 -42zM193 465q-43 0 -72 31.5t-29 74.5q0 41 29.5 70.5t71.5 29.5q40 0 70 -29t30 -71q0 -43 -30 -74.5t-70 -31.5z" />
    <glyph glyph-name="plusminus" unicode="&#xb1;" horiz-adv-x="504" 
d="M273 162v185h177v43h-177v180h-43v-180h-177v-43h177v-185h43zM450 41h-397v-42h397v42z" />
    <glyph glyph-name="twosuperior" unicode="&#xb2;" horiz-adv-x="296" 
d="M262 596q0 46 -33.5 77.5t-86.5 31.5q-40 0 -71.5 -20t-47.5 -54l34 -18q13 25 35 40t50 15q33 0 55 -21t22 -54q1 -27 -12 -48.5t-36 -47.5l-140 -154v-28h235v38h-175l113 124q29 31 44 58t14 61z" />
    <glyph glyph-name="threesuperior" unicode="&#xb3;" horiz-adv-x="311" 
d="M145 705q-42 0 -73 -20t-47 -53l36 -17q11 24 32.5 38.5t49.5 14.5q33 0 55 -20t22 -51q0 -28 -19 -47.5t-48 -19.5h-42v-36h46q33 0 53.5 -20.5t20.5 -51.5q0 -33 -22.5 -54.5t-59.5 -21.5q-31 0 -55 15.5t-37 41.5l-36 -19q16 -34 50 -54.5t79 -20.5q54 0 89.5 32
t35.5 78q0 34 -20.5 60.5t-52.5 36.5q27 10 43.5 32.5t16.5 52.5q0 44 -33.5 74t-83.5 30z" />
    <glyph glyph-name="acute" unicode="&#xb4;" horiz-adv-x="510" 
d="M270 687l-103 -112h52l115 112h-64z" />
    <glyph glyph-name="paragraph" unicode="&#xb6;" horiz-adv-x="538" 
d="M30 499q0 -20 4 -39.5t11.5 -37t18 -33.5t24.5 -29.5t30 -24t34.5 -18t39.5 -11.5t43 -4h64v-302h50v302h79v-302h50v700h-243q-22 0 -43 -4t-39.5 -11.5t-34.5 -18.5t-30 -25t-24.5 -30t-18 -34t-11.5 -37.5t-4 -40.5z" />
    <glyph glyph-name="periodcentered" unicode="&#xb7;" horiz-adv-x="146" 
d="M74 337q-14 0 -25 -11t-11 -25q0 -16 11 -26.5t25 -10.5t24.5 10.5t10.5 26.5q0 14 -10.5 25t-24.5 11z" />
    <glyph glyph-name="cedilla" unicode="&#xb8;" horiz-adv-x="510" 
d="M377 -140q0 34 -24 56t-63 24l17 66h-33l-27 -95h23q31 0 49.5 -14t18.5 -37t-16 -37t-41 -14q-20 0 -38 9t-30 25l-29 -23q15 -21 41.5 -33.5t54.5 -12.5q42 0 69.5 24.5t27.5 61.5z" />
    <glyph glyph-name="onesuperior" unicode="&#xb9;" horiz-adv-x="257" 
d="M228 353h-76v347h-116v-38h72v-309h-77v-38h197v38z" />
    <glyph glyph-name="ordmasculine" unicode="&#xba;" horiz-adv-x="422" 
d="M393 530q0 19 -3.5 36.5t-10.5 34t-17 31t-22.5 26.5t-27 21.5t-31 16.5t-34.5 10.5t-37 3.5t-37 -3.5t-34 -10.5t-31 -16.5t-27 -22t-22 -26.5t-17 -30.5t-10.5 -34t-3.5 -36.5t3.5 -36.5t10.5 -34t17 -31t22 -26.5t27 -22t31 -17t34 -10.5t37 -3.5t37 3.5t34.5 10.5
t31 17t27 22t22.5 26.5t17 31t10.5 34t3.5 36.5zM350 530q0 -60 -41.5 -101.5t-98.5 -41.5t-98 41.5t-41 101.5t41 101t98 41t98.5 -41t41.5 -101z" />
    <glyph glyph-name="guillemotright" unicode="&#xbb;" horiz-adv-x="553" 
d="M234 0h55l232 247l-232 248h-58l230 -249zM44 0h55l232 247l-232 248h-58l230 -249z" />
    <glyph glyph-name="onequarter" unicode="&#xbc;" horiz-adv-x="650" 
d="M228 353h-76v347h-116v-38h72v-309h-77v-38h197v38zM537 0h44v101h51v37h-51v247h-55l-179 -252v-32h190v-101zM395 138l142 204v-204h-142zM154 0l388 700h-46l-388 -700h46z" />
    <glyph glyph-name="onehalf" unicode="&#xbd;" horiz-adv-x="677" 
d="M228 353h-76v347h-116v-38h72v-309h-77v-38h197v38zM650 281q0 46 -33.5 77.5t-86.5 31.5q-40 0 -71.5 -20t-47.5 -54l34 -18q13 25 35 40t50 15q33 0 55 -21t22 -54q1 -27 -12 -48.5t-36 -47.5l-140 -154v-28h235v38h-175l113 124q29 31 44 58t14 61zM154 0l388 700h-46
l-388 -700h46z" />
    <glyph glyph-name="threequarters" unicode="&#xbe;" horiz-adv-x="677" 
d="M145 705q-42 0 -73 -20t-47 -53l36 -17q11 24 32.5 38.5t49.5 14.5q33 0 55 -20t22 -51q0 -28 -19 -47.5t-48 -19.5h-42v-36h46q33 0 53.5 -20.5t20.5 -51.5q0 -33 -22.5 -54.5t-59.5 -21.5q-31 0 -55 15.5t-37 41.5l-36 -19q16 -34 50 -54.5t79 -20.5q54 0 89.5 32
t35.5 78q0 34 -20.5 60.5t-52.5 36.5q27 10 43.5 32.5t16.5 52.5q0 44 -33.5 74t-83.5 30zM562 0h44v101h51v37h-51v247h-55l-179 -252v-32h190v-101zM420 138l142 204v-204h-142zM179 0l388 700h-46l-388 -700h46z" />
    <glyph glyph-name="questiondown" unicode="&#xbf;" horiz-adv-x="471" 
d="M35 194q0 -22 4 -42t11.5 -38.5t19 -34.5t26 -30t31.5 -25t37.5 -18.5t43 -11.5t47.5 -4q61 0 116 28t90 77l-37 25q-29 -41 -74 -64.5t-95 -23.5q-80 0 -127 46.5t-47 114.5q0 64 42.5 110t116.5 46h30l-3 169h-41l-3 -128q-22 -1 -41.5 -6t-36.5 -13t-32 -18.5t-27 -24
t-21.5 -28.5t-16 -32.5t-10 -35.5t-3.5 -38zM251 641q14 0 25 11.5t11 25.5q0 16 -11 26.5t-25 10.5t-25 -10.5t-11 -26.5q0 -14 11 -25.5t25 -11.5z" />
    <glyph glyph-name="Agrave" unicode="&#xc0;" horiz-adv-x="646" 
d="M346 700h-46l-300 -700h51l88 209h366l89 -209h52zM158 253l164 386l164 -386h-328zM266 892h-64l113 -112h54z" />
    <glyph glyph-name="Aacute" unicode="&#xc1;" horiz-adv-x="646" 
d="M346 700h-46l-300 -700h51l88 209h366l89 -209h52zM158 253l164 386l164 -386h-328zM379 892l-103 -112h52l115 112h-64z" />
    <glyph glyph-name="Acircumflex" unicode="&#xc2;" horiz-adv-x="646" 
d="M346 700h-46l-300 -700h51l88 209h366l89 -209h52zM158 253l164 386l164 -386h-328zM241 780l83 80l83 -80h50l-108 112h-51l-107 -112h50z" />
    <glyph glyph-name="Atilde" unicode="&#xc3;" horiz-adv-x="646" 
d="M346 700h-46l-300 -700h51l88 209h366l89 -209h52zM158 253l164 386l164 -386h-328zM265 886q-29 0 -49.5 -23.5t-33.5 -66.5l34 -9q12 36 23 48.5t26 12.5q5 0 10 -2t10.5 -5.5t12 -8t13 -9.5t13.5 -10t14 -9.5t14.5 -8t15 -5.5t14.5 -2q29 0 50 23.5t34 66.5l-35 9
q-12 -35 -23 -47.5t-25 -12.5q-5 0 -10 2t-11 5.5t-12.5 8t-13 9.5t-13.5 9.5l-14 9t-14.5 8t-15 5.5t-14.5 2z" />
    <glyph glyph-name="Adieresis" unicode="&#xc4;" horiz-adv-x="646" 
d="M346 700h-46l-300 -700h51l88 209h366l89 -209h52zM158 253l164 386l164 -386h-328zM248 804q14 0 25 11t11 26t-11 25.5t-25 10.5t-25 -10.5t-11 -25.5t11 -26t25 -11zM400 804q14 0 25 11t11 26t-11 25.5t-25 10.5t-25 -10.5t-11 -25.5t11 -26t25 -11z" />
    <glyph glyph-name="Aring" unicode="&#xc5;" horiz-adv-x="646" 
d="M346 700h-46l-300 -700h51l88 209h366l89 -209h52zM158 253l164 386l164 -386h-328zM324 765q41 0 69.5 28.5t28.5 67.5q0 40 -28.5 68.5t-69.5 28.5t-69.5 -28.5t-28.5 -68.5q0 -39 28.5 -67.5t69.5 -28.5zM324 796q-28 0 -46.5 19t-18.5 46t18.5 46.5t46.5 19.5
t46.5 -19.5t18.5 -46.5t-18.5 -46t-46.5 -19z" />
    <glyph glyph-name="AE" unicode="&#xc6;" horiz-adv-x="868" 
d="M828 43h-345v286h335v44h-335v284h345v43h-407l-426 -700h56l119 198h265v-198h393v43zM197 242l238 395v-395h-238z" />
    <glyph glyph-name="Ccedilla" unicode="&#xc7;" horiz-adv-x="739" 
d="M35 349q0 -29 4.5 -57t13 -54t20.5 -50t27.5 -46t34 -41.5t40 -35.5t45 -29t49 -22.5t53 -15.5t56.5 -7l-23 -80h23q31 0 49.5 -14t18.5 -37t-16 -37t-41 -14q-20 0 -38 9t-30 25l-29 -23q15 -21 41.5 -33.5t54.5 -12.5q42 0 69.5 24.5t27.5 61.5q0 34 -24 56t-63 24
l13 50q94 4 171.5 51t123.5 121l-41 21q-42 -67 -113 -108t-155 -41q-26 0 -51 4t-48.5 12t-45.5 19t-41.5 25.5t-36.5 31.5t-31 36.5t-25 41.5t-19 45.5t-12 48.5t-4 51t4 51.5t12 49t19 45t25 41.5t31 37t36.5 31.5t41.5 26t45.5 19.5t48.5 12t51 4q84 0 155 -41.5
t112 -108.5l41 23q-47 77 -129 124t-179 47q-30 0 -59 -4.5t-56 -13.5t-52 -22t-47.5 -29.5t-42 -36t-36 -42t-29.5 -47.5t-22 -52t-13.5 -55.5t-4.5 -58.5z" />
    <glyph glyph-name="Egrave" unicode="&#xc8;" horiz-adv-x="494" 
d="M60 0h394v43h-346v286h336v44h-336v284h346v43h-394v-700zM210 892h-64l113 -112h54z" />
    <glyph glyph-name="Eacute" unicode="&#xc9;" horiz-adv-x="494" 
d="M60 0h394v43h-346v286h336v44h-336v284h346v43h-394v-700zM323 892l-103 -112h52l115 112h-64z" />
    <glyph glyph-name="Ecircumflex" unicode="&#xca;" horiz-adv-x="494" 
d="M60 0h394v43h-346v286h336v44h-336v284h346v43h-394v-700zM185 780l83 80l83 -80h50l-108 112h-51l-107 -112h50z" />
    <glyph glyph-name="Edieresis" unicode="&#xcb;" horiz-adv-x="494" 
d="M60 0h394v43h-346v286h336v44h-336v284h346v43h-394v-700zM192 804q14 0 25 11t11 26t-11 25.5t-25 10.5t-25 -10.5t-11 -25.5t11 -26t25 -11zM344 804q14 0 25 11t11 26t-11 25.5t-25 10.5t-25 -10.5t-11 -25.5t11 -26t25 -11z" />
    <glyph glyph-name="Igrave" unicode="&#xcc;" horiz-adv-x="168" 
d="M108 0v700h-48v-700h48zM27 892h-64l113 -112h54z" />
    <glyph glyph-name="Iacute" unicode="&#xcd;" horiz-adv-x="168" 
d="M108 0v700h-48v-700h48zM140 892l-103 -112h52l115 112h-64z" />
    <glyph glyph-name="Icircumflex" unicode="&#xce;" horiz-adv-x="168" 
d="M108 0v700h-48v-700h48zM2 780l83 80l83 -80h50l-108 112h-51l-107 -112h50z" />
    <glyph glyph-name="Idieresis" unicode="&#xcf;" horiz-adv-x="168" 
d="M108 0v700h-48v-700h48zM9 804q14 0 25 11t11 26t-11 25.5t-25 10.5t-25 -10.5t-11 -25.5t11 -26t25 -11zM161 804q14 0 25 11t11 26t-11 25.5t-25 10.5t-25 -10.5t-11 -25.5t11 -26t25 -11z" />
    <glyph glyph-name="Eth" unicode="&#xd0;" horiz-adv-x="710" 
d="M5 325h69v-325h249q29 0 57 4.5t54.5 13t50.5 21t46 28.5t41 35t35 40.5t28.5 45.5t21.5 50t13.5 54t4.5 57t-4.5 57t-13.5 54t-21.5 50.5t-28.5 46t-35 40.5t-41 35t-46 28.5t-50.5 21.5t-54.5 13.5t-57 4.5h-249v-332h-69v-43zM324 657q25 0 49 -4t47 -12t43.5 -19
t39.5 -25t35.5 -30.5t30.5 -36t24.5 -40.5t18 -44t11.5 -47.5t4 -49.5t-4 -49.5t-11.5 -47.5t-18 -44t-24.5 -40t-30.5 -35.5t-35.5 -30.5t-39.5 -25t-43.5 -18.5t-47 -11.5t-49 -4h-202v282h193v43h-193v289h202z" />
    <glyph glyph-name="Ntilde" unicode="&#xd1;" horiz-adv-x="674" 
d="M107 0l-1 631l455 -631h53v700h-47l1 -629l-454 629h-54v-700h47zM278 886q-29 0 -49.5 -23.5t-33.5 -66.5l34 -9q12 36 23 48.5t26 12.5q5 0 10 -2t10.5 -5.5t12 -8t13 -9.5t13.5 -10t14 -9.5t14.5 -8t15 -5.5t14.5 -2q29 0 50 23.5t34 66.5l-35 9q-12 -35 -23 -47.5
t-25 -12.5q-5 0 -10 2t-11 5.5t-12.5 8t-13 9.5t-13.5 9.5l-14 9t-14.5 8t-15 5.5t-14.5 2z" />
    <glyph glyph-name="Ograve" unicode="&#xd2;" horiz-adv-x="794" 
d="M35 349q0 -30 4.5 -58.5t13.5 -55.5t22 -51.5t29.5 -47t36 -42t42 -36t47.5 -29t52 -21.5t56 -13.5t59 -4.5t58.5 4.5t55.5 13.5t52 21.5t47.5 29t42.5 36t36.5 42t29.5 47t22 51.5t13.5 55.5t4.5 58.5t-4.5 58.5t-13.5 55.5t-22 52t-29.5 47.5t-36.5 42t-42.5 36
t-47.5 29.5t-52 22t-55.5 13.5t-58.5 4.5t-59 -4.5t-56 -13.5t-52 -22t-47.5 -29.5t-42 -36t-36 -42t-29.5 -47.5t-22 -52t-13.5 -55.5t-4.5 -58.5zM83 349q0 26 4 51.5t12 49t19 45t25 41.5t31 37t36.5 31.5t41.5 26t45.5 19.5t48.5 12t51 4t51 -4t48.5 -12t45 -19.5
t41 -26t36.5 -31.5t31.5 -37t25.5 -41.5t19 -45t12 -49t4 -51.5t-4 -51t-12 -48.5t-19 -45.5t-25.5 -41.5t-31.5 -36.5t-36.5 -31.5t-41 -25.5t-45 -19t-48.5 -12t-51 -4t-51 4t-48.5 12t-45.5 19t-41.5 25.5t-36.5 31.5t-31 36.5t-25 41.5t-19 45.5t-12 48.5t-4 51z
M339 892h-64l113 -112h54z" />
    <glyph glyph-name="Oacute" unicode="&#xd3;" horiz-adv-x="794" 
d="M35 349q0 -30 4.5 -58.5t13.5 -55.5t22 -51.5t29.5 -47t36 -42t42 -36t47.5 -29t52 -21.5t56 -13.5t59 -4.5t58.5 4.5t55.5 13.5t52 21.5t47.5 29t42.5 36t36.5 42t29.5 47t22 51.5t13.5 55.5t4.5 58.5t-4.5 58.5t-13.5 55.5t-22 52t-29.5 47.5t-36.5 42t-42.5 36
t-47.5 29.5t-52 22t-55.5 13.5t-58.5 4.5t-59 -4.5t-56 -13.5t-52 -22t-47.5 -29.5t-42 -36t-36 -42t-29.5 -47.5t-22 -52t-13.5 -55.5t-4.5 -58.5zM83 349q0 26 4 51.5t12 49t19 45t25 41.5t31 37t36.5 31.5t41.5 26t45.5 19.5t48.5 12t51 4t51 -4t48.5 -12t45 -19.5
t41 -26t36.5 -31.5t31.5 -37t25.5 -41.5t19 -45t12 -49t4 -51.5t-4 -51t-12 -48.5t-19 -45.5t-25.5 -41.5t-31.5 -36.5t-36.5 -31.5t-41 -25.5t-45 -19t-48.5 -12t-51 -4t-51 4t-48.5 12t-45.5 19t-41.5 25.5t-36.5 31.5t-31 36.5t-25 41.5t-19 45.5t-12 48.5t-4 51z
M452 892l-103 -112h52l115 112h-64z" />
    <glyph glyph-name="Ocircumflex" unicode="&#xd4;" horiz-adv-x="794" 
d="M35 349q0 -30 4.5 -58.5t13.5 -55.5t22 -51.5t29.5 -47t36 -42t42 -36t47.5 -29t52 -21.5t56 -13.5t59 -4.5t58.5 4.5t55.5 13.5t52 21.5t47.5 29t42.5 36t36.5 42t29.5 47t22 51.5t13.5 55.5t4.5 58.5t-4.5 58.5t-13.5 55.5t-22 52t-29.5 47.5t-36.5 42t-42.5 36
t-47.5 29.5t-52 22t-55.5 13.5t-58.5 4.5t-59 -4.5t-56 -13.5t-52 -22t-47.5 -29.5t-42 -36t-36 -42t-29.5 -47.5t-22 -52t-13.5 -55.5t-4.5 -58.5zM83 349q0 26 4 51.5t12 49t19 45t25 41.5t31 37t36.5 31.5t41.5 26t45.5 19.5t48.5 12t51 4t51 -4t48.5 -12t45 -19.5
t41 -26t36.5 -31.5t31.5 -37t25.5 -41.5t19 -45t12 -49t4 -51.5t-4 -51t-12 -48.5t-19 -45.5t-25.5 -41.5t-31.5 -36.5t-36.5 -31.5t-41 -25.5t-45 -19t-48.5 -12t-51 -4t-51 4t-48.5 12t-45.5 19t-41.5 25.5t-36.5 31.5t-31 36.5t-25 41.5t-19 45.5t-12 48.5t-4 51z
M314 780l83 80l83 -80h50l-108 112h-51l-107 -112h50z" />
    <glyph glyph-name="Otilde" unicode="&#xd5;" horiz-adv-x="794" 
d="M35 349q0 -30 4.5 -58.5t13.5 -55.5t22 -51.5t29.5 -47t36 -42t42 -36t47.5 -29t52 -21.5t56 -13.5t59 -4.5t58.5 4.5t55.5 13.5t52 21.5t47.5 29t42.5 36t36.5 42t29.5 47t22 51.5t13.5 55.5t4.5 58.5t-4.5 58.5t-13.5 55.5t-22 52t-29.5 47.5t-36.5 42t-42.5 36
t-47.5 29.5t-52 22t-55.5 13.5t-58.5 4.5t-59 -4.5t-56 -13.5t-52 -22t-47.5 -29.5t-42 -36t-36 -42t-29.5 -47.5t-22 -52t-13.5 -55.5t-4.5 -58.5zM83 349q0 26 4 51.5t12 49t19 45t25 41.5t31 37t36.5 31.5t41.5 26t45.5 19.5t48.5 12t51 4t51 -4t48.5 -12t45 -19.5
t41 -26t36.5 -31.5t31.5 -37t25.5 -41.5t19 -45t12 -49t4 -51.5t-4 -51t-12 -48.5t-19 -45.5t-25.5 -41.5t-31.5 -36.5t-36.5 -31.5t-41 -25.5t-45 -19t-48.5 -12t-51 -4t-51 4t-48.5 12t-45.5 19t-41.5 25.5t-36.5 31.5t-31 36.5t-25 41.5t-19 45.5t-12 48.5t-4 51z
M338 886q-29 0 -49.5 -23.5t-33.5 -66.5l34 -9q12 36 23 48.5t26 12.5q5 0 10 -2t10.5 -5.5t12 -8t13 -9.5t13.5 -10t14 -9.5t14.5 -8t15 -5.5t14.5 -2q29 0 50 23.5t34 66.5l-35 9q-12 -35 -23 -47.5t-25 -12.5q-5 0 -10 2t-11 5.5t-12.5 8t-13 9.5t-13.5 9.5l-14 9
t-14.5 8t-15 5.5t-14.5 2z" />
    <glyph glyph-name="Odieresis" unicode="&#xd6;" horiz-adv-x="794" 
d="M35 349q0 -30 4.5 -58.5t13.5 -55.5t22 -51.5t29.5 -47t36 -42t42 -36t47.5 -29t52 -21.5t56 -13.5t59 -4.5t58.5 4.5t55.5 13.5t52 21.5t47.5 29t42.5 36t36.5 42t29.5 47t22 51.5t13.5 55.5t4.5 58.5t-4.5 58.5t-13.5 55.5t-22 52t-29.5 47.5t-36.5 42t-42.5 36
t-47.5 29.5t-52 22t-55.5 13.5t-58.5 4.5t-59 -4.5t-56 -13.5t-52 -22t-47.5 -29.5t-42 -36t-36 -42t-29.5 -47.5t-22 -52t-13.5 -55.5t-4.5 -58.5zM83 349q0 26 4 51.5t12 49t19 45t25 41.5t31 37t36.5 31.5t41.5 26t45.5 19.5t48.5 12t51 4t51 -4t48.5 -12t45 -19.5
t41 -26t36.5 -31.5t31.5 -37t25.5 -41.5t19 -45t12 -49t4 -51.5t-4 -51t-12 -48.5t-19 -45.5t-25.5 -41.5t-31.5 -36.5t-36.5 -31.5t-41 -25.5t-45 -19t-48.5 -12t-51 -4t-51 4t-48.5 12t-45.5 19t-41.5 25.5t-36.5 31.5t-31 36.5t-25 41.5t-19 45.5t-12 48.5t-4 51z
M321 804q14 0 25 11t11 26t-11 25.5t-25 10.5t-25 -10.5t-11 -25.5t11 -26t25 -11zM473 804q14 0 25 11t11 26t-11 25.5t-25 10.5t-25 -10.5t-11 -25.5t11 -26t25 -11z" />
    <glyph glyph-name="multiply" unicode="&#xd7;" horiz-adv-x="535" 
d="M110 171l157 159l157 -160l30 30l-158 160l157 159l-29 29l-156 -159l-157 159l-30 -30l157 -159l-157 -159z" />
    <glyph glyph-name="Oslash" unicode="&#xd8;" horiz-adv-x="794" 
d="M77 0h53l51 60q45 -33 100.5 -51.5t115.5 -18.5q30 0 58.5 4.5t55.5 13.5t52 21.5t47.5 29t42.5 36t36.5 42t29.5 47t22 51.5t13.5 55.5t4.5 58.5q0 78 -31 146.5t-84 117.5l73 87h-54l-51 -61q-45 34 -100 52.5t-115 18.5q-30 0 -59 -4.5t-56 -13.5t-52 -22t-47.5 -29.5
t-42 -36t-36 -42t-29.5 -47.5t-22 -52t-13.5 -55.5t-4.5 -58.5q0 -78 31 -146t83 -117zM83 349q0 26 4 51.5t12 49t19 45t25 41.5t31 37t36.5 31.5t41.5 26t45.5 19.5t48.5 12t51 4q52 0 99.5 -16.5t86.5 -44.5l-404 -483q-44 43 -70 101.5t-26 125.5zM711 349q0 -26 -4 -51
t-12 -48.5t-19 -45.5t-25.5 -41.5t-31.5 -36.5t-36.5 -31.5t-41 -25.5t-45 -19t-48.5 -12t-51 -4q-52 0 -100 16.5t-87 44.5l405 483q44 -43 70 -102.5t26 -126.5z" />
    <glyph glyph-name="Ugrave" unicode="&#xd9;" horiz-adv-x="622" 
d="M101 257v443h-48v-442q0 -30 5 -57.5t14.5 -52t23 -45.5t31 -38.5t37.5 -31t43 -22.5t48 -14t51 -5q66 0 121 31t87 85v-108h48v700h-48v-443q0 -25 -4 -48t-12 -43t-19.5 -37.5t-25.5 -32t-30.5 -26t-35.5 -19t-39 -11.5t-42 -4t-42.5 4t-39 11.5t-35 19t-30 26
t-24.5 32t-18.5 37.5t-11.5 43t-4 48zM250 892h-64l113 -112h54z" />
    <glyph glyph-name="Uacute" unicode="&#xda;" horiz-adv-x="622" 
d="M101 257v443h-48v-442q0 -30 5 -57.5t14.5 -52t23 -45.5t31 -38.5t37.5 -31t43 -22.5t48 -14t51 -5q66 0 121 31t87 85v-108h48v700h-48v-443q0 -25 -4 -48t-12 -43t-19.5 -37.5t-25.5 -32t-30.5 -26t-35.5 -19t-39 -11.5t-42 -4t-42.5 4t-39 11.5t-35 19t-30 26
t-24.5 32t-18.5 37.5t-11.5 43t-4 48zM363 892l-103 -112h52l115 112h-64z" />
    <glyph glyph-name="Ucircumflex" unicode="&#xdb;" horiz-adv-x="622" 
d="M101 257v443h-48v-442q0 -30 5 -57.5t14.5 -52t23 -45.5t31 -38.5t37.5 -31t43 -22.5t48 -14t51 -5q66 0 121 31t87 85v-108h48v700h-48v-443q0 -25 -4 -48t-12 -43t-19.5 -37.5t-25.5 -32t-30.5 -26t-35.5 -19t-39 -11.5t-42 -4t-42.5 4t-39 11.5t-35 19t-30 26
t-24.5 32t-18.5 37.5t-11.5 43t-4 48zM225 780l83 80l83 -80h50l-108 112h-51l-107 -112h50z" />
    <glyph glyph-name="Udieresis" unicode="&#xdc;" horiz-adv-x="622" 
d="M101 257v443h-48v-442q0 -30 5 -57.5t14.5 -52t23 -45.5t31 -38.5t37.5 -31t43 -22.5t48 -14t51 -5q66 0 121 31t87 85v-108h48v700h-48v-443q0 -25 -4 -48t-12 -43t-19.5 -37.5t-25.5 -32t-30.5 -26t-35.5 -19t-39 -11.5t-42 -4t-42.5 4t-39 11.5t-35 19t-30 26
t-24.5 32t-18.5 37.5t-11.5 43t-4 48zM232 804q14 0 25 11t11 26t-11 25.5t-25 10.5t-25 -10.5t-11 -25.5t11 -26t25 -11zM384 804q14 0 25 11t11 26t-11 25.5t-25 10.5t-25 -10.5t-11 -25.5t11 -26t25 -11z" />
    <glyph glyph-name="Yacute" unicode="&#xdd;" horiz-adv-x="557" 
d="M302 0v316l260 384h-51l-232 -343l-232 343h-52l259 -381v-319h48zM336 892l-103 -112h52l115 112h-64z" />
    <glyph glyph-name="Thorn" unicode="&#xde;" horiz-adv-x="517" 
d="M108 700h-48v-700h48v151h175q22 0 43 4t39.5 11.5t34.5 18t30 24t24.5 29.5t18 34t11.5 37t4 40t-4 40.5t-11.5 37.5t-18 34t-24.5 30t-30 25t-34.5 18.5t-39.5 11.5t-43 4h-175v150zM283 506q68 0 113 -46.5t45 -110.5t-45 -109.5t-113 -45.5h-175v312h175z" />
    <glyph glyph-name="germandbls" unicode="&#xdf;" horiz-adv-x="530" 
d="M299 392l61 40q39 25 57.5 52t18.5 71q0 69 -53 114t-131 45q-86 0 -141.5 -56t-55.5 -149v-509h46v509q0 72 42 118t108 46q60 0 100 -34t40 -85q0 -28 -13.5 -48t-38.5 -36l-67 -44q-39 -25 -53.5 -46.5t-14.5 -54.5q0 -37 29.5 -59.5t80.5 -37.5l70 -21q36 -10 57 -30
t21 -54q0 -38 -28.5 -64.5t-77.5 -26.5q-53 0 -86.5 28.5t-40.5 68.5h-46q9 -57 55 -97.5t116 -40.5q68 0 110.5 38t42.5 98q0 46 -30 76.5t-81 46.5l-70 21q-34 10 -55 23t-21 36q0 18 11.5 31.5t37.5 30.5z" />
    <glyph glyph-name="agrave" unicode="&#xe0;" horiz-adv-x="472" 
d="M28 135q0 -65 47.5 -104.5t118.5 -39.5q53 0 95.5 24t65.5 64v-13q0 -31 20.5 -48.5t54.5 -17.5h29v43h-24q-16 0 -24.5 7.5t-8.5 21.5v279q0 69 -45.5 110t-121.5 41q-51 0 -91.5 -16t-77.5 -50l30 -33q28 30 61.5 44t73.5 14q59 0 91.5 -31t32.5 -85v-60l-170 -11
q-74 -5 -115.5 -42t-41.5 -97zM74 134q0 43 30.5 69t87.5 30l163 11v-59q0 -63 -46 -107.5t-112 -44.5q-54 0 -88.5 29t-34.5 72zM172 687h-64l113 -112h54z" />
    <glyph glyph-name="aacute" unicode="&#xe1;" horiz-adv-x="472" 
d="M28 135q0 -65 47.5 -104.5t118.5 -39.5q53 0 95.5 24t65.5 64v-13q0 -31 20.5 -48.5t54.5 -17.5h29v43h-24q-16 0 -24.5 7.5t-8.5 21.5v279q0 69 -45.5 110t-121.5 41q-51 0 -91.5 -16t-77.5 -50l30 -33q28 30 61.5 44t73.5 14q59 0 91.5 -31t32.5 -85v-60l-170 -11
q-74 -5 -115.5 -42t-41.5 -97zM74 134q0 43 30.5 69t87.5 30l163 11v-59q0 -63 -46 -107.5t-112 -44.5q-54 0 -88.5 29t-34.5 72zM285 687l-103 -112h52l115 112h-64z" />
    <glyph glyph-name="acircumflex" unicode="&#xe2;" horiz-adv-x="472" 
d="M28 135q0 -65 47.5 -104.5t118.5 -39.5q53 0 95.5 24t65.5 64v-13q0 -31 20.5 -48.5t54.5 -17.5h29v43h-24q-16 0 -24.5 7.5t-8.5 21.5v279q0 69 -45.5 110t-121.5 41q-51 0 -91.5 -16t-77.5 -50l30 -33q28 30 61.5 44t73.5 14q59 0 91.5 -31t32.5 -85v-60l-170 -11
q-74 -5 -115.5 -42t-41.5 -97zM74 134q0 43 30.5 69t87.5 30l163 11v-59q0 -63 -46 -107.5t-112 -44.5q-54 0 -88.5 29t-34.5 72zM147 575l83 80l83 -80h50l-108 112h-51l-107 -112h50z" />
    <glyph glyph-name="atilde" unicode="&#xe3;" horiz-adv-x="472" 
d="M28 135q0 -65 47.5 -104.5t118.5 -39.5q53 0 95.5 24t65.5 64v-13q0 -31 20.5 -48.5t54.5 -17.5h29v43h-24q-16 0 -24.5 7.5t-8.5 21.5v279q0 69 -45.5 110t-121.5 41q-51 0 -91.5 -16t-77.5 -50l30 -33q28 30 61.5 44t73.5 14q59 0 91.5 -31t32.5 -85v-60l-170 -11
q-74 -5 -115.5 -42t-41.5 -97zM74 134q0 43 30.5 69t87.5 30l163 11v-59q0 -63 -46 -107.5t-112 -44.5q-54 0 -88.5 29t-34.5 72zM171 681q-29 0 -49.5 -23.5t-33.5 -66.5l34 -9q12 36 23 48.5t26 12.5q5 0 10 -2t10.5 -5.5t12 -8t13 -9.5t13.5 -10t14 -9.5t14.5 -8t15 -5.5
t14.5 -2q29 0 50 23.5t34 66.5l-35 9q-12 -35 -23 -47.5t-25 -12.5q-5 0 -10 2t-11 5.5t-12.5 8t-13 9.5t-13.5 9.5l-14 9t-14.5 8t-15 5.5t-14.5 2z" />
    <glyph glyph-name="adieresis" unicode="&#xe4;" horiz-adv-x="472" 
d="M28 135q0 -65 47.5 -104.5t118.5 -39.5q53 0 95.5 24t65.5 64v-13q0 -31 20.5 -48.5t54.5 -17.5h29v43h-24q-16 0 -24.5 7.5t-8.5 21.5v279q0 69 -45.5 110t-121.5 41q-51 0 -91.5 -16t-77.5 -50l30 -33q28 30 61.5 44t73.5 14q59 0 91.5 -31t32.5 -85v-60l-170 -11
q-74 -5 -115.5 -42t-41.5 -97zM74 134q0 43 30.5 69t87.5 30l163 11v-59q0 -63 -46 -107.5t-112 -44.5q-54 0 -88.5 29t-34.5 72zM154 599q14 0 25 11t11 26t-11 25.5t-25 10.5t-25 -10.5t-11 -25.5t11 -26t25 -11zM306 599q14 0 25 11t11 26t-11 25.5t-25 10.5t-25 -10.5
t-11 -25.5t11 -26t25 -11z" />
    <glyph glyph-name="aring" unicode="&#xe5;" horiz-adv-x="472" 
d="M28 135q0 -65 47.5 -104.5t118.5 -39.5q53 0 95.5 24t65.5 64v-13q0 -31 20.5 -48.5t54.5 -17.5h29v43h-24q-16 0 -24.5 7.5t-8.5 21.5v279q0 69 -45.5 110t-121.5 41q-51 0 -91.5 -16t-77.5 -50l30 -33q28 30 61.5 44t73.5 14q59 0 91.5 -31t32.5 -85v-60l-170 -11
q-74 -5 -115.5 -42t-41.5 -97zM74 134q0 43 30.5 69t87.5 30l163 11v-59q0 -63 -46 -107.5t-112 -44.5q-54 0 -88.5 29t-34.5 72zM230 560q41 0 69.5 28.5t28.5 67.5q0 40 -28.5 68.5t-69.5 28.5t-69.5 -28.5t-28.5 -68.5q0 -39 28.5 -67.5t69.5 -28.5zM230 591
q-28 0 -46.5 19t-18.5 46t18.5 46.5t46.5 19.5t46.5 -19.5t18.5 -46.5t-18.5 -46t-46.5 -19z" />
    <glyph glyph-name="ae" unicode="&#xe6;" horiz-adv-x="878" 
d="M610 -8q64 0 118.5 28.5t88.5 76.5l-38 25q-28 -40 -73 -64t-96 -24q-21 0 -41 4t-38.5 12t-34.5 18.5t-30.5 24.5t-26 30.5t-19.5 34.5t-13 38.5t-6 41.5h442v20q0 22 -4 43.5t-11 41.5t-17 38.5t-23.5 34.5t-29 29.5t-33 24t-37 18t-40.5 11.5t-43 4q-66 0 -121 -32
t-87 -85q-11 54 -53.5 85t-108.5 31q-51 0 -91.5 -16t-77.5 -50l30 -33q28 30 61.5 44t73.5 14q59 0 91.5 -31t32.5 -85v-63l-170 -11q-74 -5 -115.5 -41.5t-41.5 -94.5q0 -65 47.5 -104.5t118.5 -39.5q76 0 124 41t66 101q31 -62 91 -101.5t135 -39.5zM606 462
q72 0 126.5 -52.5t62.5 -129.5h-392q11 78 68.5 130t134.5 52zM73 134q0 43 31 67.5t88 28.5l163 11v-56q0 -63 -46 -107.5t-112 -44.5q-54 0 -89 29t-35 72z" />
    <glyph glyph-name="ccedilla" unicode="&#xe7;" horiz-adv-x="521" 
d="M81 248q0 20 3.5 39t9.5 36.5t15.5 33.5t21 30t25 25.5t29 20.5t32.5 15.5t35.5 10t37.5 3.5q51 0 96 -24.5t74 -64.5l37 25q-34 48 -88.5 76.5t-118.5 28.5q-24 0 -46.5 -4t-43.5 -12t-40 -19t-35.5 -25t-30.5 -30.5t-25 -35.5t-18.5 -40t-11.5 -43t-4 -46
q0 -22 3.5 -44t11 -42t17.5 -38.5t23 -35t28.5 -30.5t33 -25.5t37 -20t40.5 -13.5t44 -6l-23 -82h23q31 0 49.5 -14t18.5 -37t-16 -37t-41 -14q-20 0 -38 9t-30 25l-29 -23q15 -21 41.5 -33.5t54.5 -12.5q42 0 69.5 24.5t27.5 61.5q0 34 -24 56t-63 24l13 53q60 3 109.5 31
t81.5 73l-37 25q-29 -40 -74 -64t-96 -24q-19 0 -37.5 3.5t-35.5 10t-32.5 15.5t-29 21t-25 26t-21 30t-15.5 33.5t-9.5 36t-3.5 38.5z" />
    <glyph glyph-name="egrave" unicode="&#xe8;" horiz-adv-x="558" 
d="M35 248q0 -24 4 -46t11.5 -43t18.5 -40t25 -36t30.5 -31t35.5 -25t40 -19t43.5 -12t46.5 -4q64 0 118.5 28.5t88.5 76.5l-37 25q-28 -40 -73.5 -64t-96.5 -24q-21 0 -40.5 4t-37.5 11.5t-34.5 18.5t-30.5 24.5t-25.5 29.5t-20 34t-14 38t-6.5 41h442v23q0 22 -4 43.5
t-11 41.5t-17 38.5t-23 34.5t-28.5 29.5t-33 24t-37 18t-40.5 11.5t-43 4q-24 0 -46 -4t-42.5 -12t-39 -19t-35 -25t-30 -30.5t-24.5 -35.5t-18.5 -39.5t-11.5 -43t-4 -46.5zM286 462q73 0 127.5 -53.5t61.5 -131.5h-392q10 78 68 131.5t135 53.5zM229 687h-64l113 -112h54z
" />
    <glyph glyph-name="eacute" unicode="&#xe9;" horiz-adv-x="558" 
d="M35 248q0 -24 4 -46t11.5 -43t18.5 -40t25 -36t30.5 -31t35.5 -25t40 -19t43.5 -12t46.5 -4q64 0 118.5 28.5t88.5 76.5l-37 25q-28 -40 -73.5 -64t-96.5 -24q-21 0 -40.5 4t-37.5 11.5t-34.5 18.5t-30.5 24.5t-25.5 29.5t-20 34t-14 38t-6.5 41h442v23q0 22 -4 43.5
t-11 41.5t-17 38.5t-23 34.5t-28.5 29.5t-33 24t-37 18t-40.5 11.5t-43 4q-24 0 -46 -4t-42.5 -12t-39 -19t-35 -25t-30 -30.5t-24.5 -35.5t-18.5 -39.5t-11.5 -43t-4 -46.5zM286 462q73 0 127.5 -53.5t61.5 -131.5h-392q10 78 68 131.5t135 53.5zM342 687l-103 -112h52
l115 112h-64z" />
    <glyph glyph-name="ecircumflex" unicode="&#xea;" horiz-adv-x="558" 
d="M35 248q0 -24 4 -46t11.5 -43t18.5 -40t25 -36t30.5 -31t35.5 -25t40 -19t43.5 -12t46.5 -4q64 0 118.5 28.5t88.5 76.5l-37 25q-28 -40 -73.5 -64t-96.5 -24q-21 0 -40.5 4t-37.5 11.5t-34.5 18.5t-30.5 24.5t-25.5 29.5t-20 34t-14 38t-6.5 41h442v23q0 22 -4 43.5
t-11 41.5t-17 38.5t-23 34.5t-28.5 29.5t-33 24t-37 18t-40.5 11.5t-43 4q-24 0 -46 -4t-42.5 -12t-39 -19t-35 -25t-30 -30.5t-24.5 -35.5t-18.5 -39.5t-11.5 -43t-4 -46.5zM286 462q73 0 127.5 -53.5t61.5 -131.5h-392q10 78 68 131.5t135 53.5zM204 575l83 80l83 -80h50
l-108 112h-51l-107 -112h50z" />
    <glyph glyph-name="edieresis" unicode="&#xeb;" horiz-adv-x="558" 
d="M35 248q0 -24 4 -46t11.5 -43t18.5 -40t25 -36t30.5 -31t35.5 -25t40 -19t43.5 -12t46.5 -4q64 0 118.5 28.5t88.5 76.5l-37 25q-28 -40 -73.5 -64t-96.5 -24q-21 0 -40.5 4t-37.5 11.5t-34.5 18.5t-30.5 24.5t-25.5 29.5t-20 34t-14 38t-6.5 41h442v23q0 22 -4 43.5
t-11 41.5t-17 38.5t-23 34.5t-28.5 29.5t-33 24t-37 18t-40.5 11.5t-43 4q-24 0 -46 -4t-42.5 -12t-39 -19t-35 -25t-30 -30.5t-24.5 -35.5t-18.5 -39.5t-11.5 -43t-4 -46.5zM286 462q73 0 127.5 -53.5t61.5 -131.5h-392q10 78 68 131.5t135 53.5zM211 599q14 0 25 11t11 26
t-11 25.5t-25 10.5t-25 -10.5t-11 -25.5t11 -26t25 -11zM363 599q14 0 25 11t11 26t-11 25.5t-25 10.5t-25 -10.5t-11 -25.5t11 -26t25 -11z" />
    <glyph glyph-name="igrave" unicode="&#xec;" horiz-adv-x="157" 
d="M101 495h-46v-495h46v495zM21 687h-64l113 -112h54z" />
    <glyph glyph-name="iacute" unicode="&#xed;" horiz-adv-x="157" 
d="M101 495h-46v-495h46v495zM134 687l-103 -112h52l115 112h-64z" />
    <glyph glyph-name="icircumflex" unicode="&#xee;" horiz-adv-x="157" 
d="M101 495h-46v-495h46v495zM-4 575l83 80l83 -80h50l-108 112h-51l-107 -112h50z" />
    <glyph glyph-name="idieresis" unicode="&#xef;" horiz-adv-x="157" 
d="M101 495h-46v-495h46v495zM3 599q14 0 25 11t11 26t-11 25.5t-25 10.5t-25 -10.5t-11 -25.5t11 -26t25 -11zM155 599q14 0 25 11t11 26t-11 25.5t-25 10.5t-25 -10.5t-11 -25.5t11 -26t25 -11z" />
    <glyph glyph-name="eth" unicode="&#xf0;" horiz-adv-x="582" 
d="M260 534l109 67q47 -42 76.5 -101t39.5 -130q-30 56 -84 89t-120 33q-23 0 -45.5 -4t-42.5 -11t-38.5 -17.5t-34.5 -24t-29 -29.5t-23.5 -34t-17.5 -38.5t-11 -42.5t-4 -45q0 -24 4 -46.5t11.5 -43.5t18 -40t24 -36t29.5 -31t34 -25t38 -18.5t42 -11.5t45 -4
q28 0 53.5 5.5t48 15.5t42.5 24.5t36.5 33.5t29.5 41.5t22 48.5t13.5 54.5t4.5 59.5v21q0 104 -32 188.5t-92 142.5l103 63l-22 35l-114 -70q-31 22 -67 39t-77 27l-15 -38q34 -8 64 -21.5t56 -30.5l-97 -60zM282 34q-21 0 -40.5 4t-38 12t-34 19t-29.5 25t-24.5 30.5
t-18 35.5t-11.5 39.5t-4 42.5t4 42.5t11.5 39.5t18 35.5t24.5 30.5t29.5 25t34 19t38 12t40.5 4t40.5 -4t38 -12t34 -19t29.5 -25t24.5 -30.5t18 -35.5t11.5 -39.5t4 -42.5t-4 -42.5t-11.5 -39.5t-18 -35.5t-24.5 -30.5t-29.5 -25t-34 -19t-38 -12t-40.5 -4z" />
    <glyph glyph-name="ntilde" unicode="&#xf1;" 
d="M447 320q0 19 -3.5 37t-10 34.5t-15.5 31t-21 27t-26.5 22.5t-31 17t-35.5 10.5t-39 3.5q-54 0 -98 -24.5t-66 -67.5v84h-46v-495h46v303q0 67 44.5 112.5t113.5 45.5q64 0 103 -42.5t39 -106.5v-312h46v320zM193 681q-29 0 -49.5 -23.5t-33.5 -66.5l34 -9q12 36 23 48.5
t26 12.5q5 0 10 -2t10.5 -5.5t12 -8t13 -9.5t13.5 -10t14 -9.5t14.5 -8t15 -5.5t14.5 -2q29 0 50 23.5t34 66.5l-35 9q-12 -35 -23 -47.5t-25 -12.5q-5 0 -10 2t-11 5.5t-12.5 8t-13 9.5t-13.5 9.5l-14 9t-14.5 8t-15 5.5t-14.5 2z" />
    <glyph glyph-name="ograve" unicode="&#xf2;" horiz-adv-x="580" 
d="M545 248q0 24 -4 46t-11.5 43t-18.5 40t-25 35.5t-30.5 30.5t-35.5 25t-40 19t-43.5 12t-46.5 4t-46.5 -4t-43.5 -12t-40 -19t-35.5 -25t-30.5 -30.5t-25 -35.5t-18.5 -40t-11.5 -43t-4 -46t4 -46t11.5 -43t18.5 -40t25 -36t30.5 -31t35.5 -25t40 -19t43.5 -12t46.5 -4
t46.5 4t43.5 12t40 19t35.5 25t30.5 31t25 36t18.5 40t11.5 43t4 46zM499 248q0 -20 -3.5 -38.5t-10 -36t-15.5 -33.5t-20.5 -30t-25.5 -26t-29.5 -21t-32.5 -15.5t-35 -10t-37 -3.5t-37.5 3.5t-35.5 10t-32.5 15.5t-29 21t-25 26t-21 30t-15.5 33.5t-9.5 36t-3.5 38.5
t3.5 39t9.5 36.5t15.5 33.5t21 30t25 25.5t29 20.5t32.5 15.5t35.5 10t37.5 3.5t37 -3.5t35 -10t32.5 -15.5t29.5 -20.5t25.5 -25.5t20.5 -30t15.5 -33.5t10 -36.5t3.5 -39zM232 687h-64l113 -112h54z" />
    <glyph glyph-name="oacute" unicode="&#xf3;" horiz-adv-x="580" 
d="M545 248q0 24 -4 46t-11.5 43t-18.5 40t-25 35.5t-30.5 30.5t-35.5 25t-40 19t-43.5 12t-46.5 4t-46.5 -4t-43.5 -12t-40 -19t-35.5 -25t-30.5 -30.5t-25 -35.5t-18.5 -40t-11.5 -43t-4 -46t4 -46t11.5 -43t18.5 -40t25 -36t30.5 -31t35.5 -25t40 -19t43.5 -12t46.5 -4
t46.5 4t43.5 12t40 19t35.5 25t30.5 31t25 36t18.5 40t11.5 43t4 46zM499 248q0 -20 -3.5 -38.5t-10 -36t-15.5 -33.5t-20.5 -30t-25.5 -26t-29.5 -21t-32.5 -15.5t-35 -10t-37 -3.5t-37.5 3.5t-35.5 10t-32.5 15.5t-29 21t-25 26t-21 30t-15.5 33.5t-9.5 36t-3.5 38.5
t3.5 39t9.5 36.5t15.5 33.5t21 30t25 25.5t29 20.5t32.5 15.5t35.5 10t37.5 3.5t37 -3.5t35 -10t32.5 -15.5t29.5 -20.5t25.5 -25.5t20.5 -30t15.5 -33.5t10 -36.5t3.5 -39zM345 687l-103 -112h52l115 112h-64z" />
    <glyph glyph-name="ocircumflex" unicode="&#xf4;" horiz-adv-x="580" 
d="M545 248q0 24 -4 46t-11.5 43t-18.5 40t-25 35.5t-30.5 30.5t-35.5 25t-40 19t-43.5 12t-46.5 4t-46.5 -4t-43.5 -12t-40 -19t-35.5 -25t-30.5 -30.5t-25 -35.5t-18.5 -40t-11.5 -43t-4 -46t4 -46t11.5 -43t18.5 -40t25 -36t30.5 -31t35.5 -25t40 -19t43.5 -12t46.5 -4
t46.5 4t43.5 12t40 19t35.5 25t30.5 31t25 36t18.5 40t11.5 43t4 46zM499 248q0 -20 -3.5 -38.5t-10 -36t-15.5 -33.5t-20.5 -30t-25.5 -26t-29.5 -21t-32.5 -15.5t-35 -10t-37 -3.5t-37.5 3.5t-35.5 10t-32.5 15.5t-29 21t-25 26t-21 30t-15.5 33.5t-9.5 36t-3.5 38.5
t3.5 39t9.5 36.5t15.5 33.5t21 30t25 25.5t29 20.5t32.5 15.5t35.5 10t37.5 3.5t37 -3.5t35 -10t32.5 -15.5t29.5 -20.5t25.5 -25.5t20.5 -30t15.5 -33.5t10 -36.5t3.5 -39zM207 575l83 80l83 -80h50l-108 112h-51l-107 -112h50z" />
    <glyph glyph-name="otilde" unicode="&#xf5;" horiz-adv-x="580" 
d="M545 248q0 24 -4 46t-11.5 43t-18.5 40t-25 35.5t-30.5 30.5t-35.5 25t-40 19t-43.5 12t-46.5 4t-46.5 -4t-43.5 -12t-40 -19t-35.5 -25t-30.5 -30.5t-25 -35.5t-18.5 -40t-11.5 -43t-4 -46t4 -46t11.5 -43t18.5 -40t25 -36t30.5 -31t35.5 -25t40 -19t43.5 -12t46.5 -4
t46.5 4t43.5 12t40 19t35.5 25t30.5 31t25 36t18.5 40t11.5 43t4 46zM499 248q0 -20 -3.5 -38.5t-10 -36t-15.5 -33.5t-20.5 -30t-25.5 -26t-29.5 -21t-32.5 -15.5t-35 -10t-37 -3.5t-37.5 3.5t-35.5 10t-32.5 15.5t-29 21t-25 26t-21 30t-15.5 33.5t-9.5 36t-3.5 38.5
t3.5 39t9.5 36.5t15.5 33.5t21 30t25 25.5t29 20.5t32.5 15.5t35.5 10t37.5 3.5t37 -3.5t35 -10t32.5 -15.5t29.5 -20.5t25.5 -25.5t20.5 -30t15.5 -33.5t10 -36.5t3.5 -39zM231 681q-29 0 -49.5 -23.5t-33.5 -66.5l34 -9q12 36 23 48.5t26 12.5q5 0 10 -2t10.5 -5.5t12 -8
t13 -9.5t13.5 -10t14 -9.5t14.5 -8t15 -5.5t14.5 -2q29 0 50 23.5t34 66.5l-35 9q-12 -35 -23 -47.5t-25 -12.5q-5 0 -10 2t-11 5.5t-12.5 8t-13 9.5t-13.5 9.5l-14 9t-14.5 8t-15 5.5t-14.5 2z" />
    <glyph glyph-name="odieresis" unicode="&#xf6;" horiz-adv-x="580" 
d="M545 248q0 24 -4 46t-11.5 43t-18.5 40t-25 35.5t-30.5 30.5t-35.5 25t-40 19t-43.5 12t-46.5 4t-46.5 -4t-43.5 -12t-40 -19t-35.5 -25t-30.5 -30.5t-25 -35.5t-18.5 -40t-11.5 -43t-4 -46t4 -46t11.5 -43t18.5 -40t25 -36t30.5 -31t35.5 -25t40 -19t43.5 -12t46.5 -4
t46.5 4t43.5 12t40 19t35.5 25t30.5 31t25 36t18.5 40t11.5 43t4 46zM499 248q0 -20 -3.5 -38.5t-10 -36t-15.5 -33.5t-20.5 -30t-25.5 -26t-29.5 -21t-32.5 -15.5t-35 -10t-37 -3.5t-37.5 3.5t-35.5 10t-32.5 15.5t-29 21t-25 26t-21 30t-15.5 33.5t-9.5 36t-3.5 38.5
t3.5 39t9.5 36.5t15.5 33.5t21 30t25 25.5t29 20.5t32.5 15.5t35.5 10t37.5 3.5t37 -3.5t35 -10t32.5 -15.5t29.5 -20.5t25.5 -25.5t20.5 -30t15.5 -33.5t10 -36.5t3.5 -39zM214 599q14 0 25 11t11 26t-11 25.5t-25 10.5t-25 -10.5t-11 -25.5t11 -26t25 -11zM366 599
q14 0 25 11t11 26t-11 25.5t-25 10.5t-25 -10.5t-11 -25.5t11 -26t25 -11z" />
    <glyph glyph-name="divide" unicode="&#xf7;" horiz-adv-x="504" 
d="M253 560q-14 0 -25 -11t-11 -25q0 -16 11 -26.5t25 -10.5t24.5 10.5t10.5 26.5q0 14 -10.5 25t-24.5 11zM450 335v42h-397v-42h397zM253 213q-14 0 -25 -10.5t-11 -26.5q0 -14 11 -25t25 -11t24.5 11t10.5 25q0 16 -10.5 26.5t-24.5 10.5z" />
    <glyph glyph-name="oslash" unicode="&#xf8;" horiz-adv-x="581" 
d="M53 0h51l35 41q31 -23 69.5 -36t81.5 -13q24 0 46.5 4t43.5 12t40 19t35.5 25t30.5 31t25 36t18.5 40t11.5 43t4 46q0 53 -20 99.5t-54 80.5l57 67h-50l-36 -42q-31 24 -70 37t-82 13q-24 0 -46.5 -4t-43.5 -12t-40 -19t-35.5 -25t-30.5 -30.5t-25 -35.5t-18.5 -40
t-11.5 -43t-4 -46q0 -53 20 -100t55 -82zM81 248q0 20 3.5 39t9.5 36.5t15.5 33.5t21 30t25 25.5t29 20.5t32.5 15.5t35.5 10t37.5 3.5q34 0 66 -11t58 -31l-275 -320q-27 28 -42.5 66.5t-15.5 81.5zM499 248q0 -20 -3.5 -38.5t-10 -36t-15.5 -33.5t-20.5 -30t-25.5 -26
t-29.5 -21t-32.5 -15.5t-35 -10t-37 -3.5q-34 0 -65.5 10.5t-56.5 29.5l274 321q26 -28 41.5 -66t15.5 -81z" />
    <glyph glyph-name="ugrave" unicode="&#xf9;" 
d="M55 176q0 -19 3.5 -37.5t10 -35t16 -31t21.5 -27t26.5 -22.5t31 -17t35.5 -10.5t39 -3.5q54 0 97.5 24.5t65.5 66.5v-83h46v495h-46v-303q0 -67 -44 -112t-113 -45q-64 0 -103.5 42t-39.5 106v312h-46v-319zM194 687h-64l113 -112h54z" />
    <glyph glyph-name="uacute" unicode="&#xfa;" 
d="M55 176q0 -19 3.5 -37.5t10 -35t16 -31t21.5 -27t26.5 -22.5t31 -17t35.5 -10.5t39 -3.5q54 0 97.5 24.5t65.5 66.5v-83h46v495h-46v-303q0 -67 -44 -112t-113 -45q-64 0 -103.5 42t-39.5 106v312h-46v-319zM307 687l-103 -112h52l115 112h-64z" />
    <glyph glyph-name="ucircumflex" unicode="&#xfb;" 
d="M55 176q0 -19 3.5 -37.5t10 -35t16 -31t21.5 -27t26.5 -22.5t31 -17t35.5 -10.5t39 -3.5q54 0 97.5 24.5t65.5 66.5v-83h46v495h-46v-303q0 -67 -44 -112t-113 -45q-64 0 -103.5 42t-39.5 106v312h-46v-319zM169 575l83 80l83 -80h50l-108 112h-51l-107 -112h50z" />
    <glyph glyph-name="udieresis" unicode="&#xfc;" 
d="M55 176q0 -19 3.5 -37.5t10 -35t16 -31t21.5 -27t26.5 -22.5t31 -17t35.5 -10.5t39 -3.5q54 0 97.5 24.5t65.5 66.5v-83h46v495h-46v-303q0 -67 -44 -112t-113 -45q-64 0 -103.5 42t-39.5 106v312h-46v-319zM176 599q14 0 25 11t11 26t-11 25.5t-25 10.5t-25 -10.5
t-11 -25.5t11 -26t25 -11zM328 599q14 0 25 11t11 26t-11 25.5t-25 10.5t-25 -10.5t-11 -25.5t11 -26t25 -11z" />
    <glyph glyph-name="yacute" unicode="&#xfd;" horiz-adv-x="430" 
d="M155 -82q-12 -30 -32 -45t-52 -15h-42v-43h49q49 0 75.5 26.5t44.5 71.5l237 582h-47l-171 -424l-174 424h-48l198 -482zM270 687l-103 -112h52l115 112h-64z" />
    <glyph glyph-name="thorn" unicode="&#xfe;" horiz-adv-x="599" 
d="M55 700v-885h46v294q32 -54 86.5 -85.5t122.5 -31.5q24 0 46 4t43 12t39.5 19t35.5 25t30.5 30.5t25 35.5t19 40t11.5 43.5t4 46.5t-4 46.5t-11.5 43.5t-18.5 40t-25 35.5t-30.5 30.5t-35 25t-39.5 19t-43.5 12t-46.5 4q-68 0 -123 -31t-86 -84v311h-46zM100 248
q0 20 3.5 38.5t9.5 36t15 33.5t20.5 30t25.5 25.5t29.5 21t32.5 16t35.5 10t37.5 3.5t37.5 -3.5t35.5 -10t32.5 -15.5t29.5 -21t25.5 -26t20.5 -30t15 -33.5t9.5 -36t3.5 -38.5t-3.5 -38.5t-9.5 -36t-15 -33.5t-20.5 -30t-25.5 -25.5t-29.5 -21t-32.5 -16t-35.5 -10
t-37.5 -3.5t-37.5 3.5t-35.5 10t-32.5 16t-29 21t-25 25.5t-21 30t-15.5 33.5t-9.5 36t-3.5 38.5z" />
    <glyph glyph-name="ydieresis" unicode="&#xff;" horiz-adv-x="430" 
d="M155 -82q-12 -30 -32 -45t-52 -15h-42v-43h49q49 0 75.5 26.5t44.5 71.5l237 582h-47l-171 -424l-174 424h-48l198 -482zM139 599q14 0 25 11t11 26t-11 25.5t-25 10.5t-25 -10.5t-11 -25.5t11 -26t25 -11zM291 599q14 0 25 11t11 26t-11 25.5t-25 10.5t-25 -10.5
t-11 -25.5t11 -26t25 -11z" />
    <glyph glyph-name="Amacron" unicode="&#x100;" horiz-adv-x="646" 
d="M346 700h-46l-300 -700h51l88 209h366l89 -209h52zM158 253l164 386l164 -386h-328zM447 851h-247v-39h247v39z" />
    <glyph glyph-name="amacron" unicode="&#x101;" horiz-adv-x="472" 
d="M28 135q0 -65 47.5 -104.5t118.5 -39.5q53 0 95.5 24t65.5 64v-13q0 -31 20.5 -48.5t54.5 -17.5h29v43h-24q-16 0 -24.5 7.5t-8.5 21.5v279q0 69 -45.5 110t-121.5 41q-51 0 -91.5 -16t-77.5 -50l30 -33q28 30 61.5 44t73.5 14q59 0 91.5 -31t32.5 -85v-60l-170 -11
q-74 -5 -115.5 -42t-41.5 -97zM74 134q0 43 30.5 69t87.5 30l163 11v-59q0 -63 -46 -107.5t-112 -44.5q-54 0 -88.5 29t-34.5 72zM353 646h-247v-39h247v39z" />
    <glyph glyph-name="Abreve" unicode="&#x102;" horiz-adv-x="646" 
d="M346 700h-46l-300 -700h51l88 209h366l89 -209h52zM158 253l164 386l164 -386h-328zM324 816q-28 0 -55 16.5t-39 63.5l-38 -12q12 -51 49 -78.5t83 -27.5t83 27.5t49 78.5l-38 12q-12 -47 -39 -63.5t-55 -16.5z" />
    <glyph glyph-name="abreve" unicode="&#x103;" horiz-adv-x="472" 
d="M28 135q0 -65 47.5 -104.5t118.5 -39.5q53 0 95.5 24t65.5 64v-13q0 -31 20.5 -48.5t54.5 -17.5h29v43h-24q-16 0 -24.5 7.5t-8.5 21.5v279q0 69 -45.5 110t-121.5 41q-51 0 -91.5 -16t-77.5 -50l30 -33q28 30 61.5 44t73.5 14q59 0 91.5 -31t32.5 -85v-60l-170 -11
q-74 -5 -115.5 -42t-41.5 -97zM74 134q0 43 30.5 69t87.5 30l163 11v-59q0 -63 -46 -107.5t-112 -44.5q-54 0 -88.5 29t-34.5 72zM230 611q-28 0 -55 16.5t-39 63.5l-38 -12q12 -51 49 -78.5t83 -27.5t83 27.5t49 78.5l-38 12q-12 -47 -39 -63.5t-55 -16.5z" />
    <glyph glyph-name="Aogonek" unicode="&#x104;" horiz-adv-x="646" 
d="M646 0l-300 700h-46l-300 -700h51l88 209h366l89 -209h6q-43 -45 -58.5 -77t-15.5 -63q0 -35 22 -58t66 -23q12 0 22.5 1.5t20.5 3.5l-4 34q-7 -2 -16.5 -3t-18.5 -1q-25 0 -39 14t-14 38q0 25 15.5 56t65.5 78zM158 253l164 386l164 -386h-328z" />
    <glyph glyph-name="aogonek" unicode="&#x105;" horiz-adv-x="472" 
d="M28 135q0 -65 47.5 -104.5t118.5 -39.5q53 0 95.5 24t65.5 64v-13q0 -27 16 -44t43 -21q-44 -46 -59.5 -78t-15.5 -63q0 -35 22 -58t66 -23q12 0 22.5 1.5t20.5 3.5l-4 34q-7 -2 -16.5 -3t-18.5 -1q-25 0 -39 14t-14 38q0 25 15.5 56t65.5 78v43h-24q-16 0 -24.5 7.5
t-8.5 21.5v279q0 69 -45.5 110t-121.5 41q-51 0 -91.5 -16t-77.5 -50l30 -33q28 30 61.5 44t73.5 14q59 0 91.5 -31t32.5 -85v-60l-170 -11q-74 -5 -115.5 -42t-41.5 -97zM74 134q0 43 30.5 69t87.5 30l163 11v-59q0 -63 -46 -107.5t-112 -44.5q-54 0 -88.5 29t-34.5 72z
" />
    <glyph glyph-name="Cacute" unicode="&#x106;" horiz-adv-x="739" 
d="M35 349q0 -30 4.5 -58.5t13.5 -55.5t22 -51.5t29.5 -47t36 -42t42 -36t47.5 -29t52 -21.5t56 -13.5t59 -4.5q99 0 180.5 47.5t128.5 124.5l-41 21q-42 -67 -113 -108t-155 -41q-26 0 -51 4t-48.5 12t-45.5 19t-41.5 25.5t-36.5 31.5t-31 36.5t-25 41.5t-19 45.5t-12 48.5
t-4 51t4 51.5t12 49t19 45t25 41.5t31 37t36.5 31.5t41.5 26t45.5 19.5t48.5 12t51 4q84 0 155 -41.5t112 -108.5l41 23q-47 77 -129 124t-179 47q-30 0 -59 -4.5t-56 -13.5t-52 -22t-47.5 -29.5t-42 -36t-36 -42t-29.5 -47.5t-22 -52t-13.5 -55.5t-4.5 -58.5zM452 892
l-103 -112h52l115 112h-64z" />
    <glyph glyph-name="cacute" unicode="&#x107;" horiz-adv-x="516" 
d="M81 248q0 20 3.5 39t9.5 36.5t15.5 33.5t21 30t25 25.5t29 20.5t32.5 15.5t35.5 10t37.5 3.5q51 0 96 -24.5t74 -64.5l37 25q-34 48 -88.5 76.5t-118.5 28.5q-24 0 -46.5 -4t-43.5 -12t-40 -19t-35.5 -25t-30.5 -30.5t-25 -35.5t-18.5 -40t-11.5 -43t-4 -46t4 -46
t11.5 -43t18.5 -40t25 -36t30.5 -31t35.5 -25t40 -19t43.5 -12t46.5 -4q64 0 118.5 28.5t88.5 76.5l-37 25q-29 -40 -74 -64t-96 -24q-19 0 -37.5 3.5t-35.5 10t-32.5 15.5t-29 21t-25 26t-21 30t-15.5 33.5t-9.5 36t-3.5 38.5zM347 687l-103 -112h52l115 112h-64z" />
    <glyph glyph-name="Ccircumflex" unicode="&#x108;" horiz-adv-x="739" 
d="M35 349q0 -30 4.5 -58.5t13.5 -55.5t22 -51.5t29.5 -47t36 -42t42 -36t47.5 -29t52 -21.5t56 -13.5t59 -4.5q99 0 180.5 47.5t128.5 124.5l-41 21q-42 -67 -113 -108t-155 -41q-26 0 -51 4t-48.5 12t-45.5 19t-41.5 25.5t-36.5 31.5t-31 36.5t-25 41.5t-19 45.5t-12 48.5
t-4 51t4 51.5t12 49t19 45t25 41.5t31 37t36.5 31.5t41.5 26t45.5 19.5t48.5 12t51 4q84 0 155 -41.5t112 -108.5l41 23q-47 77 -129 124t-179 47q-30 0 -59 -4.5t-56 -13.5t-52 -22t-47.5 -29.5t-42 -36t-36 -42t-29.5 -47.5t-22 -52t-13.5 -55.5t-4.5 -58.5zM314 780
l83 80l83 -80h50l-108 112h-51l-107 -112h50z" />
    <glyph glyph-name="ccircumflex" unicode="&#x109;" horiz-adv-x="516" 
d="M81 248q0 20 3.5 39t9.5 36.5t15.5 33.5t21 30t25 25.5t29 20.5t32.5 15.5t35.5 10t37.5 3.5q51 0 96 -24.5t74 -64.5l37 25q-34 48 -88.5 76.5t-118.5 28.5q-24 0 -46.5 -4t-43.5 -12t-40 -19t-35.5 -25t-30.5 -30.5t-25 -35.5t-18.5 -40t-11.5 -43t-4 -46t4 -46
t11.5 -43t18.5 -40t25 -36t30.5 -31t35.5 -25t40 -19t43.5 -12t46.5 -4q64 0 118.5 28.5t88.5 76.5l-37 25q-29 -40 -74 -64t-96 -24q-19 0 -37.5 3.5t-35.5 10t-32.5 15.5t-29 21t-25 26t-21 30t-15.5 33.5t-9.5 36t-3.5 38.5zM209 575l83 80l83 -80h50l-108 112h-51
l-107 -112h50z" />
    <glyph glyph-name="Cdotaccent" unicode="&#x10a;" horiz-adv-x="739" 
d="M35 349q0 -30 4.5 -58.5t13.5 -55.5t22 -51.5t29.5 -47t36 -42t42 -36t47.5 -29t52 -21.5t56 -13.5t59 -4.5q99 0 180.5 47.5t128.5 124.5l-41 21q-42 -67 -113 -108t-155 -41q-26 0 -51 4t-48.5 12t-45.5 19t-41.5 25.5t-36.5 31.5t-31 36.5t-25 41.5t-19 45.5t-12 48.5
t-4 51t4 51.5t12 49t19 45t25 41.5t31 37t36.5 31.5t41.5 26t45.5 19.5t48.5 12t51 4q84 0 155 -41.5t112 -108.5l41 23q-47 77 -129 124t-179 47q-30 0 -59 -4.5t-56 -13.5t-52 -22t-47.5 -29.5t-42 -36t-36 -42t-29.5 -47.5t-22 -52t-13.5 -55.5t-4.5 -58.5zM396 804
q15 0 25.5 11t10.5 26t-10.5 25.5t-25.5 10.5q-14 0 -24.5 -10.5t-10.5 -25.5t10.5 -26t24.5 -11z" />
    <glyph glyph-name="cdotaccent" unicode="&#x10b;" horiz-adv-x="516" 
d="M81 248q0 20 3.5 39t9.5 36.5t15.5 33.5t21 30t25 25.5t29 20.5t32.5 15.5t35.5 10t37.5 3.5q51 0 96 -24.5t74 -64.5l37 25q-34 48 -88.5 76.5t-118.5 28.5q-24 0 -46.5 -4t-43.5 -12t-40 -19t-35.5 -25t-30.5 -30.5t-25 -35.5t-18.5 -40t-11.5 -43t-4 -46t4 -46
t11.5 -43t18.5 -40t25 -36t30.5 -31t35.5 -25t40 -19t43.5 -12t46.5 -4q64 0 118.5 28.5t88.5 76.5l-37 25q-29 -40 -74 -64t-96 -24q-19 0 -37.5 3.5t-35.5 10t-32.5 15.5t-29 21t-25 26t-21 30t-15.5 33.5t-9.5 36t-3.5 38.5zM291 599q15 0 25.5 11t10.5 26t-10.5 25.5
t-25.5 10.5q-14 0 -24.5 -10.5t-10.5 -25.5t10.5 -26t24.5 -11z" />
    <glyph glyph-name="Ccaron" unicode="&#x10c;" horiz-adv-x="739" 
d="M35 349q0 -30 4.5 -58.5t13.5 -55.5t22 -51.5t29.5 -47t36 -42t42 -36t47.5 -29t52 -21.5t56 -13.5t59 -4.5q99 0 180.5 47.5t128.5 124.5l-41 21q-42 -67 -113 -108t-155 -41q-26 0 -51 4t-48.5 12t-45.5 19t-41.5 25.5t-36.5 31.5t-31 36.5t-25 41.5t-19 45.5t-12 48.5
t-4 51t4 51.5t12 49t19 45t25 41.5t31 37t36.5 31.5t41.5 26t45.5 19.5t48.5 12t51 4q84 0 155 -41.5t112 -108.5l41 23q-47 77 -129 124t-179 47q-30 0 -59 -4.5t-56 -13.5t-52 -22t-47.5 -29.5t-42 -36t-36 -42t-29.5 -47.5t-22 -52t-13.5 -55.5t-4.5 -58.5zM480 892
l-83 -80l-84 80h-49l107 -112h51l108 112h-50z" />
    <glyph glyph-name="ccaron" unicode="&#x10d;" horiz-adv-x="516" 
d="M81 248q0 20 3.5 39t9.5 36.5t15.5 33.5t21 30t25 25.5t29 20.5t32.5 15.5t35.5 10t37.5 3.5q51 0 96 -24.5t74 -64.5l37 25q-34 48 -88.5 76.5t-118.5 28.5q-24 0 -46.5 -4t-43.5 -12t-40 -19t-35.5 -25t-30.5 -30.5t-25 -35.5t-18.5 -40t-11.5 -43t-4 -46t4 -46
t11.5 -43t18.5 -40t25 -36t30.5 -31t35.5 -25t40 -19t43.5 -12t46.5 -4q64 0 118.5 28.5t88.5 76.5l-37 25q-29 -40 -74 -64t-96 -24q-19 0 -37.5 3.5t-35.5 10t-32.5 15.5t-29 21t-25 26t-21 30t-15.5 33.5t-9.5 36t-3.5 38.5zM375 687l-83 -80l-84 80h-49l107 -112h51
l108 112h-50z" />
    <glyph glyph-name="Dcaron" unicode="&#x10e;" horiz-adv-x="696" 
d="M661 349q0 29 -4.5 57t-13.5 54t-21.5 50.5t-28.5 46t-35 40.5t-41 35t-46 28.5t-50.5 21.5t-54.5 13.5t-57 4.5h-249v-700h249q29 0 57 4.5t54.5 13t50.5 21t46 28.5t41 35t35 40.5t28.5 45.5t21.5 50t13.5 54t4.5 57zM310 657q25 0 49 -4t47 -12t43.5 -19t39.5 -25
t35.5 -30.5t30.5 -36t24.5 -40.5t18 -44t11.5 -47.5t4 -49.5t-4 -49.5t-11.5 -47.5t-18 -44t-24.5 -40t-30.5 -35.5t-35.5 -30.5t-39.5 -25t-43.5 -18.5t-47 -11.5t-49 -4h-202v614h202zM434 892l-83 -80l-84 80h-49l107 -112h51l108 112h-50z" />
    <glyph glyph-name="dcaron" unicode="&#x10f;" horiz-adv-x="656" 
d="M544 0v700h-46v-313q-32 53 -87 84.5t-121 31.5q-24 0 -46.5 -4t-43 -12t-39.5 -19t-35.5 -25t-30.5 -30.5t-25 -35.5t-19 -39.5t-12 -43t-4 -46.5t4 -46.5t11.5 -44t18.5 -40.5t25 -35.5t30.5 -30.5t35.5 -25t40 -19t43.5 -12t46.5 -4q67 0 121.5 31t86.5 84v-106h46z
M499 248q0 -20 -3.5 -39t-9.5 -36.5t-15 -33.5t-20.5 -30t-25.5 -25.5t-29.5 -21t-32.5 -16t-35.5 -10t-37.5 -3.5t-37.5 3.5t-35.5 10t-32.5 15.5t-29.5 21t-25.5 26t-20.5 30t-15 33.5t-9.5 36.5t-3.5 39t3.5 38.5t9.5 36t15 33.5t20.5 30t25.5 25.5t29.5 21t32.5 16
t35.5 10t37.5 3.5t37.5 -3.5t35.5 -10t32.5 -16t29 -21t25 -25.5t21 -30t15.5 -33.5t9.5 -36t3.5 -38.5zM598 540h36l36 160h-50z" />
    <glyph glyph-name="Dcroat" unicode="&#x110;" horiz-adv-x="710" 
d="M5 325h69v-325h249q29 0 57 4.5t54.5 13t50.5 21t46 28.5t41 35t35 40.5t28.5 45.5t21.5 50t13.5 54t4.5 57t-4.5 57t-13.5 54t-21.5 50.5t-28.5 46t-35 40.5t-41 35t-46 28.5t-50.5 21.5t-54.5 13.5t-57 4.5h-249v-332h-69v-43zM324 657q25 0 49 -4t47 -12t43.5 -19
t39.5 -25t35.5 -30.5t30.5 -36t24.5 -40.5t18 -44t11.5 -47.5t4 -49.5t-4 -49.5t-11.5 -47.5t-18 -44t-24.5 -40t-30.5 -35.5t-35.5 -30.5t-39.5 -25t-43.5 -18.5t-47 -11.5t-49 -4h-202v282h193v43h-193v289h202z" />
    <glyph glyph-name="dcroat" unicode="&#x111;" horiz-adv-x="615" 
d="M544 0v572h76v42h-76v86h-46v-86h-149v-42h149v-185q-32 53 -87 84.5t-121 31.5q-24 0 -46.5 -4t-43 -12t-39.5 -19t-35.5 -25t-30.5 -30.5t-25 -35.5t-19 -39.5t-12 -43t-4 -46.5t4 -46.5t11.5 -44t18.5 -40.5t25 -35.5t30.5 -30.5t35.5 -25t40 -19t43.5 -12t46.5 -4
q67 0 121.5 31t86.5 84v-106h46zM499 248q0 -20 -3.5 -39t-9.5 -36.5t-15 -33.5t-20.5 -30t-25.5 -25.5t-29.5 -21t-32.5 -16t-35.5 -10t-37.5 -3.5t-37.5 3.5t-35.5 10t-32.5 15.5t-29.5 21t-25.5 26t-20.5 30t-15 33.5t-9.5 36.5t-3.5 39t3.5 38.5t9.5 36t15 33.5t20.5 30
t25.5 25.5t29.5 21t32.5 16t35.5 10t37.5 3.5t37.5 -3.5t35.5 -10t32.5 -16t29 -21t25 -25.5t21 -30t15.5 -33.5t9.5 -36t3.5 -38.5z" />
    <glyph glyph-name="Emacron" unicode="&#x112;" horiz-adv-x="494" 
d="M60 0h394v43h-346v286h336v44h-336v284h346v43h-394v-700zM391 851h-247v-39h247v39z" />
    <glyph glyph-name="emacron" unicode="&#x113;" horiz-adv-x="558" 
d="M35 248q0 -24 4 -46t11.5 -43t18.5 -40t25 -36t30.5 -31t35.5 -25t40 -19t43.5 -12t46.5 -4q64 0 118.5 28.5t88.5 76.5l-37 25q-28 -40 -73.5 -64t-96.5 -24q-21 0 -40.5 4t-37.5 11.5t-34.5 18.5t-30.5 24.5t-25.5 29.5t-20 34t-14 38t-6.5 41h442v23q0 22 -4 43.5
t-11 41.5t-17 38.5t-23 34.5t-28.5 29.5t-33 24t-37 18t-40.5 11.5t-43 4q-24 0 -46 -4t-42.5 -12t-39 -19t-35 -25t-30 -30.5t-24.5 -35.5t-18.5 -39.5t-11.5 -43t-4 -46.5zM286 462q73 0 127.5 -53.5t61.5 -131.5h-392q10 78 68 131.5t135 53.5zM410 646h-247v-39h247v39z
" />
    <glyph glyph-name="Ebreve" unicode="&#x114;" horiz-adv-x="494" 
d="M60 0h394v43h-346v286h336v44h-336v284h346v43h-394v-700zM268 816q-28 0 -55 16.5t-39 63.5l-38 -12q12 -51 49 -78.5t83 -27.5t83 27.5t49 78.5l-38 12q-12 -47 -39 -63.5t-55 -16.5z" />
    <glyph glyph-name="ebreve" unicode="&#x115;" horiz-adv-x="558" 
d="M35 248q0 -24 4 -46t11.5 -43t18.5 -40t25 -36t30.5 -31t35.5 -25t40 -19t43.5 -12t46.5 -4q64 0 118.5 28.5t88.5 76.5l-37 25q-28 -40 -73.5 -64t-96.5 -24q-21 0 -40.5 4t-37.5 11.5t-34.5 18.5t-30.5 24.5t-25.5 29.5t-20 34t-14 38t-6.5 41h442v23q0 22 -4 43.5
t-11 41.5t-17 38.5t-23 34.5t-28.5 29.5t-33 24t-37 18t-40.5 11.5t-43 4q-24 0 -46 -4t-42.5 -12t-39 -19t-35 -25t-30 -30.5t-24.5 -35.5t-18.5 -39.5t-11.5 -43t-4 -46.5zM286 462q73 0 127.5 -53.5t61.5 -131.5h-392q10 78 68 131.5t135 53.5zM287 611q-28 0 -55 16.5
t-39 63.5l-38 -12q12 -51 49 -78.5t83 -27.5t83 27.5t49 78.5l-38 12q-12 -47 -39 -63.5t-55 -16.5z" />
    <glyph glyph-name="Edotaccent" unicode="&#x116;" horiz-adv-x="494" 
d="M60 0h394v43h-346v286h336v44h-336v284h346v43h-394v-700zM267 804q15 0 25.5 11t10.5 26t-10.5 25.5t-25.5 10.5q-14 0 -24.5 -10.5t-10.5 -25.5t10.5 -26t24.5 -11z" />
    <glyph glyph-name="edotaccent" unicode="&#x117;" horiz-adv-x="558" 
d="M35 248q0 -24 4 -46t11.5 -43t18.5 -40t25 -36t30.5 -31t35.5 -25t40 -19t43.5 -12t46.5 -4q64 0 118.5 28.5t88.5 76.5l-37 25q-28 -40 -73.5 -64t-96.5 -24q-21 0 -40.5 4t-37.5 11.5t-34.5 18.5t-30.5 24.5t-25.5 29.5t-20 34t-14 38t-6.5 41h442v23q0 22 -4 43.5
t-11 41.5t-17 38.5t-23 34.5t-28.5 29.5t-33 24t-37 18t-40.5 11.5t-43 4q-24 0 -46 -4t-42.5 -12t-39 -19t-35 -25t-30 -30.5t-24.5 -35.5t-18.5 -39.5t-11.5 -43t-4 -46.5zM286 462q73 0 127.5 -53.5t61.5 -131.5h-392q10 78 68 131.5t135 53.5zM286 599q15 0 25.5 11
t10.5 26t-10.5 25.5t-25.5 10.5q-14 0 -24.5 -10.5t-10.5 -25.5t10.5 -26t24.5 -11z" />
    <glyph glyph-name="Eogonek" unicode="&#x118;" horiz-adv-x="494" 
d="M60 0h348q-43 -45 -58.5 -77t-15.5 -63q0 -35 22 -58t66 -23q12 0 22.5 1.5t20.5 3.5l-4 34q-7 -2 -16.5 -3t-18.5 -1q-25 0 -39 14t-14 38q0 25 15.5 56t65.5 78v43h-346v286h336v44h-336v284h346v43h-394v-700z" />
    <glyph glyph-name="eogonek" unicode="&#x119;" horiz-adv-x="558" 
d="M35 248q0 -24 4 -46t11.5 -43t18.5 -40t25 -36t30.5 -31t35.5 -25t40 -19t43.5 -12t46.5 -4h13q-40 -41 -53.5 -71.5t-13.5 -60.5q0 -35 22 -58t66 -23q12 0 22.5 1.5t20.5 3.5l-4 34q-7 -2 -16.5 -3t-18.5 -1q-25 0 -39 14t-14 38q0 25 15.5 56t65.5 78q43 11 79.5 36.5
t61.5 60.5l-37 25q-28 -40 -73.5 -64t-96.5 -24q-21 0 -40.5 4t-37.5 11.5t-34.5 18.5t-30.5 24.5t-25.5 29.5t-20 34t-14 38t-6.5 41h442v23q0 22 -4 43.5t-11 41.5t-17 38.5t-23 34.5t-28.5 29.5t-33 24t-37 18t-40.5 11.5t-43 4q-24 0 -46 -4t-42.5 -12t-39 -19t-35 -25
t-30 -30.5t-24.5 -35.5t-18.5 -39.5t-11.5 -43t-4 -46.5zM286 462q73 0 127.5 -53.5t61.5 -131.5h-392q10 78 68 131.5t135 53.5z" />
    <glyph glyph-name="Ecaron" unicode="&#x11a;" horiz-adv-x="494" 
d="M60 0h394v43h-346v286h336v44h-336v284h346v43h-394v-700zM351 892l-83 -80l-84 80h-49l107 -112h51l108 112h-50z" />
    <glyph glyph-name="ecaron" unicode="&#x11b;" horiz-adv-x="558" 
d="M35 248q0 -24 4 -46t11.5 -43t18.5 -40t25 -36t30.5 -31t35.5 -25t40 -19t43.5 -12t46.5 -4q64 0 118.5 28.5t88.5 76.5l-37 25q-28 -40 -73.5 -64t-96.5 -24q-21 0 -40.5 4t-37.5 11.5t-34.5 18.5t-30.5 24.5t-25.5 29.5t-20 34t-14 38t-6.5 41h442v23q0 22 -4 43.5
t-11 41.5t-17 38.5t-23 34.5t-28.5 29.5t-33 24t-37 18t-40.5 11.5t-43 4q-24 0 -46 -4t-42.5 -12t-39 -19t-35 -25t-30 -30.5t-24.5 -35.5t-18.5 -39.5t-11.5 -43t-4 -46.5zM286 462q73 0 127.5 -53.5t61.5 -131.5h-392q10 78 68 131.5t135 53.5zM370 687l-83 -80l-84 80
h-49l107 -112h51l108 112h-50z" />
    <glyph glyph-name="Gcircumflex" unicode="&#x11c;" horiz-adv-x="763" 
d="M35 349q0 -30 4.5 -58.5t13.5 -55.5t21.5 -51.5t28.5 -47t35 -42t41 -36t46.5 -29t50.5 -21.5t54.5 -13.5t57.5 -4.5q90 0 162.5 44t109.5 111v-145h46v348h-327v-44h281q1 -26 -3 -50.5t-12 -46.5t-19.5 -42.5t-26.5 -38t-33 -32t-38.5 -26t-43 -19.5t-46.5 -12t-50 -4
t-50 4t-47 12t-44 19t-40 25.5t-35.5 31.5t-30 36.5t-24.5 41.5t-18.5 45.5t-11.5 49t-4 51.5t4 51.5t11.5 49t18.5 45t25 41.5t31 37t36 31.5t40.5 26t44.5 19.5t47.5 12t50.5 4q85 0 157 -41.5t113 -108.5l41 23q-47 77 -130 124t-181 47q-30 0 -58 -4.5t-55 -13.5
t-51.5 -22t-46.5 -29.5t-41.5 -36t-36 -42t-29 -47.5t-21.5 -52t-13.5 -55.5t-4.5 -58.5zM320 780l83 80l83 -80h50l-108 112h-51l-107 -112h50z" />
    <glyph glyph-name="gcircumflex" unicode="&#x11d;" horiz-adv-x="596" 
d="M540 495h-46v-106q-32 52 -86 83t-120 31q-24 0 -46 -4t-42.5 -11.5t-39.5 -18.5t-35.5 -25t-30.5 -30.5t-25 -35.5t-18.5 -39.5t-11.5 -43t-4 -45.5q0 -24 4 -46.5t11.5 -43.5t18.5 -40t25 -35.5t30.5 -30.5t35 -25t39.5 -18.5t43 -11.5t46 -4q66 0 120.5 31t85.5 82
v-113q0 -69 -34 -103t-103 -34h-88v-43h95q84 0 130 46t46 130v504zM81 250q0 20 3.5 38.5t9.5 35.5t15 33t20.5 29.5t25 25.5t29 21t32 15.5t35 10t37.5 3.5t37 -3.5t35 -10t32.5 -15.5t29 -21t25 -25.5t20.5 -29.5t15 -33t9.5 -35.5t3.5 -38.5t-3.5 -38.5t-9.5 -36
t-15 -33.5t-20.5 -30t-25 -26t-29 -21t-32 -15.5t-35 -10t-37.5 -3.5t-37.5 3.5t-35 10t-32 15.5t-29 20.5t-25 25.5t-20.5 30t-15 33.5t-9.5 36.5t-3.5 39zM205 575l83 80l83 -80h50l-108 112h-51l-107 -112h50z" />
    <glyph glyph-name="Gbreve" unicode="&#x11e;" horiz-adv-x="763" 
d="M35 349q0 -30 4.5 -58.5t13.5 -55.5t21.5 -51.5t28.5 -47t35 -42t41 -36t46.5 -29t50.5 -21.5t54.5 -13.5t57.5 -4.5q90 0 162.5 44t109.5 111v-145h46v348h-327v-44h281q1 -26 -3 -50.5t-12 -46.5t-19.5 -42.5t-26.5 -38t-33 -32t-38.5 -26t-43 -19.5t-46.5 -12t-50 -4
t-50 4t-47 12t-44 19t-40 25.5t-35.5 31.5t-30 36.5t-24.5 41.5t-18.5 45.5t-11.5 49t-4 51.5t4 51.5t11.5 49t18.5 45t25 41.5t31 37t36 31.5t40.5 26t44.5 19.5t47.5 12t50.5 4q85 0 157 -41.5t113 -108.5l41 23q-47 77 -130 124t-181 47q-30 0 -58 -4.5t-55 -13.5
t-51.5 -22t-46.5 -29.5t-41.5 -36t-36 -42t-29 -47.5t-21.5 -52t-13.5 -55.5t-4.5 -58.5zM403 816q-28 0 -55 16.5t-39 63.5l-38 -12q12 -51 49 -78.5t83 -27.5t83 27.5t49 78.5l-38 12q-12 -47 -39 -63.5t-55 -16.5z" />
    <glyph glyph-name="gbreve" unicode="&#x11f;" horiz-adv-x="596" 
d="M540 495h-46v-106q-32 52 -86 83t-120 31q-24 0 -46 -4t-42.5 -11.5t-39.5 -18.5t-35.5 -25t-30.5 -30.5t-25 -35.5t-18.5 -39.5t-11.5 -43t-4 -45.5q0 -24 4 -46.5t11.5 -43.5t18.5 -40t25 -35.5t30.5 -30.5t35 -25t39.5 -18.5t43 -11.5t46 -4q66 0 120.5 31t85.5 82
v-113q0 -69 -34 -103t-103 -34h-88v-43h95q84 0 130 46t46 130v504zM81 250q0 20 3.5 38.5t9.5 35.5t15 33t20.5 29.5t25 25.5t29 21t32 15.5t35 10t37.5 3.5t37 -3.5t35 -10t32.5 -15.5t29 -21t25 -25.5t20.5 -29.5t15 -33t9.5 -35.5t3.5 -38.5t-3.5 -38.5t-9.5 -36
t-15 -33.5t-20.5 -30t-25 -26t-29 -21t-32 -15.5t-35 -10t-37.5 -3.5t-37.5 3.5t-35 10t-32 15.5t-29 20.5t-25 25.5t-20.5 30t-15 33.5t-9.5 36.5t-3.5 39zM288 611q-28 0 -55 16.5t-39 63.5l-38 -12q12 -51 49 -78.5t83 -27.5t83 27.5t49 78.5l-38 12q-12 -47 -39 -63.5
t-55 -16.5z" />
    <glyph glyph-name="Gdotaccent" unicode="&#x120;" horiz-adv-x="763" 
d="M35 349q0 -30 4.5 -58.5t13.5 -55.5t21.5 -51.5t28.5 -47t35 -42t41 -36t46.5 -29t50.5 -21.5t54.5 -13.5t57.5 -4.5q90 0 162.5 44t109.5 111v-145h46v348h-327v-44h281q1 -26 -3 -50.5t-12 -46.5t-19.5 -42.5t-26.5 -38t-33 -32t-38.5 -26t-43 -19.5t-46.5 -12t-50 -4
t-50 4t-47 12t-44 19t-40 25.5t-35.5 31.5t-30 36.5t-24.5 41.5t-18.5 45.5t-11.5 49t-4 51.5t4 51.5t11.5 49t18.5 45t25 41.5t31 37t36 31.5t40.5 26t44.5 19.5t47.5 12t50.5 4q85 0 157 -41.5t113 -108.5l41 23q-47 77 -130 124t-181 47q-30 0 -58 -4.5t-55 -13.5
t-51.5 -22t-46.5 -29.5t-41.5 -36t-36 -42t-29 -47.5t-21.5 -52t-13.5 -55.5t-4.5 -58.5zM402 804q15 0 25.5 11t10.5 26t-10.5 25.5t-25.5 10.5q-14 0 -24.5 -10.5t-10.5 -25.5t10.5 -26t24.5 -11z" />
    <glyph glyph-name="gdotaccent" unicode="&#x121;" horiz-adv-x="596" 
d="M540 495h-46v-106q-32 52 -86 83t-120 31q-24 0 -46 -4t-42.5 -11.5t-39.5 -18.5t-35.5 -25t-30.5 -30.5t-25 -35.5t-18.5 -39.5t-11.5 -43t-4 -45.5q0 -24 4 -46.5t11.5 -43.5t18.5 -40t25 -35.5t30.5 -30.5t35 -25t39.5 -18.5t43 -11.5t46 -4q66 0 120.5 31t85.5 82
v-113q0 -69 -34 -103t-103 -34h-88v-43h95q84 0 130 46t46 130v504zM81 250q0 20 3.5 38.5t9.5 35.5t15 33t20.5 29.5t25 25.5t29 21t32 15.5t35 10t37.5 3.5t37 -3.5t35 -10t32.5 -15.5t29 -21t25 -25.5t20.5 -29.5t15 -33t9.5 -35.5t3.5 -38.5t-3.5 -38.5t-9.5 -36
t-15 -33.5t-20.5 -30t-25 -26t-29 -21t-32 -15.5t-35 -10t-37.5 -3.5t-37.5 3.5t-35 10t-32 15.5t-29 20.5t-25 25.5t-20.5 30t-15 33.5t-9.5 36.5t-3.5 39zM287 599q15 0 25.5 11t10.5 26t-10.5 25.5t-25.5 10.5q-14 0 -24.5 -10.5t-10.5 -25.5t10.5 -26t24.5 -11z" />
    <glyph glyph-name="uni0122" unicode="&#x122;" horiz-adv-x="763" 
d="M35 349q0 -30 4.5 -58.5t13.5 -55.5t21.5 -51.5t28.5 -47t35 -42t41 -36t46.5 -29t50.5 -21.5t54.5 -13.5t57.5 -4.5q90 0 162.5 44t109.5 111v-145h46v348h-327v-44h281q1 -26 -3 -50.5t-12 -46.5t-19.5 -42.5t-26.5 -38t-33 -32t-38.5 -26t-43 -19.5t-46.5 -12t-50 -4
t-50 4t-47 12t-44 19t-40 25.5t-35.5 31.5t-30 36.5t-24.5 41.5t-18.5 45.5t-11.5 49t-4 51.5t4 51.5t11.5 49t18.5 45t25 41.5t31 37t36 31.5t40.5 26t44.5 19.5t47.5 12t50.5 4q85 0 157 -41.5t113 -108.5l41 23q-47 77 -130 124t-181 47q-30 0 -58 -4.5t-55 -13.5
t-51.5 -22t-46.5 -29.5t-41.5 -36t-36 -42t-29 -47.5t-21.5 -52t-13.5 -55.5t-4.5 -58.5zM346 -191v-26q40 6 61.5 33.5t21.5 62.5q0 27 -11.5 42t-30.5 15q-11 0 -21 -9.5t-10 -22.5q0 -6 1.5 -10.5t4.5 -8t6 -6t7 -5t7 -4.5t6 -4.5t4.5 -5t1.5 -6.5q0 -13 -14 -27t-34 -18
z" />
    <glyph glyph-name="uni0123" unicode="&#x123;" horiz-adv-x="600" 
d="M328 706v26q-40 -6 -61.5 -33.5t-21.5 -62.5q0 -27 11.5 -42t30.5 -15q11 0 21 9.5t10 22.5q0 6 -1.5 10.5t-4.5 8t-6 6t-7 5t-7 4.5t-6 4.5t-4.5 5t-1.5 6.5q0 13 14 27t34 18zM540 495h-46v-106q-32 52 -86 83t-120 31q-24 0 -46 -4t-42.5 -11.5t-39.5 -18.5t-35.5 -25
t-30.5 -30.5t-25 -35.5t-18.5 -39.5t-11.5 -43t-4 -45.5q0 -24 4 -46.5t11.5 -43.5t18.5 -40t25 -35.5t30.5 -30.5t35 -25t39.5 -18.5t43 -11.5t46 -4q66 0 120.5 31t85.5 82v-113q0 -69 -34 -103t-103 -34h-88v-43h95q84 0 130 46t46 130v504zM81 250q0 20 3.5 38.5
t9.5 35.5t15 33t20.5 29.5t25 25.5t29 21t32 15.5t35 10t37.5 3.5t37 -3.5t35 -10t32.5 -15.5t29 -21t25 -25.5t20.5 -29.5t15 -33t9.5 -35.5t3.5 -38.5t-3.5 -38.5t-9.5 -36t-15 -33.5t-20.5 -30t-25 -26t-29 -21t-32 -15.5t-35 -10t-37.5 -3.5t-37.5 3.5t-35 10t-32 15.5
t-29 20.5t-25 25.5t-20.5 30t-15 33.5t-9.5 36.5t-3.5 39z" />
    <glyph glyph-name="Hcircumflex" unicode="&#x124;" horiz-adv-x="629" 
d="M108 0v329h413v-329h48v700h-48v-327h-413v327h-48v-700h48zM232 780l83 80l83 -80h50l-108 112h-51l-107 -112h50z" />
    <glyph glyph-name="hcircumflex" unicode="&#x125;" 
d="M101 303q0 67 44.5 112.5t113.5 45.5q64 0 103 -42.5t39 -106.5v-312h46v320q0 19 -3.5 37t-10 34.5t-15.5 31t-21 27t-26.5 22.5t-31 17t-35.5 10.5t-39 3.5q-54 0 -98 -24.5t-66 -67.5v289h-46v-700h46v303zM-4 780l83 80l83 -80h50l-108 112h-51l-107 -112h50z" />
    <glyph glyph-name="Hbar" unicode="&#x126;" horiz-adv-x="659" 
d="M123 0v329h413v-329h48v511h65v43h-65v146h-48v-146h-413v146h-48v-146h-65v-43h65v-511h48zM123 373v138h413v-138h-413z" />
    <glyph glyph-name="hbar" unicode="&#x127;" horiz-adv-x="518" 
d="M266 572v42h-149v86h-46v-86h-76v-42h76v-572h46v303q0 67 44.5 112.5t113.5 45.5q64 0 103 -42.5t39 -106.5v-312h46v320q0 19 -3.5 37t-10 34.5t-15.5 31t-21 27t-26.5 22.5t-31 17t-35.5 10.5t-39 3.5q-54 0 -98 -24.5t-66 -67.5v161h149z" />
    <glyph glyph-name="Itilde" unicode="&#x128;" horiz-adv-x="168" 
d="M108 0v700h-48v-700h48zM26 886q-29 0 -49.5 -23.5t-33.5 -66.5l34 -9q12 36 23 48.5t26 12.5q5 0 10 -2t10.5 -5.5t12 -8t13 -9.5t13.5 -10t14 -9.5t14.5 -8t15 -5.5t14.5 -2q29 0 50 23.5t34 66.5l-35 9q-12 -35 -23 -47.5t-25 -12.5q-5 0 -10 2t-11 5.5t-12.5 8
t-13 9.5t-13.5 9.5l-14 9t-14.5 8t-15 5.5t-14.5 2z" />
    <glyph glyph-name="itilde" unicode="&#x129;" horiz-adv-x="157" 
d="M101 495h-46v-495h46v495zM20 681q-29 0 -49.5 -23.5t-33.5 -66.5l34 -9q12 36 23 48.5t26 12.5q5 0 10 -2t10.5 -5.5t12 -8t13 -9.5t13.5 -10t14 -9.5t14.5 -8t15 -5.5t14.5 -2q29 0 50 23.5t34 66.5l-35 9q-12 -35 -23 -47.5t-25 -12.5q-5 0 -10 2t-11 5.5t-12.5 8
t-13 9.5t-13.5 9.5l-14 9t-14.5 8t-15 5.5t-14.5 2z" />
    <glyph glyph-name="Imacron" unicode="&#x12a;" horiz-adv-x="168" 
d="M108 0v700h-48v-700h48zM208 851h-247v-39h247v39z" />
    <glyph glyph-name="imacron" unicode="&#x12b;" horiz-adv-x="157" 
d="M101 495h-46v-495h46v495zM202 646h-247v-39h247v39z" />
    <glyph glyph-name="Ibreve" unicode="&#x12c;" horiz-adv-x="168" 
d="M108 0v700h-48v-700h48zM85 816q-28 0 -55 16.5t-39 63.5l-38 -12q12 -51 49 -78.5t83 -27.5t83 27.5t49 78.5l-38 12q-12 -47 -39 -63.5t-55 -16.5z" />
    <glyph glyph-name="ibreve" unicode="&#x12d;" horiz-adv-x="157" 
d="M101 495h-46v-495h46v495zM79 611q-28 0 -55 16.5t-39 63.5l-38 -12q12 -51 49 -78.5t83 -27.5t83 27.5t49 78.5l-38 12q-12 -47 -39 -63.5t-55 -16.5z" />
    <glyph glyph-name="Iogonek" unicode="&#x12e;" horiz-adv-x="168" 
d="M108 0v700h-48v-700h2q-43 -45 -58.5 -77t-15.5 -63q0 -35 22 -58t66 -23q12 0 22.5 1.5t20.5 3.5l-4 34q-7 -2 -16.5 -3t-18.5 -1q-25 0 -39 14t-14 38q0 25 15.5 56t65.5 78z" />
    <glyph glyph-name="iogonek" unicode="&#x12f;" horiz-adv-x="157" 
d="M79 599q14 0 25 11t11 26t-11 25.5t-25 10.5t-25 -10.5t-11 -25.5t11 -26t25 -11zM102 0l-1 1v494h-46v-495h1q-43 -45 -58.5 -77t-15.5 -63q0 -35 22 -58t66 -23q12 0 22.5 1.5t20.5 3.5l-4 34q-7 -2 -16.5 -3t-18.5 -1q-25 0 -39 14t-14 38q0 25 15.5 56t65.5 78z" />
    <glyph glyph-name="Idotaccent" unicode="&#x130;" horiz-adv-x="168" 
d="M108 0v700h-48v-700h48zM84 804q15 0 25.5 11t10.5 26t-10.5 25.5t-25.5 10.5q-14 0 -24.5 -10.5t-10.5 -25.5t10.5 -26t24.5 -11z" />
    <glyph glyph-name="dotlessi" unicode="&#x131;" horiz-adv-x="157" 
d="M101 495h-46v-495h46v495z" />
    <glyph glyph-name="IJ" unicode="&#x132;" horiz-adv-x="599" 
d="M108 0v700h-48v-700h48zM176 42q31 -23 71.5 -36.5t84.5 -13.5q22 0 43 3.5t40 11t36 18t31.5 25t26 32t19.5 38.5t12 45.5t4 52.5v482h-48v-483q0 -89 -47.5 -134.5t-116.5 -45.5q-37 0 -70.5 11t-59.5 31z" />
    <glyph glyph-name="ij" unicode="&#x133;" horiz-adv-x="314" 
d="M79 599q14 0 25 11t11 26t-11 25.5t-25 10.5t-25 -10.5t-11 -25.5t11 -26t25 -11zM101 495h-46v-495h46v495zM236 599q14 0 25 11t11 26t-11 25.5t-25 10.5t-25 -10.5t-11 -25.5t11 -26t25 -11zM175 -185q38 0 60.5 21t22.5 55v604h-46v-599q0 -18 -11 -28t-32 -10h-33
v-43h39z" />
    <glyph glyph-name="Jcircumflex" unicode="&#x134;" horiz-adv-x="428" 
d="M7 42q31 -23 71.5 -36.5t84.5 -13.5q22 0 43 3.5t40 11t36 18t31.5 25t26 32t19.5 38.5t12 45.5t4 52.5v482h-48v-483q0 -89 -47.5 -134.5t-116.5 -45.5q-37 0 -70.5 11t-59.5 31zM270 780l83 80l83 -80h50l-108 112h-51l-107 -112h50z" />
    <glyph glyph-name="jcircumflex" unicode="&#x135;" horiz-adv-x="157" 
d="M18 -185q38 0 60.5 20.5t22.5 54.5v605h-46v-599q0 -18 -11 -28t-32 -10h-33v-43h39zM-4 575l83 80l83 -80h50l-108 112h-51l-107 -112h50z" />
    <glyph glyph-name="uni0136" unicode="&#x136;" horiz-adv-x="504" 
d="M60 700v-700h48v331l342 -331h66l-365 355l361 345h-63l-341 -326v326h-48zM216 -191v-26q40 6 61.5 33.5t21.5 62.5q0 27 -11.5 42t-30.5 15q-11 0 -21 -9.5t-10 -22.5q0 -6 1.5 -10.5t4.5 -8t6 -6t7 -5t7 -4.5t6 -4.5t4.5 -5t1.5 -6.5q0 -13 -14 -27t-34 -18z" />
    <glyph glyph-name="uni0137" unicode="&#x137;" horiz-adv-x="417" 
d="M55 700v-700h46v238l260 -238h66l-284 256l276 239h-64l-254 -224v429h-46zM172 -191v-26q40 6 61.5 33.5t21.5 62.5q0 27 -11.5 42t-30.5 15q-11 0 -21 -9.5t-10 -22.5q0 -6 1.5 -10.5t4.5 -8t6 -6t7 -5t7 -4.5t6 -4.5t4.5 -5t1.5 -6.5q0 -13 -14 -27t-34 -18z" />
    <glyph glyph-name="kgreenlandic" unicode="&#x138;" horiz-adv-x="417" 
d="M55 495v-495h46v238l260 -238h66l-284 256l276 239h-64l-254 -224v224h-46z" />
    <glyph glyph-name="Lacute" unicode="&#x139;" horiz-adv-x="479" 
d="M454 43h-346v657h-48v-700h394v43zM138 892l-103 -112h52l115 112h-64z" />
    <glyph glyph-name="lacute" unicode="&#x13a;" horiz-adv-x="157" 
d="M101 0v700h-46v-700h46zM134 892l-103 -112h52l115 112h-64z" />
    <glyph glyph-name="uni013B" unicode="&#x13b;" horiz-adv-x="479" 
d="M454 43h-346v657h-48v-700h394v43zM211 -191v-26q40 6 61.5 33.5t21.5 62.5q0 27 -11.5 42t-30.5 15q-11 0 -21 -9.5t-10 -22.5q0 -6 1.5 -10.5t4.5 -8t6 -6t7 -5t7 -4.5t6 -4.5t4.5 -5t1.5 -6.5q0 -13 -14 -27t-34 -18z" />
    <glyph glyph-name="uni013C" unicode="&#x13c;" horiz-adv-x="157" 
d="M101 0v700h-46v-700h46zM32 -191v-26q40 6 61.5 33.5t21.5 62.5q0 27 -11.5 42t-30.5 15q-11 0 -21 -9.5t-10 -22.5q0 -6 1.5 -10.5t4.5 -8t6 -6t7 -5t7 -4.5t6 -4.5t4.5 -5t1.5 -6.5q0 -13 -14 -27t-34 -18z" />
    <glyph glyph-name="Lcaron" unicode="&#x13d;" horiz-adv-x="489" 
d="M454 43h-346v657h-48v-700h394v43zM314 540h36l36 160h-50z" />
    <glyph glyph-name="lcaron" unicode="&#x13e;" horiz-adv-x="213" 
d="M101 0v700h-46v-700h46zM155 540h36l36 160h-50z" />
    <glyph glyph-name="Ldot" unicode="&#x13f;" horiz-adv-x="489" 
d="M454 43h-346v657h-48v-700h394v43zM321 315q15 0 25.5 11t10.5 26t-10.5 25.5t-25.5 10.5q-14 0 -24.5 -10.5t-10.5 -25.5t10.5 -26t24.5 -11z" />
    <glyph glyph-name="ldot" unicode="&#x140;" horiz-adv-x="245" 
d="M101 0v700h-46v-700h46zM193 310q15 0 25.5 11t10.5 26t-10.5 25.5t-25.5 10.5q-14 0 -24.5 -10.5t-10.5 -25.5t10.5 -26t24.5 -11z" />
    <glyph glyph-name="Lslash" unicode="&#x141;" horiz-adv-x="499" 
d="M5 195l75 66v-261h394v43h-346v260l181 158v49l-181 -158v348h-48v-390l-75 -65v-50z" />
    <glyph glyph-name="lslash" unicode="&#x142;" horiz-adv-x="206" 
d="M10 244l65 60v-304h46v347l75 69v48l-75 -70v306h-46v-349l-65 -60v-47z" />
    <glyph glyph-name="Nacute" unicode="&#x143;" horiz-adv-x="674" 
d="M107 0l-1 631l455 -631h53v700h-47l1 -629l-454 629h-54v-700h47zM392 892l-103 -112h52l115 112h-64z" />
    <glyph glyph-name="nacute" unicode="&#x144;" 
d="M447 320q0 19 -3.5 37t-10 34.5t-15.5 31t-21 27t-26.5 22.5t-31 17t-35.5 10.5t-39 3.5q-54 0 -98 -24.5t-66 -67.5v84h-46v-495h46v303q0 67 44.5 112.5t113.5 45.5q64 0 103 -42.5t39 -106.5v-312h46v320zM307 687l-103 -112h52l115 112h-64z" />
    <glyph glyph-name="uni0145" unicode="&#x145;" horiz-adv-x="674" 
d="M107 0l-1 631l455 -631h53v700h-47l1 -629l-454 629h-54v-700h47zM291 -191v-26q40 6 61.5 33.5t21.5 62.5q0 27 -11.5 42t-30.5 15q-11 0 -21 -9.5t-10 -22.5q0 -6 1.5 -10.5t4.5 -8t6 -6t7 -5t7 -4.5t6 -4.5t4.5 -5t1.5 -6.5q0 -13 -14 -27t-34 -18z" />
    <glyph glyph-name="uni0146" unicode="&#x146;" 
d="M447 320q0 19 -3.5 37t-10 34.5t-15.5 31t-21 27t-26.5 22.5t-31 17t-35.5 10.5t-39 3.5q-54 0 -98 -24.5t-66 -67.5v84h-46v-495h46v303q0 67 44.5 112.5t113.5 45.5q64 0 103 -42.5t39 -106.5v-312h46v320zM206 -191v-26q40 6 61.5 33.5t21.5 62.5q0 27 -11.5 42
t-30.5 15q-11 0 -21 -9.5t-10 -22.5q0 -6 1.5 -10.5t4.5 -8t6 -6t7 -5t7 -4.5t6 -4.5t4.5 -5t1.5 -6.5q0 -13 -14 -27t-34 -18z" />
    <glyph glyph-name="Ncaron" unicode="&#x147;" horiz-adv-x="674" 
d="M107 0l-1 631l455 -631h53v700h-47l1 -629l-454 629h-54v-700h47zM420 892l-83 -80l-84 80h-49l107 -112h51l108 112h-50z" />
    <glyph glyph-name="ncaron" unicode="&#x148;" 
d="M447 320q0 19 -3.5 37t-10 34.5t-15.5 31t-21 27t-26.5 22.5t-31 17t-35.5 10.5t-39 3.5q-54 0 -98 -24.5t-66 -67.5v84h-46v-495h46v303q0 67 44.5 112.5t113.5 45.5q64 0 103 -42.5t39 -106.5v-312h46v320zM335 687l-83 -80l-84 80h-49l107 -112h51l108 112h-50z" />
    <glyph glyph-name="Eng" unicode="&#x14a;" horiz-adv-x="674" 
d="M614 -125v825h-46l1 -631l-455 631h-54v-700h47l-1 631l463 -642v-109q0 -18 -11 -28t-33 -10h-33v-42h39q37 0 60 20.5t23 54.5z" />
    <glyph glyph-name="eng" unicode="&#x14b;" 
d="M364 -185q38 0 60.5 20.5t22.5 54.5v430q0 19 -3.5 37t-10 34.5t-15.5 31t-21 27t-26.5 22.5t-31 17t-35.5 10.5t-39 3.5q-54 0 -98 -24.5t-66 -67.5v84h-46v-495h46v303q0 67 44.5 112.5t113.5 45.5q64 0 103 -42.5t39 -106.5v-416q0 -18 -11 -28t-32 -10h-33v-43h39z
" />
    <glyph glyph-name="Omacron" unicode="&#x14c;" horiz-adv-x="794" 
d="M35 349q0 -30 4.5 -58.5t13.5 -55.5t22 -51.5t29.5 -47t36 -42t42 -36t47.5 -29t52 -21.5t56 -13.5t59 -4.5t58.5 4.5t55.5 13.5t52 21.5t47.5 29t42.5 36t36.5 42t29.5 47t22 51.5t13.5 55.5t4.5 58.5t-4.5 58.5t-13.5 55.5t-22 52t-29.5 47.5t-36.5 42t-42.5 36
t-47.5 29.5t-52 22t-55.5 13.5t-58.5 4.5t-59 -4.5t-56 -13.5t-52 -22t-47.5 -29.5t-42 -36t-36 -42t-29.5 -47.5t-22 -52t-13.5 -55.5t-4.5 -58.5zM83 349q0 26 4 51.5t12 49t19 45t25 41.5t31 37t36.5 31.5t41.5 26t45.5 19.5t48.5 12t51 4t51 -4t48.5 -12t45 -19.5
t41 -26t36.5 -31.5t31.5 -37t25.5 -41.5t19 -45t12 -49t4 -51.5t-4 -51t-12 -48.5t-19 -45.5t-25.5 -41.5t-31.5 -36.5t-36.5 -31.5t-41 -25.5t-45 -19t-48.5 -12t-51 -4t-51 4t-48.5 12t-45.5 19t-41.5 25.5t-36.5 31.5t-31 36.5t-25 41.5t-19 45.5t-12 48.5t-4 51z
M520 851h-247v-39h247v39z" />
    <glyph glyph-name="omacron" unicode="&#x14d;" horiz-adv-x="580" 
d="M545 248q0 24 -4 46t-11.5 43t-18.5 40t-25 35.5t-30.5 30.5t-35.5 25t-40 19t-43.5 12t-46.5 4t-46.5 -4t-43.5 -12t-40 -19t-35.5 -25t-30.5 -30.5t-25 -35.5t-18.5 -40t-11.5 -43t-4 -46t4 -46t11.5 -43t18.5 -40t25 -36t30.5 -31t35.5 -25t40 -19t43.5 -12t46.5 -4
t46.5 4t43.5 12t40 19t35.5 25t30.5 31t25 36t18.5 40t11.5 43t4 46zM499 248q0 -20 -3.5 -38.5t-10 -36t-15.5 -33.5t-20.5 -30t-25.5 -26t-29.5 -21t-32.5 -15.5t-35 -10t-37 -3.5t-37.5 3.5t-35.5 10t-32.5 15.5t-29 21t-25 26t-21 30t-15.5 33.5t-9.5 36t-3.5 38.5
t3.5 39t9.5 36.5t15.5 33.5t21 30t25 25.5t29 20.5t32.5 15.5t35.5 10t37.5 3.5t37 -3.5t35 -10t32.5 -15.5t29.5 -20.5t25.5 -25.5t20.5 -30t15.5 -33.5t10 -36.5t3.5 -39zM413 646h-247v-39h247v39z" />
    <glyph glyph-name="Obreve" unicode="&#x14e;" horiz-adv-x="794" 
d="M35 349q0 -30 4.5 -58.5t13.5 -55.5t22 -51.5t29.5 -47t36 -42t42 -36t47.5 -29t52 -21.5t56 -13.5t59 -4.5t58.5 4.5t55.5 13.5t52 21.5t47.5 29t42.5 36t36.5 42t29.5 47t22 51.5t13.5 55.5t4.5 58.5t-4.5 58.5t-13.5 55.5t-22 52t-29.5 47.5t-36.5 42t-42.5 36
t-47.5 29.5t-52 22t-55.5 13.5t-58.5 4.5t-59 -4.5t-56 -13.5t-52 -22t-47.5 -29.5t-42 -36t-36 -42t-29.5 -47.5t-22 -52t-13.5 -55.5t-4.5 -58.5zM83 349q0 26 4 51.5t12 49t19 45t25 41.5t31 37t36.5 31.5t41.5 26t45.5 19.5t48.5 12t51 4t51 -4t48.5 -12t45 -19.5
t41 -26t36.5 -31.5t31.5 -37t25.5 -41.5t19 -45t12 -49t4 -51.5t-4 -51t-12 -48.5t-19 -45.5t-25.5 -41.5t-31.5 -36.5t-36.5 -31.5t-41 -25.5t-45 -19t-48.5 -12t-51 -4t-51 4t-48.5 12t-45.5 19t-41.5 25.5t-36.5 31.5t-31 36.5t-25 41.5t-19 45.5t-12 48.5t-4 51z
M397 816q-28 0 -55 16.5t-39 63.5l-38 -12q12 -51 49 -78.5t83 -27.5t83 27.5t49 78.5l-38 12q-12 -47 -39 -63.5t-55 -16.5z" />
    <glyph glyph-name="obreve" unicode="&#x14f;" horiz-adv-x="580" 
d="M545 248q0 24 -4 46t-11.5 43t-18.5 40t-25 35.5t-30.5 30.5t-35.5 25t-40 19t-43.5 12t-46.5 4t-46.5 -4t-43.5 -12t-40 -19t-35.5 -25t-30.5 -30.5t-25 -35.5t-18.5 -40t-11.5 -43t-4 -46t4 -46t11.5 -43t18.5 -40t25 -36t30.5 -31t35.5 -25t40 -19t43.5 -12t46.5 -4
t46.5 4t43.5 12t40 19t35.5 25t30.5 31t25 36t18.5 40t11.5 43t4 46zM499 248q0 -20 -3.5 -38.5t-10 -36t-15.5 -33.5t-20.5 -30t-25.5 -26t-29.5 -21t-32.5 -15.5t-35 -10t-37 -3.5t-37.5 3.5t-35.5 10t-32.5 15.5t-29 21t-25 26t-21 30t-15.5 33.5t-9.5 36t-3.5 38.5
t3.5 39t9.5 36.5t15.5 33.5t21 30t25 25.5t29 20.5t32.5 15.5t35.5 10t37.5 3.5t37 -3.5t35 -10t32.5 -15.5t29.5 -20.5t25.5 -25.5t20.5 -30t15.5 -33.5t10 -36.5t3.5 -39zM290 611q-28 0 -55 16.5t-39 63.5l-38 -12q12 -51 49 -78.5t83 -27.5t83 27.5t49 78.5l-38 12
q-12 -47 -39 -63.5t-55 -16.5z" />
    <glyph glyph-name="Ohungarumlaut" unicode="&#x150;" horiz-adv-x="794" 
d="M35 349q0 -30 4.5 -58.5t13.5 -55.5t22 -51.5t29.5 -47t36 -42t42 -36t47.5 -29t52 -21.5t56 -13.5t59 -4.5t58.5 4.5t55.5 13.5t52 21.5t47.5 29t42.5 36t36.5 42t29.5 47t22 51.5t13.5 55.5t4.5 58.5t-4.5 58.5t-13.5 55.5t-22 52t-29.5 47.5t-36.5 42t-42.5 36
t-47.5 29.5t-52 22t-55.5 13.5t-58.5 4.5t-59 -4.5t-56 -13.5t-52 -22t-47.5 -29.5t-42 -36t-36 -42t-29.5 -47.5t-22 -52t-13.5 -55.5t-4.5 -58.5zM83 349q0 26 4 51.5t12 49t19 45t25 41.5t31 37t36.5 31.5t41.5 26t45.5 19.5t48.5 12t51 4t51 -4t48.5 -12t45 -19.5
t41 -26t36.5 -31.5t31.5 -37t25.5 -41.5t19 -45t12 -49t4 -51.5t-4 -51t-12 -48.5t-19 -45.5t-25.5 -41.5t-31.5 -36.5t-36.5 -31.5t-41 -25.5t-45 -19t-48.5 -12t-51 -4t-51 4t-48.5 12t-45.5 19t-41.5 25.5t-36.5 31.5t-31 36.5t-25 41.5t-19 45.5t-12 48.5t-4 51z
M393 892l-106 -112h52l114 112h-60zM546 892l-107 -112h52l115 112h-60z" />
    <glyph glyph-name="ohungarumlaut" unicode="&#x151;" horiz-adv-x="580" 
d="M545 248q0 24 -4 46t-11.5 43t-18.5 40t-25 35.5t-30.5 30.5t-35.5 25t-40 19t-43.5 12t-46.5 4t-46.5 -4t-43.5 -12t-40 -19t-35.5 -25t-30.5 -30.5t-25 -35.5t-18.5 -40t-11.5 -43t-4 -46t4 -46t11.5 -43t18.5 -40t25 -36t30.5 -31t35.5 -25t40 -19t43.5 -12t46.5 -4
t46.5 4t43.5 12t40 19t35.5 25t30.5 31t25 36t18.5 40t11.5 43t4 46zM499 248q0 -20 -3.5 -38.5t-10 -36t-15.5 -33.5t-20.5 -30t-25.5 -26t-29.5 -21t-32.5 -15.5t-35 -10t-37 -3.5t-37.5 3.5t-35.5 10t-32.5 15.5t-29 21t-25 26t-21 30t-15.5 33.5t-9.5 36t-3.5 38.5
t3.5 39t9.5 36.5t15.5 33.5t21 30t25 25.5t29 20.5t32.5 15.5t35.5 10t37.5 3.5t37 -3.5t35 -10t32.5 -15.5t29.5 -20.5t25.5 -25.5t20.5 -30t15.5 -33.5t10 -36.5t3.5 -39zM286 687l-106 -112h52l114 112h-60zM439 687l-107 -112h52l115 112h-60z" />
    <glyph glyph-name="OE" unicode="&#x152;" horiz-adv-x="970" 
d="M35 351q0 -29 4.5 -57t13.5 -54t21.5 -50.5t28.5 -46t35 -40.5t41 -35t46 -28.5t50.5 -21.5t54.5 -13.5t57 -4.5h543v43h-345v286h335v44h-335v284h345v43h-543q-29 0 -57 -4.5t-54.5 -13t-50.5 -21t-46 -28.5t-41 -35t-35 -40.5t-28.5 -45.5t-21.5 -50t-13.5 -54
t-4.5 -57zM386 43q-25 0 -49 4t-47 12t-43.5 19t-39.5 25t-35.5 30.5t-30.5 36t-24.5 40.5t-18 44t-11.5 47.5t-4 49.5t4 49.5t11.5 47.5t18 44t24.5 40t30.5 35.5t35.5 30.5t39.5 25t43.5 18.5t47 11.5t49 4h151v-614h-151z" />
    <glyph glyph-name="oe" unicode="&#x153;" horiz-adv-x="1022" 
d="M961 97l-38 25q-28 -40 -73 -64t-96 -24q-21 0 -40.5 4t-38 11.5t-34.5 18.5t-30.5 24.5t-26 29.5t-19.5 34t-13.5 38t-6.5 41h442v23q0 22 -4 43.5t-11 41.5t-17 38.5t-23 34.5t-28.5 29.5t-33 24t-37 18t-40.5 11.5t-43 4q-78 0 -139 -43t-89 -111q-28 68 -91 111
t-141 43q-24 0 -46.5 -4t-43.5 -12t-40 -19t-35.5 -25t-30.5 -30.5t-25 -35.5t-18.5 -40t-11.5 -43t-4 -46t4 -46t11.5 -43t18.5 -40t25 -36t30.5 -31t35.5 -25t40 -19t43.5 -12t46.5 -4q78 0 141 43.5t91 111.5q28 -68 91 -111.5t141 -43.5q64 0 118.5 28.5t88.5 76.5z
M499 248q0 -20 -3.5 -38.5t-10 -36t-15.5 -33.5t-20.5 -30t-25.5 -26t-29.5 -21t-32.5 -15.5t-35 -10t-37 -3.5t-37.5 3.5t-35.5 10t-32.5 15.5t-29 21t-25 26t-21 30t-15.5 33.5t-9.5 36t-3.5 38.5t3.5 39t9.5 36.5t15.5 33.5t21 30t25 25.5t29 20.5t32.5 15.5t35.5 10
t37.5 3.5t37 -3.5t35 -10t32.5 -15.5t29.5 -20.5t25.5 -25.5t20.5 -30t15.5 -33.5t10 -36.5t3.5 -39zM750 462q18 0 35.5 -3.5t33.5 -10.5t31 -17t27.5 -22.5t23 -27t18.5 -31.5t13 -35t7 -38h-392q10 78 67.5 131.5t135.5 53.5z" />
    <glyph glyph-name="Racute" unicode="&#x154;" horiz-adv-x="512" 
d="M108 0v312h152l193 -312h55l-195 315q73 13 119.5 66t46.5 123q0 20 -4 39.5t-11.5 37t-18.5 33t-24.5 29t-30 24t-35 18t-39.5 11.5t-43 4h-213v-700h48zM274 657q68 0 112.5 -45t44.5 -108q0 -62 -44.5 -106t-112.5 -44h-166v303h166zM317 892l-103 -112h52l115 112
h-64z" />
    <glyph glyph-name="racute" unicode="&#x155;" horiz-adv-x="271" 
d="M256 455v44h-35q-41 0 -72.5 -21t-47.5 -55v72h-46v-495h46v313q0 58 33 100t89 42h33zM208 687l-103 -112h52l115 112h-64z" />
    <glyph glyph-name="uni0156" unicode="&#x156;" horiz-adv-x="512" 
d="M108 0v312h152l193 -312h55l-195 315q73 13 119.5 66t46.5 123q0 20 -4 39.5t-11.5 37t-18.5 33t-24.5 29t-30 24t-35 18t-39.5 11.5t-43 4h-213v-700h48zM274 657q68 0 112.5 -45t44.5 -108q0 -62 -44.5 -106t-112.5 -44h-166v303h166zM220 -191v-26q40 6 61.5 33.5
t21.5 62.5q0 27 -11.5 42t-30.5 15q-11 0 -21 -9.5t-10 -22.5q0 -6 1.5 -10.5t4.5 -8t6 -6t7 -5t7 -4.5t6 -4.5t4.5 -5t1.5 -6.5q0 -13 -14 -27t-34 -18z" />
    <glyph glyph-name="uni0157" unicode="&#x157;" horiz-adv-x="271" 
d="M256 455v44h-35q-41 0 -72.5 -21t-47.5 -55v72h-46v-495h46v313q0 58 33 100t89 42h33zM33 -191v-26q40 6 61.5 33.5t21.5 62.5q0 27 -11.5 42t-30.5 15q-11 0 -21 -9.5t-10 -22.5q0 -6 1.5 -10.5t4.5 -8t6 -6t7 -5t7 -4.5t6 -4.5t4.5 -5t1.5 -6.5q0 -13 -14 -27t-34 -18
z" />
    <glyph glyph-name="Rcaron" unicode="&#x158;" horiz-adv-x="512" 
d="M108 0v312h152l193 -312h55l-195 315q73 13 119.5 66t46.5 123q0 20 -4 39.5t-11.5 37t-18.5 33t-24.5 29t-30 24t-35 18t-39.5 11.5t-43 4h-213v-700h48zM274 657q68 0 112.5 -45t44.5 -108q0 -62 -44.5 -106t-112.5 -44h-166v303h166zM345 892l-83 -80l-84 80h-49
l107 -112h51l108 112h-50z" />
    <glyph glyph-name="rcaron" unicode="&#x159;" horiz-adv-x="271" 
d="M256 455v44h-35q-41 0 -72.5 -21t-47.5 -55v72h-46v-495h46v313q0 58 33 100t89 42h33zM236 687l-83 -80l-84 80h-49l107 -112h51l108 112h-50z" />
    <glyph glyph-name="Sacute" unicode="&#x15a;" horiz-adv-x="530" 
d="M32 204q11 -96 80 -154.5t171 -58.5q96 0 154 52.5t58 136.5q0 65 -40.5 109t-120.5 69l-118 36q-65 19 -97 52.5t-32 82.5q0 59 44 97.5t112 38.5q79 0 129 -45t60 -126h47q-10 97 -74.5 156t-159.5 59q-90 0 -147.5 -52t-57.5 -134q0 -60 40.5 -104.5t115.5 -67.5
l112 -34q72 -22 105.5 -56.5t33.5 -88.5q0 -63 -45.5 -100t-120.5 -37q-81 0 -134 44.5t-67 124.5h-48zM307 892l-103 -112h52l115 112h-64z" />
    <glyph glyph-name="sacute" unicode="&#x15b;" horiz-adv-x="402" 
d="M215 -9q71 0 115.5 38t44.5 98q0 47 -31.5 81.5t-96.5 53.5l-78 23q-46 13 -68.5 34.5t-22.5 54.5q0 40 29 64t75 24q52 0 89.5 -31.5t45.5 -80.5h45q-9 68 -59 110.5t-122 42.5q-64 0 -106 -36.5t-42 -96.5q0 -46 30 -78t92 -50l72 -21q54 -16 78.5 -39.5t24.5 -59.5
q0 -40 -33 -65t-84 -25q-56 0 -95.5 32t-48.5 83h-46q10 -69 63.5 -112.5t128.5 -43.5zM250 687l-103 -112h52l115 112h-64z" />
    <glyph glyph-name="Scircumflex" unicode="&#x15c;" horiz-adv-x="530" 
d="M32 204q11 -96 80 -154.5t171 -58.5q96 0 154 52.5t58 136.5q0 65 -40.5 109t-120.5 69l-118 36q-65 19 -97 52.5t-32 82.5q0 59 44 97.5t112 38.5q79 0 129 -45t60 -126h47q-10 97 -74.5 156t-159.5 59q-90 0 -147.5 -52t-57.5 -134q0 -60 40.5 -104.5t115.5 -67.5
l112 -34q72 -22 105.5 -56.5t33.5 -88.5q0 -63 -45.5 -100t-120.5 -37q-81 0 -134 44.5t-67 124.5h-48zM169 780l83 80l83 -80h50l-108 112h-51l-107 -112h50z" />
    <glyph glyph-name="scircumflex" unicode="&#x15d;" horiz-adv-x="402" 
d="M215 -9q71 0 115.5 38t44.5 98q0 47 -31.5 81.5t-96.5 53.5l-78 23q-46 13 -68.5 34.5t-22.5 54.5q0 40 29 64t75 24q52 0 89.5 -31.5t45.5 -80.5h45q-9 68 -59 110.5t-122 42.5q-64 0 -106 -36.5t-42 -96.5q0 -46 30 -78t92 -50l72 -21q54 -16 78.5 -39.5t24.5 -59.5
q0 -40 -33 -65t-84 -25q-56 0 -95.5 32t-48.5 83h-46q10 -69 63.5 -112.5t128.5 -43.5zM112 575l83 80l83 -80h50l-108 112h-51l-107 -112h50z" />
    <glyph glyph-name="uni015E" unicode="&#x15e;" horiz-adv-x="530" 
d="M32 204q10 -90 71 -147t152 -65l-23 -81h23q31 0 49.5 -14t18.5 -37t-16 -37t-41 -14q-20 0 -38 9t-30 25l-29 -23q15 -21 41.5 -33.5t54.5 -12.5q42 0 69.5 24.5t27.5 61.5q0 34 -24 56t-63 24l13 51q92 0 149.5 52.5t57.5 136.5q0 65 -40.5 109t-120.5 69l-118 36
q-65 19 -97 52.5t-32 82.5q0 59 44 97.5t112 38.5q79 0 129 -45t60 -126h47q-10 97 -74.5 156t-159.5 59q-90 0 -147.5 -52t-57.5 -134q0 -60 40.5 -104.5t115.5 -67.5l112 -34q72 -22 105.5 -56.5t33.5 -88.5q0 -63 -45.5 -100t-120.5 -37q-81 0 -134 44.5t-67 124.5h-48z
" />
    <glyph glyph-name="uni015F" unicode="&#x15f;" horiz-adv-x="402" 
d="M297 -140q0 34 -24 56t-63 24l13 51q68 2 110 39.5t42 96.5q0 47 -31.5 81.5t-96.5 53.5l-78 23q-46 13 -68.5 34.5t-22.5 54.5q0 40 29 64t75 24q52 0 89.5 -31.5t45.5 -80.5h45q-9 68 -59 110.5t-122 42.5q-64 0 -106 -36.5t-42 -96.5q0 -46 30 -78t92 -50l72 -21
q54 -16 78.5 -39.5t24.5 -59.5q0 -40 -33 -65t-84 -25q-56 0 -95.5 32t-48.5 83h-46q10 -63 55.5 -105.5t111.5 -49.5l-23 -81h23q31 0 49.5 -14t18.5 -37t-16 -37t-41 -14q-20 0 -38 9t-30 25l-29 -23q15 -21 41.5 -33.5t54.5 -12.5q42 0 69.5 24.5t27.5 61.5z" />
    <glyph glyph-name="Scaron" unicode="&#x160;" horiz-adv-x="530" 
d="M32 204q11 -96 80 -154.5t171 -58.5q96 0 154 52.5t58 136.5q0 65 -40.5 109t-120.5 69l-118 36q-65 19 -97 52.5t-32 82.5q0 59 44 97.5t112 38.5q79 0 129 -45t60 -126h47q-10 97 -74.5 156t-159.5 59q-90 0 -147.5 -52t-57.5 -134q0 -60 40.5 -104.5t115.5 -67.5
l112 -34q72 -22 105.5 -56.5t33.5 -88.5q0 -63 -45.5 -100t-120.5 -37q-81 0 -134 44.5t-67 124.5h-48zM335 892l-83 -80l-84 80h-49l107 -112h51l108 112h-50z" />
    <glyph glyph-name="scaron" unicode="&#x161;" horiz-adv-x="402" 
d="M215 -9q71 0 115.5 38t44.5 98q0 47 -31.5 81.5t-96.5 53.5l-78 23q-46 13 -68.5 34.5t-22.5 54.5q0 40 29 64t75 24q52 0 89.5 -31.5t45.5 -80.5h45q-9 68 -59 110.5t-122 42.5q-64 0 -106 -36.5t-42 -96.5q0 -46 30 -78t92 -50l72 -21q54 -16 78.5 -39.5t24.5 -59.5
q0 -40 -33 -65t-84 -25q-56 0 -95.5 32t-48.5 83h-46q10 -69 63.5 -112.5t128.5 -43.5zM278 687l-83 -80l-84 80h-49l107 -112h51l108 112h-50z" />
    <glyph glyph-name="uni0162" unicode="&#x162;" horiz-adv-x="517" 
d="M349 -140q0 34 -24 56t-63 24l15 60h5v657h225v43h-497v-43h224v-657h10l-25 -89h23q31 0 49.5 -14t18.5 -37t-16 -37t-41 -14q-20 0 -38 9t-30 25l-29 -23q15 -21 41.5 -33.5t54.5 -12.5q42 0 69.5 24.5t27.5 61.5z" />
    <glyph glyph-name="uni0163" unicode="&#x163;" horiz-adv-x="289" 
d="M15 453h92v-368q0 -33 18.5 -55t50.5 -28l-26 -91h23q31 0 49.5 -14t18.5 -37t-16 -37t-41 -14q-20 0 -38 9t-30 25l-29 -23q15 -21 41.5 -33.5t54.5 -12.5q42 0 69.5 24.5t27.5 61.5q0 34 -24 56t-63 24l15 60h66v42h-68q-25 0 -39 13t-14 35v363h121v42h-121v151h-46
v-151h-92v-42z" />
    <glyph glyph-name="Tcaron" unicode="&#x164;" horiz-adv-x="517" 
d="M10 657h224v-657h48v657h225v43h-497v-43zM342 892l-83 -80l-84 80h-49l107 -112h51l108 112h-50z" />
    <glyph glyph-name="tcaron" unicode="&#x165;" horiz-adv-x="289" 
d="M200 0h74v42h-68q-25 0 -39 13t-14 35v363h121v42h-121v151h-46v-151h-92v-42h92v-368q0 -39 25 -62t68 -23zM220 567h36l36 160h-50z" />
    <glyph glyph-name="Tbar" unicode="&#x166;" horiz-adv-x="517" 
d="M429 333v42h-147v282h225v43h-497v-43h224v-282h-145v-42h145v-333h48v333h147z" />
    <glyph glyph-name="tbar" unicode="&#x167;" horiz-adv-x="289" 
d="M15 254h92v-169q0 -39 25 -62t68 -23h74v42h-68q-25 0 -39 13t-14 35v164h121v41h-121v158h121v42h-121v151h-46v-151h-92v-42h92v-158h-92v-41z" />
    <glyph glyph-name="Utilde" unicode="&#x168;" horiz-adv-x="622" 
d="M101 257v443h-48v-442q0 -30 5 -57.5t14.5 -52t23 -45.5t31 -38.5t37.5 -31t43 -22.5t48 -14t51 -5q66 0 121 31t87 85v-108h48v700h-48v-443q0 -25 -4 -48t-12 -43t-19.5 -37.5t-25.5 -32t-30.5 -26t-35.5 -19t-39 -11.5t-42 -4t-42.5 4t-39 11.5t-35 19t-30 26
t-24.5 32t-18.5 37.5t-11.5 43t-4 48zM249 886q-29 0 -49.5 -23.5t-33.5 -66.5l34 -9q12 36 23 48.5t26 12.5q5 0 10 -2t10.5 -5.5t12 -8t13 -9.5t13.5 -10t14 -9.5t14.5 -8t15 -5.5t14.5 -2q29 0 50 23.5t34 66.5l-35 9q-12 -35 -23 -47.5t-25 -12.5q-5 0 -10 2t-11 5.5
t-12.5 8t-13 9.5t-13.5 9.5l-14 9t-14.5 8t-15 5.5t-14.5 2z" />
    <glyph glyph-name="utilde" unicode="&#x169;" 
d="M55 176q0 -19 3.5 -37.5t10 -35t16 -31t21.5 -27t26.5 -22.5t31 -17t35.5 -10.5t39 -3.5q54 0 97.5 24.5t65.5 66.5v-83h46v495h-46v-303q0 -67 -44 -112t-113 -45q-64 0 -103.5 42t-39.5 106v312h-46v-319zM193 681q-29 0 -49.5 -23.5t-33.5 -66.5l34 -9q12 36 23 48.5
t26 12.5q5 0 10 -2t10.5 -5.5t12 -8t13 -9.5t13.5 -10t14 -9.5t14.5 -8t15 -5.5t14.5 -2q29 0 50 23.5t34 66.5l-35 9q-12 -35 -23 -47.5t-25 -12.5q-5 0 -10 2t-11 5.5t-12.5 8t-13 9.5t-13.5 9.5l-14 9t-14.5 8t-15 5.5t-14.5 2z" />
    <glyph glyph-name="Umacron" unicode="&#x16a;" horiz-adv-x="622" 
d="M101 257v443h-48v-442q0 -30 5 -57.5t14.5 -52t23 -45.5t31 -38.5t37.5 -31t43 -22.5t48 -14t51 -5q66 0 121 31t87 85v-108h48v700h-48v-443q0 -25 -4 -48t-12 -43t-19.5 -37.5t-25.5 -32t-30.5 -26t-35.5 -19t-39 -11.5t-42 -4t-42.5 4t-39 11.5t-35 19t-30 26
t-24.5 32t-18.5 37.5t-11.5 43t-4 48zM431 851h-247v-39h247v39z" />
    <glyph glyph-name="umacron" unicode="&#x16b;" 
d="M55 176q0 -19 3.5 -37.5t10 -35t16 -31t21.5 -27t26.5 -22.5t31 -17t35.5 -10.5t39 -3.5q54 0 97.5 24.5t65.5 66.5v-83h46v495h-46v-303q0 -67 -44 -112t-113 -45q-64 0 -103.5 42t-39.5 106v312h-46v-319zM375 646h-247v-39h247v39z" />
    <glyph glyph-name="Ubreve" unicode="&#x16c;" horiz-adv-x="622" 
d="M101 257v443h-48v-442q0 -30 5 -57.5t14.5 -52t23 -45.5t31 -38.5t37.5 -31t43 -22.5t48 -14t51 -5q66 0 121 31t87 85v-108h48v700h-48v-443q0 -25 -4 -48t-12 -43t-19.5 -37.5t-25.5 -32t-30.5 -26t-35.5 -19t-39 -11.5t-42 -4t-42.5 4t-39 11.5t-35 19t-30 26
t-24.5 32t-18.5 37.5t-11.5 43t-4 48zM308 816q-28 0 -55 16.5t-39 63.5l-38 -12q12 -51 49 -78.5t83 -27.5t83 27.5t49 78.5l-38 12q-12 -47 -39 -63.5t-55 -16.5z" />
    <glyph glyph-name="ubreve" unicode="&#x16d;" 
d="M55 176q0 -19 3.5 -37.5t10 -35t16 -31t21.5 -27t26.5 -22.5t31 -17t35.5 -10.5t39 -3.5q54 0 97.5 24.5t65.5 66.5v-83h46v495h-46v-303q0 -67 -44 -112t-113 -45q-64 0 -103.5 42t-39.5 106v312h-46v-319zM252 611q-28 0 -55 16.5t-39 63.5l-38 -12q12 -51 49 -78.5
t83 -27.5t83 27.5t49 78.5l-38 12q-12 -47 -39 -63.5t-55 -16.5z" />
    <glyph glyph-name="Uring" unicode="&#x16e;" horiz-adv-x="622" 
d="M101 257v443h-48v-442q0 -30 5 -57.5t14.5 -52t23 -45.5t31 -38.5t37.5 -31t43 -22.5t48 -14t51 -5q66 0 121 31t87 85v-108h48v700h-48v-443q0 -25 -4 -48t-12 -43t-19.5 -37.5t-25.5 -32t-30.5 -26t-35.5 -19t-39 -11.5t-42 -4t-42.5 4t-39 11.5t-35 19t-30 26
t-24.5 32t-18.5 37.5t-11.5 43t-4 48zM308 765q41 0 69.5 28.5t28.5 67.5q0 40 -28.5 68.5t-69.5 28.5t-69.5 -28.5t-28.5 -68.5q0 -39 28.5 -67.5t69.5 -28.5zM308 796q-28 0 -46.5 19t-18.5 46t18.5 46.5t46.5 19.5t46.5 -19.5t18.5 -46.5t-18.5 -46t-46.5 -19z" />
    <glyph glyph-name="uring" unicode="&#x16f;" 
d="M55 176q0 -19 3.5 -37.5t10 -35t16 -31t21.5 -27t26.5 -22.5t31 -17t35.5 -10.5t39 -3.5q54 0 97.5 24.5t65.5 66.5v-83h46v495h-46v-303q0 -67 -44 -112t-113 -45q-64 0 -103.5 42t-39.5 106v312h-46v-319zM252 560q41 0 69.5 28.5t28.5 67.5q0 40 -28.5 68.5
t-69.5 28.5t-69.5 -28.5t-28.5 -68.5q0 -39 28.5 -67.5t69.5 -28.5zM252 591q-28 0 -46.5 19t-18.5 46t18.5 46.5t46.5 19.5t46.5 -19.5t18.5 -46.5t-18.5 -46t-46.5 -19z" />
    <glyph glyph-name="Uhungarumlaut" unicode="&#x170;" horiz-adv-x="622" 
d="M101 257v443h-48v-442q0 -30 5 -57.5t14.5 -52t23 -45.5t31 -38.5t37.5 -31t43 -22.5t48 -14t51 -5q66 0 121 31t87 85v-108h48v700h-48v-443q0 -25 -4 -48t-12 -43t-19.5 -37.5t-25.5 -32t-30.5 -26t-35.5 -19t-39 -11.5t-42 -4t-42.5 4t-39 11.5t-35 19t-30 26
t-24.5 32t-18.5 37.5t-11.5 43t-4 48zM304 892l-106 -112h52l114 112h-60zM457 892l-107 -112h52l115 112h-60z" />
    <glyph glyph-name="uhungarumlaut" unicode="&#x171;" 
d="M55 176q0 -19 3.5 -37.5t10 -35t16 -31t21.5 -27t26.5 -22.5t31 -17t35.5 -10.5t39 -3.5q54 0 97.5 24.5t65.5 66.5v-83h46v495h-46v-303q0 -67 -44 -112t-113 -45q-64 0 -103.5 42t-39.5 106v312h-46v-319zM248 687l-106 -112h52l114 112h-60zM401 687l-107 -112h52
l115 112h-60z" />
    <glyph glyph-name="Uogonek" unicode="&#x172;" horiz-adv-x="622" 
d="M101 257v443h-48v-442q0 -30 5 -57.5t14.5 -52t23 -45.5t31 -38.5t37.5 -31t43 -22.5t48 -14t51 -5q66 0 121 31t87 85v-108h2q-43 -45 -58.5 -77t-15.5 -63q0 -35 22 -58t66 -23q12 0 22.5 1.5t20.5 3.5l-4 34q-7 -2 -16.5 -3t-18.5 -1q-25 0 -39 14t-14 38
q0 25 15.5 56t65.5 78v700h-48v-443q0 -25 -4 -48t-12 -43t-19.5 -37.5t-25.5 -32t-30.5 -26t-35.5 -19t-39 -11.5t-42 -4t-42.5 4t-39 11.5t-35 19t-30 26t-24.5 32t-18.5 37.5t-11.5 43t-4 48z" />
    <glyph glyph-name="uogonek" unicode="&#x173;" 
d="M55 176q0 -19 3.5 -37.5t10 -35t16 -31t21.5 -27t26.5 -22.5t31 -17t35.5 -10.5t39 -3.5q54 0 97.5 24.5t65.5 66.5v-83h1q-43 -45 -58.5 -77t-15.5 -63q0 -35 22 -58t66 -23q12 0 22.5 1.5t20.5 3.5l-4 34q-7 -2 -16.5 -3t-18.5 -1q-25 0 -39 14t-14 38q0 25 15.5 56
t65.5 78l-1 1v494h-46v-303q0 -67 -44 -112t-113 -45q-64 0 -103.5 42t-39.5 106v312h-46v-319z" />
    <glyph glyph-name="Wcircumflex" unicode="&#x174;" horiz-adv-x="904" 
d="M475 700h-45l-208 -619l-161 619h-51l186 -700h44l212 625l212 -625h45l185 700h-50l-161 -619zM369 780l83 80l83 -80h50l-108 112h-51l-107 -112h50z" />
    <glyph glyph-name="wcircumflex" unicode="&#x175;" horiz-adv-x="668" 
d="M313 495l-141 -418l-125 418h-47l150 -495h39l145 430l146 -430h38l150 495h-46l-125 -420l-141 420h-43zM251 575l83 80l83 -80h50l-108 112h-51l-107 -112h50z" />
    <glyph glyph-name="Ycircumflex" unicode="&#x176;" horiz-adv-x="557" 
d="M302 0v316l260 384h-51l-232 -343l-232 343h-52l259 -381v-319h48zM198 780l83 80l83 -80h50l-108 112h-51l-107 -112h50z" />
    <glyph glyph-name="ycircumflex" unicode="&#x177;" horiz-adv-x="430" 
d="M155 -82q-12 -30 -32 -45t-52 -15h-42v-43h49q49 0 75.5 26.5t44.5 71.5l237 582h-47l-171 -424l-174 424h-48l198 -482zM132 575l83 80l83 -80h50l-108 112h-51l-107 -112h50z" />
    <glyph glyph-name="Ydieresis" unicode="&#x178;" horiz-adv-x="557" 
d="M302 0v316l260 384h-51l-232 -343l-232 343h-52l259 -381v-319h48zM205 804q14 0 25 11t11 26t-11 25.5t-25 10.5t-25 -10.5t-11 -25.5t11 -26t25 -11zM357 804q14 0 25 11t11 26t-11 25.5t-25 10.5t-25 -10.5t-11 -25.5t11 -26t25 -11z" />
    <glyph glyph-name="Zacute" unicode="&#x179;" horiz-adv-x="508" 
d="M33 657h389l-400 -623v-34h455v43h-395l400 623v34h-449v-43zM317 892l-103 -112h52l115 112h-64z" />
    <glyph glyph-name="zacute" unicode="&#x17a;" horiz-adv-x="416" 
d="M30 453h299l-302 -419v-34h364v42h-307l301 419v34h-355v-42zM261 687l-103 -112h52l115 112h-64z" />
    <glyph glyph-name="Zdotaccent" unicode="&#x17b;" horiz-adv-x="508" 
d="M33 657h389l-400 -623v-34h455v43h-395l400 623v34h-449v-43zM261 804q15 0 25.5 11t10.5 26t-10.5 25.5t-25.5 10.5q-14 0 -24.5 -10.5t-10.5 -25.5t10.5 -26t24.5 -11z" />
    <glyph glyph-name="zdotaccent" unicode="&#x17c;" horiz-adv-x="416" 
d="M30 453h299l-302 -419v-34h364v42h-307l301 419v34h-355v-42zM205 599q15 0 25.5 11t10.5 26t-10.5 25.5t-25.5 10.5q-14 0 -24.5 -10.5t-10.5 -25.5t10.5 -26t24.5 -11z" />
    <glyph glyph-name="Zcaron" unicode="&#x17d;" horiz-adv-x="508" 
d="M33 657h389l-400 -623v-34h455v43h-395l400 623v34h-449v-43zM345 892l-83 -80l-84 80h-49l107 -112h51l108 112h-50z" />
    <glyph glyph-name="zcaron" unicode="&#x17e;" horiz-adv-x="416" 
d="M30 453h299l-302 -419v-34h364v42h-307l301 419v34h-355v-42zM289 687l-83 -80l-84 80h-49l107 -112h51l108 112h-50z" />
    <glyph glyph-name="florin" unicode="&#x192;" horiz-adv-x="285" 
d="M264 453v42h-96l16 108q4 26 15 40.5t34 14.5h57v42h-64q-37 0 -58.5 -22.5t-28.5 -67.5l-17 -115h-102v-42h95l-81 -541q-4 -26 -15 -40.5t-34 -14.5h-57v-42h64q38 0 59.5 24.5t27.5 65.5l82 548h103z" />
    <glyph glyph-name="uni0218" unicode="&#x218;" horiz-adv-x="530" 
d="M32 204q11 -96 80 -154.5t171 -58.5q96 0 154 52.5t58 136.5q0 65 -40.5 109t-120.5 69l-118 36q-65 19 -97 52.5t-32 82.5q0 59 44 97.5t112 38.5q79 0 129 -45t60 -126h47q-10 97 -74.5 156t-159.5 59q-90 0 -147.5 -52t-57.5 -134q0 -60 40.5 -104.5t115.5 -67.5
l112 -34q72 -22 105.5 -56.5t33.5 -88.5q0 -63 -45.5 -100t-120.5 -37q-81 0 -134 44.5t-67 124.5h-48zM226 -191v-26q40 6 61.5 33.5t21.5 62.5q0 27 -11.5 42t-30.5 15q-11 0 -21 -9.5t-10 -22.5q0 -6 1.5 -10.5t4.5 -8t6 -6t7 -5t7 -4.5t6 -4.5t4.5 -5t1.5 -6.5
q0 -13 -14 -27t-34 -18z" />
    <glyph glyph-name="uni0219" unicode="&#x219;" horiz-adv-x="402" 
d="M215 -9q71 0 115.5 38t44.5 98q0 47 -31.5 81.5t-96.5 53.5l-78 23q-46 13 -68.5 34.5t-22.5 54.5q0 40 29 64t75 24q52 0 89.5 -31.5t45.5 -80.5h45q-9 68 -59 110.5t-122 42.5q-64 0 -106 -36.5t-42 -96.5q0 -46 30 -78t92 -50l72 -21q54 -16 78.5 -39.5t24.5 -59.5
q0 -40 -33 -65t-84 -25q-56 0 -95.5 32t-48.5 83h-46q10 -69 63.5 -112.5t128.5 -43.5zM161 -191v-26q40 6 61.5 33.5t21.5 62.5q0 27 -11.5 42t-30.5 15q-11 0 -21 -9.5t-10 -22.5q0 -6 1.5 -10.5t4.5 -8t6 -6t7 -5t7 -4.5t6 -4.5t4.5 -5t1.5 -6.5q0 -13 -14 -27t-34 -18z
" />
    <glyph glyph-name="uni021A" unicode="&#x21a;" horiz-adv-x="517" 
d="M10 657h224v-657h48v657h225v43h-497v-43zM213 -191v-26q40 6 61.5 33.5t21.5 62.5q0 27 -11.5 42t-30.5 15q-11 0 -21 -9.5t-10 -22.5q0 -6 1.5 -10.5t4.5 -8t6 -6t7 -5t7 -4.5t6 -4.5t4.5 -5t1.5 -6.5q0 -13 -14 -27t-34 -18z" />
    <glyph glyph-name="uni021B" unicode="&#x21b;" horiz-adv-x="289" 
d="M200 0h74v42h-68q-25 0 -39 13t-14 35v363h121v42h-121v151h-46v-151h-92v-42h92v-368q0 -39 25 -62t68 -23zM144 -191v-26q40 6 61.5 33.5t21.5 62.5q0 27 -11.5 42t-30.5 15q-11 0 -21 -9.5t-10 -22.5q0 -6 1.5 -10.5t4.5 -8t6 -6t7 -5t7 -4.5t6 -4.5t4.5 -5t1.5 -6.5
q0 -13 -14 -27t-34 -18z" />
    <glyph glyph-name="uni0237" unicode="&#x237;" horiz-adv-x="157" 
d="M18 -185q38 0 60.5 20.5t22.5 54.5v605h-46v-599q0 -18 -11 -28t-32 -10h-33v-43h39z" />
    <glyph glyph-name="circumflex" unicode="&#x2c6;" horiz-adv-x="510" 
d="M174 575l83 80l83 -80h50l-108 112h-51l-107 -112h50z" />
    <glyph glyph-name="caron" unicode="&#x2c7;" horiz-adv-x="510" 
d="M340 687l-83 -80l-84 80h-49l107 -112h51l108 112h-50z" />
    <glyph glyph-name="breve" unicode="&#x2d8;" horiz-adv-x="510" 
d="M255 611q-28 0 -55 16.5t-39 63.5l-38 -12q12 -51 49 -78.5t83 -27.5t83 27.5t49 78.5l-38 12q-12 -47 -39 -63.5t-55 -16.5z" />
    <glyph glyph-name="dotaccent" unicode="&#x2d9;" horiz-adv-x="248" 
d="M121 599q15 0 25.5 11t10.5 26t-10.5 25.5t-25.5 10.5q-14 0 -24.5 -10.5t-10.5 -25.5t10.5 -26t24.5 -11z" />
    <glyph glyph-name="ring" unicode="&#x2da;" horiz-adv-x="510" 
d="M255 560q41 0 69.5 28.5t28.5 67.5q0 40 -28.5 68.5t-69.5 28.5t-69.5 -28.5t-28.5 -68.5q0 -39 28.5 -67.5t69.5 -28.5zM255 591q-28 0 -46.5 19t-18.5 46t18.5 46.5t46.5 19.5t46.5 -19.5t18.5 -46.5t-18.5 -46t-46.5 -19z" />
    <glyph glyph-name="ogonek" unicode="&#x2db;" horiz-adv-x="510" 
d="M309 0l-28 18q-54 -53 -73 -88.5t-19 -69.5q0 -35 22 -58t66 -23q12 0 22.5 1.5t20.5 3.5l-4 34q-7 -2 -16.5 -3t-18.5 -1q-25 0 -39 14t-14 38q0 25 15.5 56t65.5 78z" />
    <glyph glyph-name="tilde" unicode="&#x2dc;" horiz-adv-x="510" 
d="M187 681q-29 0 -49.5 -23.5t-33.5 -66.5l34 -9q12 36 23 48.5t26 12.5q5 0 10 -2t10.5 -5.5t12 -8t13 -9.5t13.5 -10t14 -9.5t14.5 -8t15 -5.5t14.5 -2q29 0 50 23.5t34 66.5l-35 9q-12 -35 -23 -47.5t-25 -12.5q-5 0 -10 2t-11 5.5t-12.5 8t-13 9.5t-13.5 9.5l-14 9
t-14.5 8t-15 5.5t-14.5 2z" />
    <glyph glyph-name="hungarumlaut" unicode="&#x2dd;" horiz-adv-x="509" 
d="M236 687l-106 -112h52l114 112h-60zM389 687l-107 -112h52l115 112h-60z" />
    <glyph glyph-name="uni09F3" unicode="&#x9f3;" horiz-adv-x="587" 
d="M163 145v274h72v43h-72v173q0 30 -20 47.5t-53 17.5h-55v-42h49q16 0 24.5 -7.5t8.5 -20.5v-168h-82v-43h82v-287q0 -13 2 -25.5t6.5 -25t11.5 -24t16.5 -21t21.5 -18t27 -14.5t33 -9t39 -3q26 0 51.5 4.5t48.5 13t44 20t39.5 27t34 33.5t27.5 38t20.5 42.5t13 46.5
t4.5 49q0 22 -3.5 43.5t-10 41t-16 37t-21 32t-25.5 26.5t-30 20t-33 12.5t-36 4.5q-26 0 -46.5 -7t-38.5 -20l24 -34q13 9 29 14.5t32 5.5q53 0 91 -51t38 -125q0 -22 -4 -42t-11 -39t-17.5 -36.5t-23.5 -32.5t-28.5 -27.5t-33 -23t-37 -17.5t-40 -10.5t-42.5 -3.5
q-54 0 -82.5 27.5t-28.5 83.5z" />
    <glyph glyph-name="Wgrave" unicode="&#x1e80;" horiz-adv-x="904" 
d="M475 700h-45l-208 -619l-161 619h-51l186 -700h44l212 625l212 -625h45l185 700h-50l-161 -619zM394 892h-64l113 -112h54z" />
    <glyph glyph-name="wgrave" unicode="&#x1e81;" horiz-adv-x="668" 
d="M313 495l-141 -418l-125 418h-47l150 -495h39l145 430l146 -430h38l150 495h-46l-125 -420l-141 420h-43zM276 687h-64l113 -112h54z" />
    <glyph glyph-name="Wacute" unicode="&#x1e82;" horiz-adv-x="904" 
d="M475 700h-45l-208 -619l-161 619h-51l186 -700h44l212 625l212 -625h45l185 700h-50l-161 -619zM507 892l-103 -112h52l115 112h-64z" />
    <glyph glyph-name="wacute" unicode="&#x1e83;" horiz-adv-x="668" 
d="M313 495l-141 -418l-125 418h-47l150 -495h39l145 430l146 -430h38l150 495h-46l-125 -420l-141 420h-43zM389 687l-103 -112h52l115 112h-64z" />
    <glyph glyph-name="Wdieresis" unicode="&#x1e84;" horiz-adv-x="904" 
d="M475 700h-45l-208 -619l-161 619h-51l186 -700h44l212 625l212 -625h45l185 700h-50l-161 -619zM376 804q14 0 25 11t11 26t-11 25.5t-25 10.5t-25 -10.5t-11 -25.5t11 -26t25 -11zM528 804q14 0 25 11t11 26t-11 25.5t-25 10.5t-25 -10.5t-11 -25.5t11 -26t25 -11z" />
    <glyph glyph-name="wdieresis" unicode="&#x1e85;" horiz-adv-x="668" 
d="M313 495l-141 -418l-125 418h-47l150 -495h39l145 430l146 -430h38l150 495h-46l-125 -420l-141 420h-43zM258 599q14 0 25 11t11 26t-11 25.5t-25 10.5t-25 -10.5t-11 -25.5t11 -26t25 -11zM410 599q14 0 25 11t11 26t-11 25.5t-25 10.5t-25 -10.5t-11 -25.5t11 -26
t25 -11z" />
    <glyph glyph-name="Ygrave" unicode="&#x1ef2;" horiz-adv-x="557" 
d="M302 0v316l260 384h-51l-232 -343l-232 343h-52l259 -381v-319h48zM223 892h-64l113 -112h54z" />
    <glyph glyph-name="ygrave" unicode="&#x1ef3;" horiz-adv-x="430" 
d="M155 -82q-12 -30 -32 -45t-52 -15h-42v-43h49q49 0 75.5 26.5t44.5 71.5l237 582h-47l-171 -424l-174 424h-48l198 -482zM157 687h-64l113 -112h54z" />
    <glyph glyph-name="uni2002" unicode="&#x2002;" horiz-adv-x="500" 
 />
    <glyph glyph-name="uni2003" unicode="&#x2003;" horiz-adv-x="1000" 
 />
    <glyph glyph-name="uni2009" unicode="&#x2009;" horiz-adv-x="175" 
 />
    <glyph glyph-name="uni200A" unicode="&#x200a;" horiz-adv-x="100" 
 />
    <glyph glyph-name="uni200B" unicode="&#x200b;" horiz-adv-x="0" 
 />
    <glyph glyph-name="endash" unicode="&#x2013;" horiz-adv-x="540" 
d="M40 277h460v43h-460v-43z" />
    <glyph glyph-name="emdash" unicode="&#x2014;" horiz-adv-x="740" 
d="M40 277h659v43h-659v-43z" />
    <glyph glyph-name="uni2015" unicode="&#x2015;" horiz-adv-x="940" 
d="M40 277h859v43h-859v-43z" />
    <glyph glyph-name="quoteleft" unicode="&#x2018;" horiz-adv-x="146" 
d="M111 686v26q-40 -5 -62 -37t-22 -74q0 -25 11 -40t30 -15q12 0 22.5 9.5t10.5 22.5q0 6 -1.5 10.5t-4.5 8t-6.5 6.5t-7.5 5.5t-7.5 4.5t-6.5 4.5t-4.5 5t-1.5 6.5q0 17 14.5 35t35.5 22z" />
    <glyph glyph-name="quoteright" unicode="&#x2019;" horiz-adv-x="146" 
d="M40 574v-26q40 5 62 37t22 74q0 25 -11 40t-30 15q-12 0 -22.5 -9.5t-10.5 -22.5q0 -6 1.5 -10.5t4.5 -8t6.5 -6.5t7.5 -5.5t7.5 -4.5t6.5 -4.5t4.5 -5t1.5 -6.5q0 -17 -14.5 -35t-35.5 -22z" />
    <glyph glyph-name="quotesinglbase" unicode="&#x201a;" horiz-adv-x="146" 
d="M30 -79v-26q40 5 62 37t22 74q0 25 -11 40t-30 15q-12 0 -22.5 -9.5t-10.5 -22.5q0 -6 1.5 -10.5t4.5 -8t6.5 -6.5t7.5 -5.5t7.5 -4.5t6.5 -4.5t4.5 -5t1.5 -6.5q0 -17 -14.5 -35t-35.5 -22z" />
    <glyph glyph-name="quotedblleft" unicode="&#x201c;" horiz-adv-x="264" 
d="M111 684v26q-40 -5 -62 -37t-22 -74q0 -25 11 -40t30 -15q12 0 22.5 9.5t10.5 22.5q0 6 -1.5 10.5t-4.5 8t-6.5 6.5t-7.5 5.5t-7.5 4.5t-6.5 4.5t-4.5 5t-1.5 6.5q0 17 14.5 35t35.5 22zM229 684v26q-40 -5 -62 -37t-22 -74q0 -25 11 -40t30 -15q12 0 22.5 9.5t10.5 22.5
q0 6 -1.5 10.5t-4.5 8t-6.5 6.5t-7.5 5.5t-7.5 4.5t-6.5 4.5t-4.5 5t-1.5 6.5q0 17 14.5 35t35.5 22z" />
    <glyph glyph-name="quotedblright" unicode="&#x201d;" horiz-adv-x="264" 
d="M153 572v-26q40 5 62 37t22 74q0 25 -11 40t-30 15q-12 0 -22.5 -9.5t-10.5 -22.5q0 -6 1.5 -10.5t4.5 -8t6.5 -6.5t7.5 -5.5t7.5 -4.5t6.5 -4.5t4.5 -5t1.5 -6.5q0 -17 -14.5 -35t-35.5 -22zM35 572v-26q40 5 62 37t22 74q0 25 -11 40t-30 15q-12 0 -22.5 -9.5
t-10.5 -22.5q0 -6 1.5 -10.5t4.5 -8t6.5 -6.5t7.5 -5.5t7.5 -4.5t6.5 -4.5t4.5 -5t1.5 -6.5q0 -17 -14.5 -35t-35.5 -22z" />
    <glyph glyph-name="quotedblbase" unicode="&#x201e;" horiz-adv-x="264" 
d="M147 -79v-26q40 5 62 37t22 74q0 25 -11 40t-30 15q-12 0 -22.5 -9.5t-10.5 -22.5q0 -6 1.5 -10.5t4.5 -8t6.5 -6.5t7.5 -5.5t7.5 -4.5t6.5 -4.5t4.5 -5t1.5 -6.5q0 -17 -14.5 -35t-35.5 -22zM30 -79v-26q40 5 62 37t22 74q0 25 -11 40t-30 15q-12 0 -22.5 -9.5
t-10.5 -22.5q0 -6 1.5 -10.5t4.5 -8t6.5 -6.5t7.5 -5.5t7.5 -4.5t6.5 -4.5t4.5 -5t1.5 -6.5q0 -17 -14.5 -35t-35.5 -22z" />
    <glyph glyph-name="dagger" unicode="&#x2020;" horiz-adv-x="395" 
d="M174 0h46v454h130v41h-130v205h-46v-205h-128v-41h128v-454z" />
    <glyph glyph-name="daggerdbl" unicode="&#x2021;" horiz-adv-x="395" 
d="M174 0h46v205h130v41h-130v208h130v41h-130v205h-46v-205h-128v-41h128v-208h-128v-41h128v-205z" />
    <glyph glyph-name="bullet" unicode="&#x2022;" horiz-adv-x="232" 
d="M117 388q-31 0 -54 -23.5t-23 -54.5q0 -32 23 -55t54 -23t53 23t22 55q0 31 -22 54.5t-53 23.5z" />
    <glyph glyph-name="ellipsis" unicode="&#x2026;" horiz-adv-x="419" 
d="M74 63q-14 0 -25 -11t-11 -25q0 -16 11 -26.5t25 -10.5t24.5 10.5t10.5 26.5q0 14 -10.5 25t-24.5 11zM210 63q-14 0 -25 -11t-11 -25q0 -16 11 -26.5t25 -10.5t24.5 10.5t10.5 26.5q0 14 -10.5 25t-24.5 11zM347 63q-14 0 -25 -11t-11 -25q0 -16 11 -26.5t25 -10.5
t24.5 10.5t10.5 26.5q0 14 -10.5 25t-24.5 11z" />
    <glyph glyph-name="guilsinglleft" unicode="&#x2039;" horiz-adv-x="362" 
d="M319 495h-55l-232 -247l232 -248h58l-230 249z" />
    <glyph glyph-name="guilsinglright" unicode="&#x203a;" horiz-adv-x="362" 
d="M44 0h55l232 247l-232 248h-58l230 -249z" />
    <glyph glyph-name="fraction" unicode="&#x2044;" horiz-adv-x="561" 
d="M96 0l388 700h-46l-388 -700h46z" />
    <glyph glyph-name="uni2070" unicode="&#x2070;" horiz-adv-x="355" 
d="M41 459q0 -68 37.5 -109t98.5 -41t98.5 41t37.5 109v98q0 68 -37.5 108.5t-98.5 40.5t-98.5 -40.5t-37.5 -108.5v-98zM271 461q0 -53 -25.5 -83t-68.5 -30t-68 30t-25 83v94q0 52 25 82.5t68 30.5t68.5 -30t25.5 -83v-94z" />
    <glyph glyph-name="uni2074" unicode="&#x2074;" horiz-adv-x="332" 
d="M212 315h44v101h51v37h-51v247h-55l-179 -252v-32h190v-101zM70 453l142 204v-204h-142z" />
    <glyph glyph-name="uni2075" unicode="&#x2075;" horiz-adv-x="317" 
d="M160 556q-21 0 -40.5 -7t-35.5 -22l6 135h167v38h-204l-9 -205l35 -4q15 13 33.5 20.5t41.5 7.5q37 0 61.5 -24t24.5 -61t-25 -62.5t-62 -25.5q-31 0 -54 15.5t-36 41.5l-35 -19q16 -34 49 -54.5t78 -20.5q54 0 90.5 36.5t36.5 89.5q0 51 -34 86t-88 35z" />
    <glyph glyph-name="uni2076" unicode="&#x2076;" horiz-adv-x="338" 
d="M177 668q25 0 46.5 -14.5t34.5 -39.5l34 19q-16 34 -46.5 53.5t-69.5 19.5q-63 0 -100 -49.5t-37 -136.5v-32q0 -81 38 -130t101 -49q53 0 88.5 37t35.5 94q0 51 -34.5 86.5t-85.5 35.5q-35 0 -63 -20t-38 -56v27q0 78 26.5 116.5t69.5 38.5zM176 347q-37 0 -61.5 25.5
t-24.5 63.5q0 39 24.5 64.5t61.5 25.5t61.5 -25.5t24.5 -64.5t-24.5 -64t-61.5 -25z" />
    <glyph glyph-name="uni2077" unicode="&#x2077;" horiz-adv-x="300" 
d="M279 668v32h-257v-38h209l-183 -347h49z" />
    <glyph glyph-name="uni2078" unicode="&#x2078;" horiz-adv-x="329" 
d="M164 309q55 0 91 30.5t36 78.5q0 35 -21 61t-55 35q28 10 46 33.5t18 54.5q0 44 -32.5 73.5t-82.5 29.5q-49 0 -81.5 -29.5t-32.5 -73.5q0 -31 17.5 -54.5t46.5 -33.5q-34 -9 -55.5 -35t-21.5 -61q0 -48 36.5 -78.5t90.5 -30.5zM164 530q-31 0 -51.5 19.5t-20.5 49.5
q0 31 20.5 50t51.5 19q32 0 52 -19t20 -50q0 -30 -20 -49.5t-52 -19.5zM164 495q37 0 60.5 -21t23.5 -54q0 -34 -23.5 -54.5t-60.5 -20.5t-61 20.5t-24 54.5q0 33 24 54t61 21z" />
    <glyph glyph-name="uni2079" unicode="&#x2079;" horiz-adv-x="338" 
d="M161 347q-25 0 -47 14t-34 39l-35 -19q17 -33 47 -52.5t70 -19.5q62 0 99.5 49.5t37.5 136.5v32q0 81 -38.5 130t-99.5 49q-54 0 -89.5 -37t-35.5 -94q0 -51 34.5 -86.5t85.5 -35.5q35 0 63.5 21t38.5 58v-30q0 -78 -27 -116.5t-70 -38.5zM163 668q36 0 60.5 -25.5
t24.5 -63.5q0 -39 -24.5 -64.5t-60.5 -25.5q-37 0 -61.5 25.5t-24.5 64.5t24.5 64t61.5 25z" />
    <glyph glyph-name="uni2080" unicode="&#x2080;" horiz-adv-x="355" 
d="M41 144q0 -68 37.5 -109t98.5 -41t98.5 41t37.5 109v98q0 68 -37.5 108.5t-98.5 40.5t-98.5 -40.5t-37.5 -108.5v-98zM271 146q0 -53 -25.5 -83t-68.5 -30t-68 30t-25 83v94q0 52 25 82.5t68 30.5t68.5 -30t25.5 -83v-94z" />
    <glyph glyph-name="uni2081" unicode="&#x2081;" horiz-adv-x="257" 
d="M228 38h-76v347h-116v-38h72v-309h-77v-38h197v38z" />
    <glyph glyph-name="uni2082" unicode="&#x2082;" horiz-adv-x="296" 
d="M262 281q0 46 -33.5 77.5t-86.5 31.5q-40 0 -71.5 -20t-47.5 -54l34 -18q13 25 35 40t50 15q33 0 55 -21t22 -54q1 -27 -12 -48.5t-36 -47.5l-140 -154v-28h235v38h-175l113 124q29 31 44 58t14 61z" />
    <glyph glyph-name="uni2083" unicode="&#x2083;" horiz-adv-x="311" 
d="M145 390q-42 0 -73 -20t-47 -53l36 -17q11 24 32.5 38.5t49.5 14.5q33 0 55 -20t22 -51q0 -28 -19 -47.5t-48 -19.5h-42v-36h46q33 0 53.5 -20.5t20.5 -51.5q0 -33 -22.5 -54.5t-59.5 -21.5q-31 0 -55 15.5t-37 41.5l-36 -19q16 -34 50 -54.5t79 -20.5q54 0 89.5 32
t35.5 78q0 34 -20.5 60.5t-52.5 36.5q27 10 43.5 32.5t16.5 52.5q0 44 -33.5 74t-83.5 30z" />
    <glyph glyph-name="uni2084" unicode="&#x2084;" horiz-adv-x="332" 
d="M212 0h44v101h51v37h-51v247h-55l-179 -252v-32h190v-101zM70 138l142 204v-204h-142z" />
    <glyph glyph-name="uni2085" unicode="&#x2085;" horiz-adv-x="317" 
d="M160 241q-21 0 -40.5 -7t-35.5 -22l6 135h167v38h-204l-9 -205l35 -4q15 13 33.5 20.5t41.5 7.5q37 0 61.5 -24t24.5 -61t-25 -62.5t-62 -25.5q-31 0 -54 15.5t-36 41.5l-35 -19q16 -34 49 -54.5t78 -20.5q54 0 90.5 36.5t36.5 89.5q0 51 -34 86t-88 35z" />
    <glyph glyph-name="uni2086" unicode="&#x2086;" horiz-adv-x="338" 
d="M177 353q25 0 46.5 -14.5t34.5 -39.5l34 19q-16 34 -46.5 53.5t-69.5 19.5q-63 0 -100 -49.5t-37 -136.5v-32q0 -81 38 -130t101 -49q53 0 88.5 37t35.5 94q0 51 -34.5 86.5t-85.5 35.5q-35 0 -63 -20t-38 -56v27q0 78 26.5 116.5t69.5 38.5zM176 32q-37 0 -61.5 25.5
t-24.5 63.5q0 39 24.5 64.5t61.5 25.5t61.5 -25.5t24.5 -64.5t-24.5 -64t-61.5 -25z" />
    <glyph glyph-name="uni2087" unicode="&#x2087;" horiz-adv-x="300" 
d="M279 353v32h-257v-38h209l-183 -347h49z" />
    <glyph glyph-name="uni2088" unicode="&#x2088;" horiz-adv-x="329" 
d="M164 -6q55 0 91 30.5t36 78.5q0 35 -21 61t-55 35q28 10 46 33.5t18 54.5q0 44 -32.5 73.5t-82.5 29.5q-49 0 -81.5 -29.5t-32.5 -73.5q0 -31 17.5 -54.5t46.5 -33.5q-34 -9 -55.5 -35t-21.5 -61q0 -48 36.5 -78.5t90.5 -30.5zM164 215q-31 0 -51.5 19.5t-20.5 49.5
q0 31 20.5 50t51.5 19q32 0 52 -19t20 -50q0 -30 -20 -49.5t-52 -19.5zM164 180q37 0 60.5 -21t23.5 -54q0 -34 -23.5 -54.5t-60.5 -20.5t-61 20.5t-24 54.5q0 33 24 54t61 21z" />
    <glyph glyph-name="uni2089" unicode="&#x2089;" horiz-adv-x="338" 
d="M161 32q-25 0 -47 14t-34 39l-35 -19q17 -33 47 -52.5t70 -19.5q62 0 99.5 49.5t37.5 136.5v32q0 81 -38.5 130t-99.5 49q-54 0 -89.5 -37t-35.5 -94q0 -51 34.5 -86.5t85.5 -35.5q35 0 63.5 21t38.5 58v-30q0 -78 -27 -116.5t-70 -38.5zM163 353q36 0 60.5 -25.5
t24.5 -63.5q0 -39 -24.5 -64.5t-60.5 -25.5q-37 0 -61.5 25.5t-24.5 64.5t24.5 64t61.5 25z" />
    <glyph glyph-name="uni20A9" unicode="&#x20a9;" horiz-adv-x="912" 
d="M12 305v-41h120l71 -264h38l91 264h248l91 -264h39l71 264h119v41h-109l25 93h84v41h-73l70 261h-49l-67 -261h-216l-90 261h-38l-90 -261h-216l-67 261h-49l70 -261h-73v-41h84l25 -93h-109zM392 439l64 187l64 -187h-128zM166 305l-24 93h191l-32 -93h-135zM346 305
l32 93h156l32 -93h-220zM611 305l-32 93h191l-24 -93h-135zM177 264h110l-63 -184zM625 264h110l-47 -184z" />
    <glyph glyph-name="Euro" unicode="&#x20ac;" horiz-adv-x="702" 
d="M17 305v-41h102q6 -30 15.5 -57.5t23 -52.5t30.5 -46.5t36.5 -40t42 -33t48 -24.5t52.5 -15.5t56 -5.5q80 0 140.5 34t110.5 95l-37 28q-43 -55 -96 -84t-116 -29q-94 0 -165 63.5t-93 167.5h220l14 41h-241q-1 11 -1.5 22.5t-0.5 23.5t1 24t2 23h272l15 41h-281
q22 104 92.5 167t163.5 63q64 0 117.5 -29t96.5 -84l37 28q-50 61 -110.5 95t-140.5 34q-29 0 -56 -5.5t-52 -15.5t-47.5 -24.5t-42.5 -32.5t-36.5 -40t-30 -47t-23.5 -52.5t-16 -56.5h-102v-41h95q-1 -11 -1.5 -23t-0.5 -24t0.5 -23.5t1.5 -22.5h-95z" />
    <glyph glyph-name="uni20B9" unicode="&#x20b9;" horiz-adv-x="546" 
d="M470 0l-355 313h110q81 0 137.5 48t66.5 118h74v44h-73q-4 40 -24.5 75t-53.5 58h151v44h-459v-44h182q63 0 105.5 -39t49.5 -94h-337v-44h336q-9 -52 -51.5 -87.5t-102.5 -35.5h-182v-37l360 -319h66z" />
    <glyph glyph-name="trademark" unicode="&#x2122;" horiz-adv-x="659" 
d="M319 700v-279h37l-1 219l90 -219h27l91 224l-2 -224h38v279h-50l-90 -223l-91 223h-49zM30 700v-33h99v-246h39v246h100v33h-238z" />
    <glyph glyph-name="uni2190" unicode="&#x2190;" horiz-adv-x="1001" 
d="M115 350l274 -375h57l-257 351h733v48h-733l257 351h-57z" />
    <glyph glyph-name="uni2191" unicode="&#x2191;" horiz-adv-x="1000" 
d="M500 724l-375 -274v-57l351 257v-733h48v733l351 -257v57z" />
    <glyph glyph-name="uni2192" unicode="&#x2192;" horiz-adv-x="1001" 
d="M555 725l257 -351h-733v-48h733l-257 -351h57l274 375l-274 375h-57z" />
    <glyph glyph-name="uni2193" unicode="&#x2193;" horiz-adv-x="1000" 
d="M875 224l-351 -257v733h-48v-733l-351 257v-57l375 -274l375 274v57z" />
    <glyph glyph-name="minus" unicode="&#x2212;" horiz-adv-x="504" 
d="M450 379h-397v-42h397v42z" />
    <glyph glyph-name="approxequal" unicode="&#x2248;" horiz-adv-x="504" 
d="M147 438q11 0 22.5 -1.5t23 -4.5t23 -7t23 -8.5t23 -8.5l23 -8t23 -7t23 -4.5t22.5 -1.5q25 0 47 7t50 23v42q-27 -16 -47.5 -24.5t-44.5 -8.5q-12 0 -23.5 2t-23 5t-23.5 7t-23.5 8t-23 8.5t-23 8.5t-22.5 7t-22.5 5t-22.5 2q-25 0 -47.5 -7.5t-50.5 -24.5v-42
q27 16 48 24.5t46 8.5zM147 286q11 0 22.5 -2t23 -5t23 -6.5t23 -8l23 -9t23 -8t23 -6.5t23 -5t22.5 -2q25 0 47 7t50 24v42q-27 -16 -47.5 -24.5t-44.5 -8.5q-12 0 -23.5 2t-23 5t-23.5 6.5t-23.5 8l-23 9t-23 8t-22.5 6.5t-22.5 5t-22.5 2q-25 0 -47.5 -7.5t-50.5 -23.5
v-42q27 16 48 24.5t46 8.5z" />
    <glyph glyph-name="notequal" unicode="&#x2260;" horiz-adv-x="504" 
d="M55 145h49l95 117h251v41h-217l88 109h129v40h-96l96 118h-50l-96 -118h-251v-40h219l-89 -109h-130v-41h97z" />
    <glyph glyph-name="lessequal" unicode="&#x2264;" 
d="M440 499v50l-390 -184v-47l390 -184v51l-335 156zM50 226v-51l390 -184v51z" />
    <glyph glyph-name="greaterequal" unicode="&#x2265;" 
d="M60 499l335 -158l-335 -155v-52l390 184v47l-390 184v-50zM450 226l-390 -184v-51l390 184v51z" />
    <glyph glyph-name="uni25A0" unicode="&#x25a0;" horiz-adv-x="850" 
d="M775 700h-700v-700h700v700z" />
    <glyph glyph-name="uni25CF" unicode="&#x25cf;" horiz-adv-x="819" 
d="M769 351q0 30 -4.5 58t-13.5 55t-22 51.5t-29.5 47t-36 42t-42 36t-47 29.5t-51.5 22t-55 13.5t-58 4.5t-58.5 -4.5t-55 -13.5t-51.5 -22t-47.5 -29.5t-42 -36t-36 -42t-29.5 -47t-22 -51.5t-13.5 -55t-4.5 -58t4.5 -58.5t13.5 -55t22 -51.5t29.5 -47.5t36 -42t42 -36
t47.5 -29.5t51.5 -22t55 -13.5t58.5 -4.5t58 4.5t55 13.5t51.5 22t47 29.5t42 36t36 42t29.5 47.5t22 51.5t13.5 55t4.5 58.5z" />
    <glyph glyph-name="check" unicode="&#x2713;" horiz-adv-x="1002" 
d="M918 600l-542 -541l-292 291v-67l292 -291l542 541v67z" />
    <glyph glyph-name="close" unicode="&#x2715;" horiz-adv-x="1002" 
d="M853 669l-33 33l-317 -317l-317 317l-33 -33l317 -316l-317 -317l33 -33l317 317l317 -317l33 33l-317 317z" />
    <glyph glyph-name="fi" unicode="&#xfb01;" horiz-adv-x="431" 
d="M15 453h92v-453h46v453h177v-453h46v495h-223v108q0 25 13 39.5t36 14.5h125v42h-131q-40 0 -64.5 -25t-24.5 -66v-113h-92v-42z" />
    <glyph glyph-name="fl" unicode="&#xfb02;" horiz-adv-x="431" 
d="M15 453h92v-453h46v453h106v42h-106v108q0 25 13 39.5t36 14.5h128v-657h46v699h-180q-40 0 -64.5 -25t-24.5 -66v-113h-92v-42z" />
    <glyph glyph-name="Uber" horiz-adv-x="2119" 
d="M154 268v432h-105v-438q0 -31 5 -59t15 -53.5t24 -47t32 -39.5t39 -32t45 -23.5t50.5 -14.5t54.5 -5q54 0 102 20t83 57v-65h104v700h-105v-432q0 -83 -50 -134.5t-122 -51.5q-73 0 -122.5 51t-49.5 135zM681 0h100v64q34 -35 81.5 -55.5t100.5 -20.5q25 0 48.5 4.5
t45.5 12.5t42 19.5t37.5 26t32 32t26 37t20 41.5t12.5 45.5t4 47.5q0 25 -4 48.5t-12.5 45t-20 41.5t-26 37.5t-32 32t-37.5 26t-42 19.5t-45.5 12.5t-48.5 4.5q-53 0 -100 -20.5t-81 -55.5v255h-101v-700zM1271 255q0 -25 4 -49t12.5 -46t20 -41.5t26 -37t32.5 -32
t38 -25.5t42 -19t46 -12t50 -4q69 0 125.5 29t94.5 80l-73 54q-28 -38 -65.5 -56.5t-81.5 -18.5q-64 0 -111.5 41.5t-57.5 103.5h415v33q0 25 -4 49t-11.5 46t-18 41.5t-24.5 36.5t-30.5 31.5t-35 25.5t-40 19t-44 12t-47.5 4t-48.5 -4.5t-45 -12.5t-41 -19.5t-36.5 -26.5
t-31 -32.5t-25 -37t-19 -41t-12 -44.5t-4 -47zM2101 420v94h-35q-42 0 -72.5 -18t-49.5 -49v63h-100v-510h101v290q0 59 32.5 94.5t81.5 35.5h42zM1531 432q56 0 99 -36t56 -94h-311q13 58 56.5 94t99.5 36zM780 254q0 19 3.5 36t10.5 33t16.5 30.5t21.5 26.5t26 21.5
t29.5 16t33 10t35.5 3.5t35 -3.5t33 -10t30 -16t25.5 -21.5t21 -26.5t16.5 -30.5t10.5 -33t3.5 -36q0 -18 -3.5 -35.5t-10.5 -33.5t-16.5 -30t-21 -26t-25.5 -21.5t-30 -16.5t-33 -10.5t-35 -3.5t-35.5 3.5t-33.5 10.5t-30 16.5t-26 21.5t-21.5 26t-16 30t-10 33.5
t-3.5 35.5z" />
    <glyph glyph-name="idotaccent" horiz-adv-x="157" 
d="M79 599q14 0 25 11t11 26t-11 25.5t-25 10.5t-25 -10.5t-11 -25.5t11 -26t25 -11zM101 495h-46v-495h46v495z" />
    <glyph glyph-name="cordinal" horiz-adv-x="378" 
d="M71 530q0 60 41 101t98 41q35 0 65 -16t50 -43l32 24q-25 33 -62.5 53t-84.5 20q-19 0 -37 -3.5t-34.5 -10.5t-31 -16.5t-27 -21.5t-22 -26.5t-16.5 -31t-10.5 -34t-3.5 -36.5t3.5 -36.5t10.5 -34t16.5 -31t22 -26.5t27 -22t31 -17t34.5 -10.5t37 -3.5q47 0 84.5 20
t62.5 54l-32 23q-20 -28 -50 -43.5t-65 -15.5q-57 0 -98 41.5t-41 101.5z" />
    <glyph glyph-name="a.school" horiz-adv-x="599" 
d="M544 0v495h-46v-108q-32 53 -87 84.5t-121 31.5q-24 0 -46.5 -4t-43 -12t-39.5 -19t-35.5 -25t-30.5 -30.5t-25 -35.5t-19 -39.5t-12 -43t-4 -46.5t4 -46.5t11.5 -44t18.5 -40.5t25 -35.5t30.5 -30.5t35.5 -25t40 -19t43.5 -12t46.5 -4q67 0 121.5 31t86.5 84v-106h46z
M499 248q0 -20 -3.5 -39t-9.5 -36.5t-15 -33.5t-20.5 -30t-25.5 -25.5t-29.5 -21t-32.5 -16t-35.5 -10t-37.5 -3.5t-37.5 3.5t-35.5 10t-32.5 15.5t-29.5 21t-25.5 26t-20.5 30t-15 33.5t-9.5 36.5t-3.5 39t3.5 38.5t9.5 36t15 33.5t20.5 30t25.5 25.5t29.5 21t32.5 16
t35.5 10t37.5 3.5t37.5 -3.5t35.5 -10t32.5 -16t29 -21t25 -25.5t21 -30t15.5 -33.5t9.5 -36t3.5 -38.5z" />
    <glyph glyph-name="aacute.school" horiz-adv-x="599" 
d="M544 0v495h-46v-108q-32 53 -87 84.5t-121 31.5q-24 0 -46.5 -4t-43 -12t-39.5 -19t-35.5 -25t-30.5 -30.5t-25 -35.5t-19 -39.5t-12 -43t-4 -46.5t4 -46.5t11.5 -44t18.5 -40.5t25 -35.5t30.5 -30.5t35.5 -25t40 -19t43.5 -12t46.5 -4q67 0 121.5 31t86.5 84v-106h46z
M499 248q0 -20 -3.5 -39t-9.5 -36.5t-15 -33.5t-20.5 -30t-25.5 -25.5t-29.5 -21t-32.5 -16t-35.5 -10t-37.5 -3.5t-37.5 3.5t-35.5 10t-32.5 15.5t-29.5 21t-25.5 26t-20.5 30t-15 33.5t-9.5 36.5t-3.5 39t3.5 38.5t9.5 36t15 33.5t20.5 30t25.5 25.5t29.5 21t32.5 16
t35.5 10t37.5 3.5t37.5 -3.5t35.5 -10t32.5 -16t29 -21t25 -25.5t21 -30t15.5 -33.5t9.5 -36t3.5 -38.5zM346 687l-103 -112h52l115 112h-64z" />
    <glyph glyph-name="abreve.school" horiz-adv-x="599" 
d="M544 0v495h-46v-108q-32 53 -87 84.5t-121 31.5q-24 0 -46.5 -4t-43 -12t-39.5 -19t-35.5 -25t-30.5 -30.5t-25 -35.5t-19 -39.5t-12 -43t-4 -46.5t4 -46.5t11.5 -44t18.5 -40.5t25 -35.5t30.5 -30.5t35.5 -25t40 -19t43.5 -12t46.5 -4q67 0 121.5 31t86.5 84v-106h46z
M499 248q0 -20 -3.5 -39t-9.5 -36.5t-15 -33.5t-20.5 -30t-25.5 -25.5t-29.5 -21t-32.5 -16t-35.5 -10t-37.5 -3.5t-37.5 3.5t-35.5 10t-32.5 15.5t-29.5 21t-25.5 26t-20.5 30t-15 33.5t-9.5 36.5t-3.5 39t3.5 38.5t9.5 36t15 33.5t20.5 30t25.5 25.5t29.5 21t32.5 16
t35.5 10t37.5 3.5t37.5 -3.5t35.5 -10t32.5 -16t29 -21t25 -25.5t21 -30t15.5 -33.5t9.5 -36t3.5 -38.5zM291 611q-28 0 -55 16.5t-39 63.5l-38 -12q12 -51 49 -78.5t83 -27.5t83 27.5t49 78.5l-38 12q-12 -47 -39 -63.5t-55 -16.5z" />
    <glyph glyph-name="acircumflex.school" horiz-adv-x="599" 
d="M544 0v495h-46v-108q-32 53 -87 84.5t-121 31.5q-24 0 -46.5 -4t-43 -12t-39.5 -19t-35.5 -25t-30.5 -30.5t-25 -35.5t-19 -39.5t-12 -43t-4 -46.5t4 -46.5t11.5 -44t18.5 -40.5t25 -35.5t30.5 -30.5t35.5 -25t40 -19t43.5 -12t46.5 -4q67 0 121.5 31t86.5 84v-106h46z
M499 248q0 -20 -3.5 -39t-9.5 -36.5t-15 -33.5t-20.5 -30t-25.5 -25.5t-29.5 -21t-32.5 -16t-35.5 -10t-37.5 -3.5t-37.5 3.5t-35.5 10t-32.5 15.5t-29.5 21t-25.5 26t-20.5 30t-15 33.5t-9.5 36.5t-3.5 39t3.5 38.5t9.5 36t15 33.5t20.5 30t25.5 25.5t29.5 21t32.5 16
t35.5 10t37.5 3.5t37.5 -3.5t35.5 -10t32.5 -16t29 -21t25 -25.5t21 -30t15.5 -33.5t9.5 -36t3.5 -38.5zM208 575l83 80l83 -80h50l-108 112h-51l-107 -112h50z" />
    <glyph glyph-name="adieresis.school" horiz-adv-x="599" 
d="M544 0v495h-46v-108q-32 53 -87 84.5t-121 31.5q-24 0 -46.5 -4t-43 -12t-39.5 -19t-35.5 -25t-30.5 -30.5t-25 -35.5t-19 -39.5t-12 -43t-4 -46.5t4 -46.5t11.5 -44t18.5 -40.5t25 -35.5t30.5 -30.5t35.5 -25t40 -19t43.5 -12t46.5 -4q67 0 121.5 31t86.5 84v-106h46z
M499 248q0 -20 -3.5 -39t-9.5 -36.5t-15 -33.5t-20.5 -30t-25.5 -25.5t-29.5 -21t-32.5 -16t-35.5 -10t-37.5 -3.5t-37.5 3.5t-35.5 10t-32.5 15.5t-29.5 21t-25.5 26t-20.5 30t-15 33.5t-9.5 36.5t-3.5 39t3.5 38.5t9.5 36t15 33.5t20.5 30t25.5 25.5t29.5 21t32.5 16
t35.5 10t37.5 3.5t37.5 -3.5t35.5 -10t32.5 -16t29 -21t25 -25.5t21 -30t15.5 -33.5t9.5 -36t3.5 -38.5zM215 599q14 0 25 11t11 26t-11 25.5t-25 10.5t-25 -10.5t-11 -25.5t11 -26t25 -11zM367 599q14 0 25 11t11 26t-11 25.5t-25 10.5t-25 -10.5t-11 -25.5t11 -26t25 -11z
" />
    <glyph glyph-name="agrave.school" horiz-adv-x="599" 
d="M544 0v495h-46v-108q-32 53 -87 84.5t-121 31.5q-24 0 -46.5 -4t-43 -12t-39.5 -19t-35.5 -25t-30.5 -30.5t-25 -35.5t-19 -39.5t-12 -43t-4 -46.5t4 -46.5t11.5 -44t18.5 -40.5t25 -35.5t30.5 -30.5t35.5 -25t40 -19t43.5 -12t46.5 -4q67 0 121.5 31t86.5 84v-106h46z
M499 248q0 -20 -3.5 -39t-9.5 -36.5t-15 -33.5t-20.5 -30t-25.5 -25.5t-29.5 -21t-32.5 -16t-35.5 -10t-37.5 -3.5t-37.5 3.5t-35.5 10t-32.5 15.5t-29.5 21t-25.5 26t-20.5 30t-15 33.5t-9.5 36.5t-3.5 39t3.5 38.5t9.5 36t15 33.5t20.5 30t25.5 25.5t29.5 21t32.5 16
t35.5 10t37.5 3.5t37.5 -3.5t35.5 -10t32.5 -16t29 -21t25 -25.5t21 -30t15.5 -33.5t9.5 -36t3.5 -38.5zM233 687h-64l113 -112h54z" />
    <glyph glyph-name="amacron.school" horiz-adv-x="599" 
d="M544 0v495h-46v-108q-32 53 -87 84.5t-121 31.5q-24 0 -46.5 -4t-43 -12t-39.5 -19t-35.5 -25t-30.5 -30.5t-25 -35.5t-19 -39.5t-12 -43t-4 -46.5t4 -46.5t11.5 -44t18.5 -40.5t25 -35.5t30.5 -30.5t35.5 -25t40 -19t43.5 -12t46.5 -4q67 0 121.5 31t86.5 84v-106h46z
M499 248q0 -20 -3.5 -39t-9.5 -36.5t-15 -33.5t-20.5 -30t-25.5 -25.5t-29.5 -21t-32.5 -16t-35.5 -10t-37.5 -3.5t-37.5 3.5t-35.5 10t-32.5 15.5t-29.5 21t-25.5 26t-20.5 30t-15 33.5t-9.5 36.5t-3.5 39t3.5 38.5t9.5 36t15 33.5t20.5 30t25.5 25.5t29.5 21t32.5 16
t35.5 10t37.5 3.5t37.5 -3.5t35.5 -10t32.5 -16t29 -21t25 -25.5t21 -30t15.5 -33.5t9.5 -36t3.5 -38.5zM414 646h-247v-39h247v39z" />
    <glyph glyph-name="aogonek.school" horiz-adv-x="599" 
d="M545 0l-1 1v494h-46v-108q-32 53 -87 84.5t-121 31.5q-24 0 -46.5 -4t-43 -12t-39.5 -19t-35.5 -25t-30.5 -30.5t-25 -35.5t-19 -39.5t-12 -43t-4 -46.5t4 -46.5t11.5 -44t18.5 -40.5t25 -35.5t30.5 -30.5t35.5 -25t40 -19t43.5 -12t46.5 -4q67 0 121.5 31t86.5 84v-106
h1q-43 -45 -58.5 -77t-15.5 -63q0 -35 22 -58t66 -23q12 0 22.5 1.5t20.5 3.5l-4 34q-7 -2 -16.5 -3t-18.5 -1q-25 0 -39 14t-14 38q0 25 15.5 56t65.5 78zM499 248q0 -20 -3.5 -39t-9.5 -36.5t-15 -33.5t-20.5 -30t-25.5 -25.5t-29.5 -21t-32.5 -16t-35.5 -10t-37.5 -3.5
t-37.5 3.5t-35.5 10t-32.5 15.5t-29.5 21t-25.5 26t-20.5 30t-15 33.5t-9.5 36.5t-3.5 39t3.5 38.5t9.5 36t15 33.5t20.5 30t25.5 25.5t29.5 21t32.5 16t35.5 10t37.5 3.5t37.5 -3.5t35.5 -10t32.5 -16t29 -21t25 -25.5t21 -30t15.5 -33.5t9.5 -36t3.5 -38.5z" />
    <glyph glyph-name="aring.school" horiz-adv-x="599" 
d="M544 0v495h-46v-108q-32 53 -87 84.5t-121 31.5q-24 0 -46.5 -4t-43 -12t-39.5 -19t-35.5 -25t-30.5 -30.5t-25 -35.5t-19 -39.5t-12 -43t-4 -46.5t4 -46.5t11.5 -44t18.5 -40.5t25 -35.5t30.5 -30.5t35.5 -25t40 -19t43.5 -12t46.5 -4q67 0 121.5 31t86.5 84v-106h46z
M499 248q0 -20 -3.5 -39t-9.5 -36.5t-15 -33.5t-20.5 -30t-25.5 -25.5t-29.5 -21t-32.5 -16t-35.5 -10t-37.5 -3.5t-37.5 3.5t-35.5 10t-32.5 15.5t-29.5 21t-25.5 26t-20.5 30t-15 33.5t-9.5 36.5t-3.5 39t3.5 38.5t9.5 36t15 33.5t20.5 30t25.5 25.5t29.5 21t32.5 16
t35.5 10t37.5 3.5t37.5 -3.5t35.5 -10t32.5 -16t29 -21t25 -25.5t21 -30t15.5 -33.5t9.5 -36t3.5 -38.5zM291 560q41 0 69.5 28.5t28.5 67.5q0 40 -28.5 68.5t-69.5 28.5t-69.5 -28.5t-28.5 -68.5q0 -39 28.5 -67.5t69.5 -28.5zM291 591q-28 0 -46.5 19t-18.5 46t18.5 46.5
t46.5 19.5t46.5 -19.5t18.5 -46.5t-18.5 -46t-46.5 -19z" />
    <glyph glyph-name="atilde.school" horiz-adv-x="599" 
d="M544 0v495h-46v-108q-32 53 -87 84.5t-121 31.5q-24 0 -46.5 -4t-43 -12t-39.5 -19t-35.5 -25t-30.5 -30.5t-25 -35.5t-19 -39.5t-12 -43t-4 -46.5t4 -46.5t11.5 -44t18.5 -40.5t25 -35.5t30.5 -30.5t35.5 -25t40 -19t43.5 -12t46.5 -4q67 0 121.5 31t86.5 84v-106h46z
M499 248q0 -20 -3.5 -39t-9.5 -36.5t-15 -33.5t-20.5 -30t-25.5 -25.5t-29.5 -21t-32.5 -16t-35.5 -10t-37.5 -3.5t-37.5 3.5t-35.5 10t-32.5 15.5t-29.5 21t-25.5 26t-20.5 30t-15 33.5t-9.5 36.5t-3.5 39t3.5 38.5t9.5 36t15 33.5t20.5 30t25.5 25.5t29.5 21t32.5 16
t35.5 10t37.5 3.5t37.5 -3.5t35.5 -10t32.5 -16t29 -21t25 -25.5t21 -30t15.5 -33.5t9.5 -36t3.5 -38.5zM232 681q-29 0 -49.5 -23.5t-33.5 -66.5l34 -9q12 36 23 48.5t26 12.5q5 0 10 -2t10.5 -5.5t12 -8t13 -9.5t13.5 -10t14 -9.5t14.5 -8t15 -5.5t14.5 -2q29 0 50 23.5
t34 66.5l-35 9q-12 -35 -23 -47.5t-25 -12.5q-5 0 -10 2t-11 5.5t-12.5 8t-13 9.5t-13.5 9.5l-14 9t-14.5 8t-15 5.5t-14.5 2z" />
    <glyph glyph-name="caronSlovak" horiz-adv-x="177" 
d="M35 540h36l36 160h-50z" />
    <glyph glyph-name="uni00200326" horiz-adv-x="204" 
d="M49 -191v-26q40 6 61.5 33.5t21.5 62.5q0 27 -11.5 42t-30.5 15q-11 0 -21 -9.5t-10 -22.5q0 -6 1.5 -10.5t4.5 -8t6 -6t7 -5t7 -4.5t6 -4.5t4.5 -5t1.5 -6.5q0 -13 -14 -27t-34 -18z" />
    <glyph glyph-name="colon.alt" horiz-adv-x="146" 
d="M74 206q-14 0 -25 -11t-11 -25q0 -16 11 -26.5t25 -10.5t24.5 10.5t10.5 26.5q0 14 -10.5 25t-24.5 11zM74 537q-14 0 -25 -11t-11 -25q0 -16 11 -26.5t25 -10.5t24.5 10.5t10.5 26.5q0 14 -10.5 25t-24.5 11z" />
    <glyph glyph-name="reversequoteleft" horiz-adv-x="146" 
d="M116 574q-21 4 -35.5 22t-14.5 35q0 4 1.5 6.5t4.5 5t6.5 4.5t7.5 4.5t7.5 5.5t6.5 6.5t4.5 8t1.5 10.5q0 13 -10.5 22.5t-22.5 9.5q-19 0 -30 -15t-11 -40q0 -42 22 -74t62 -37v26z" />
    <glyph glyph-name="reversequotedblleft" horiz-adv-x="264" 
d="M116 574q-21 4 -35.5 22t-14.5 35q0 4 1.5 6.5t4.5 5t6.5 4.5t7.5 4.5t7.5 5.5t6.5 6.5t4.5 8t1.5 10.5q0 13 -10.5 22.5t-22.5 9.5q-19 0 -30 -15t-11 -40q0 -42 22 -74t62 -37v26zM234 574q-21 4 -35.5 22t-14.5 35q0 4 1.5 6.5t4.5 5t6.5 4.5t7.5 4.5t7.5 5.5t6.5 6.5
t4.5 8t1.5 10.5q0 13 -10.5 22.5t-22.5 9.5q-19 0 -30 -15t-11 -40q0 -42 22 -74t62 -37v26z" />
    <glyph glyph-name="at.cap" horiz-adv-x="804" 
d="M388 172q43 0 78 19.5t57 52.5q12 -30 37 -45t59 -15q13 0 26.5 3t25.5 9.5t23.5 15.5t21 21t17.5 26.5t13.5 31.5t8.5 36.5t3 40.5q0 34 -5.5 65t-16 59.5t-26 53.5t-34.5 47t-42.5 40.5t-49.5 32.5t-55.5 24t-61 15t-65.5 5q-30 0 -58 -4.5t-55 -13.5t-51.5 -22
t-46.5 -29.5t-41.5 -36t-36 -42t-29 -47.5t-21.5 -52t-13.5 -55.5t-4.5 -58.5t4.5 -58.5t13.5 -55.5t21.5 -51.5t29 -47t36 -42t41.5 -36t46.5 -29t51.5 -21.5t55 -13.5t58 -4.5q70 0 132 21t111 60l-29 32q-42 -34 -97.5 -53t-116.5 -19q-26 0 -51 4t-48 12t-44.5 19.5
t-41 25.5t-36.5 31.5t-31 37t-25 41.5t-19 46t-12 49t-4 52t4 52t12 49t19 46t25 42t31 37.5t36.5 32t41 26t44.5 19.5t48 12t51 4q30 0 57.5 -4.5t53 -13t48.5 -21t43 -28.5t37 -35.5t30 -42t22 -47.5t14 -53t5 -58q0 -59 -26 -100t-67 -41q-28 0 -43 17.5t-15 42.5v224
h-45v-57q-22 29 -55 46t-73 17q-70 0 -120 -50t-50 -121q0 -72 49.5 -122t120.5 -50zM391 214q-53 0 -89.5 38t-36.5 92t36.5 91.5t89.5 37.5q51 0 88.5 -37.5t37.5 -91.5t-37.5 -92t-88.5 -38z" />
    <glyph glyph-name="dollar.alt" horiz-adv-x="527" 
d="M195 349l106 -33q67 -21 96.5 -52t29.5 -79q0 -57 -40 -91.5t-111 -34.5q-75 0 -124.5 42t-62.5 114h-50q10 -81 65 -133.5t136 -62.5v-82h47v80q85 2 137.5 49.5t52.5 126.5q0 60 -39.5 101t-111.5 64l-112 36q-60 19 -88.5 49t-28.5 75q0 54 41 89t104 35
q75 0 122.5 -41t57.5 -116h49q-8 80 -58 132t-126 64v79h-47v-75q-82 0 -137 -47t-55 -126q0 -56 37.5 -98.5t109.5 -64.5z" />
    <glyph glyph-name="NTD" horiz-adv-x="1587" 
d="M102 0v581l418 -581h49v644h-43l1 -579l-418 579h-50v-644h43zM634 604h206v-604h45v604h207v40h-458v-40zM1278 320l41 -13v-251q-56 9 -93 46.5t-47 95.5h-43q9 -75 59 -122.5t124 -57.5v-76h41v74q79 0 130 43.5t51 118.5q0 55 -37.5 92t-105.5 58l-38 12v248
q53 -10 86.5 -46.5t41.5 -95.5h43q-8 75 -54 123t-117 58v72h-41v-69q-77 0 -128 -43t-51 -116q0 -52 35.5 -90.5t102.5 -60.5zM1296 360q-58 19 -86 46.5t-28 70.5q0 49 39 81.5t98 33.5v-240zM1376 292q64 -19 92.5 -47.5t28.5 -73.5q0 -51 -36.5 -83.5t-100.5 -34.5v243z
" />
    <glyph glyph-name=".ttfautohint" horiz-adv-x="850" 
d="M0 0z" />
    </font>
</defs>
</svg>
