<?xml version="1.0" standalone="no"?>
<!DOCTYPE svg PUBLIC "-//W3C//DTD SVG 1.1//EN" "http://www.w3.org/Graphics/SVG/1.1/DTD/svg11.dtd" >
<svg xmlns="http://www.w3.org/2000/svg" xmlns:xlink="http://www.w3.org/1999/xlink" version="1.1">
<metadata>
Created by FontForge 20201107 at Tue Mar 22 23:55:24 2022
 By 
(c) 2018 Uber Technologies, Inc. All rights reserved.
</metadata>
<defs>
<font id="UberMove-Bold" horiz-adv-x="221" >
  <font-face 
    font-family="Uber Move"
    font-weight="700"
    font-stretch="normal"
    units-per-em="1000"
    panose-1="2 1 8 3 3 2 1 6 3 3"
    ascent="800"
    descent="-200"
    x-height="517"
    cap-height="700"
    bbox="-67 -272 2101 974"
    underline-thickness="50"
    underline-position="-125"
    unicode-range="U+000D-FB02"
  />
<missing-glyph horiz-adv-x="514" 
d="M60 -100h394v850h-394v-850z" />
    <glyph glyph-name=".notdef" horiz-adv-x="514" 
d="M60 -100h394v850h-394v-850z" />
    <glyph glyph-name="uni0000" horiz-adv-x="200" 
 />
    <glyph glyph-name="uni0000" horiz-adv-x="200" 
 />
    <glyph glyph-name="uni000D" unicode="&#xd;" horiz-adv-x="200" 
 />
    <glyph glyph-name="space" unicode=" " horiz-adv-x="200" 
 />
    <glyph glyph-name="exclam" unicode="!" horiz-adv-x="220" 
d="M166 191l9 509h-130l10 -509h111zM110 135q-30 0 -51 -21t-21 -51t21 -50.5t51 -20.5t51 20.5t21 50.5t-21 51t-51 21z" />
    <glyph glyph-name="quotedbl" unicode="&#x22;" horiz-adv-x="412" 
d="M68 463h102l8 269h-119zM244 463h102l8 269h-119z" />
    <glyph glyph-name="numbersign" unicode="#" horiz-adv-x="699" 
d="M67 0h115l57 198h134l-57 -198h116l57 198h133v93h-107l34 118h123v94h-96l56 197h-116l-56 -197h-134l56 197h-115l-56 -197h-135v-94h108l-34 -118h-124v-93h98zM265 291l34 118h134l-34 -118h-134z" />
    <glyph glyph-name="dollar" unicode="$" horiz-adv-x="592" 
d="M221 307l29 -8v-171q-35 11 -56.5 36.5t-25.5 61.5h-125q7 -81 63.5 -137t143.5 -72v-82h92v77q100 7 156 62.5t56 130.5q0 74 -42.5 119.5t-135.5 69.5l-34 9v167q29 -12 48 -35.5t26 -56.5h127q-11 79 -65 134t-136 71v82h-92v-77q-22 -2 -42.5 -7t-39.5 -12.5
t-35 -17.5t-30 -22.5t-25 -27t-18.5 -31.5t-11.5 -35t-4 -38q0 -74 44.5 -120.5t132.5 -69.5zM170 502q0 32 22.5 52t57.5 26v-158q-36 8 -58 28.5t-22 51.5zM428 197q0 -31 -22 -51.5t-64 -25.5v160q40 -9 63 -31.5t23 -51.5z" />
    <glyph glyph-name="percent" unicode="%" horiz-adv-x="844" 
d="M208 357q18 0 35.5 3.5t33 10.5t29.5 16.5t26 21.5t21.5 26t16.5 30t10.5 33.5t3.5 36.5q0 17 -3.5 34t-10 32.5t-16 29.5t-21.5 26t-26 22t-30 17t-33 10.5t-36 3.5t-36.5 -3.5t-33.5 -10.5t-30 -17t-26 -22t-21.5 -26t-16 -29.5t-10 -32.5t-3.5 -34q0 -19 3.5 -36.5
t10 -33.5t16 -30t21.5 -26t26.5 -21.5t30.5 -16.5t33 -10.5t36 -3.5zM282 0l377 700h-99l-376 -700h98zM208 441q-37 0 -64 28t-27 67q0 35 27 62.5t64 27.5t64 -27.5t27 -62.5q0 -39 -27 -67t-64 -28zM635 343q-18 0 -35 -3.5t-33 -10.5t-30 -16.5t-25.5 -21.5t-21 -26
t-16.5 -30t-10.5 -33.5t-3.5 -36.5q0 -17 3.5 -34t10 -32.5t16 -29.5t21.5 -26t26 -22t29.5 -17t33 -10.5t35.5 -3.5q19 0 36.5 3.5t34 10.5t30.5 17t26 22t21.5 26t16 29.5t10 32.5t3.5 34q0 19 -3.5 36.5t-10 33.5t-16 30t-22 26t-26.5 21.5t-30 16.5t-33.5 10.5
t-36.5 3.5zM635 259q37 0 64.5 -28t27.5 -66q0 -36 -27.5 -63.5t-64.5 -27.5q-36 0 -63 27.5t-27 63.5q0 38 26.5 66t63.5 28z" />
    <glyph glyph-name="ampersand" unicode="&#x26;" horiz-adv-x="657" 
d="M465 54q28 -29 55 -41.5t64 -12.5h69v117h-42q-14 0 -27 5.5t-27 19.5l-27 29l116 170l-97 59l-98 -146l-97 102q72 38 105 81.5t33 100.5q0 75 -55 124t-142 49q-89 0 -145.5 -52t-56.5 -133q0 -37 16 -73t49 -73q-73 -39 -106 -85t-33 -111q0 -22 4.5 -41.5t13 -37.5
t20.5 -34t28 -29t34.5 -23.5t40 -17.5t45 -11t49.5 -4q59 0 108 20t90 62zM273 442q-26 27 -38 48.5t-12 40.5q0 31 20 51t51 20q30 0 50 -20t20 -51q0 -28 -17 -48.5t-56 -39.5l-13 -6zM154 189q0 34 20 59.5t63 47.5l139 -147q-24 -24 -53 -36t-60 -12q-47 0 -78 25.5
t-31 62.5z" />
    <glyph glyph-name="quotesingle" unicode="'" horiz-adv-x="236" 
d="M68 463h102l8 269h-119z" />
    <glyph glyph-name="parenleft" unicode="(" horiz-adv-x="403" 
d="M171 333q0 131 56.5 232.5t152.5 152.5l-62 89q-36 -19 -68 -43t-59 -53t-49.5 -61.5t-39.5 -69t-28.5 -76.5t-17.5 -83t-6 -88t6 -88t17.5 -83t28.5 -76.5t39.5 -69t49.5 -61.5t59 -53t68 -43l62 89q-96 51 -152.5 152.5t-56.5 232.5z" />
    <glyph glyph-name="parenright" unicode=")" horiz-adv-x="403" 
d="M232 333q0 -131 -56.5 -232.5t-152.5 -152.5l62 -89q36 19 68 43t59 53t49.5 61.5t39.5 69t28.5 76.5t17.5 83t6 88t-6 88t-17.5 83t-28.5 76.5t-39.5 69t-49.5 61.5t-59 53t-68 43l-62 -89q96 -51 152.5 -152.5t56.5 -232.5z" />
    <glyph glyph-name="asterisk" unicode="*" horiz-adv-x="454" 
d="M373 372l43 71l-113 67l113 68l-43 70l-106 -66l1 118h-81l1 -119l-107 67l-41 -70l111 -68l-112 -67l42 -71l107 67l-1 -120h81l-1 120z" />
    <glyph glyph-name="plus" unicode="+" horiz-adv-x="545" 
d="M324 131v177h176v102h-176v173h-102v-173h-177v-102h177v-177h102z" />
    <glyph glyph-name="comma" unicode="," 
d="M42 -88v-63q68 13 109.5 63t41.5 117q0 51 -23.5 81t-63.5 30q-34 0 -52.5 -23.5t-18.5 -48.5q0 -10 1.5 -17.5t4.5 -14t7.5 -11.5t9 -9t9.5 -7l10 -6t9.5 -5.5l9 -5t7.5 -5.5t4.5 -6.5t1.5 -7.5q0 -21 -19.5 -39t-47.5 -22z" />
    <glyph glyph-name="hyphen" unicode="-" horiz-adv-x="423" 
d="M30 244h362v110h-362v-110z" />
    <glyph glyph-name="period" unicode="." 
d="M110 140q-31 0 -53.5 -22t-22.5 -53t22.5 -53t53.5 -22t53.5 22t22.5 53t-22.5 53t-53.5 22z" />
    <glyph glyph-name="slash" unicode="/" horiz-adv-x="445" 
d="M136 0l304 700h-130l-304 -700h130z" />
    <glyph glyph-name="zero" unicode="0" horiz-adv-x="633" 
d="M42 262q0 -125 75.5 -200.5t199.5 -75.5t199 75.5t75 200.5v177q0 125 -75 200t-199 75t-199.5 -75.5t-75.5 -199.5v-177zM462 265q0 -77 -38.5 -121t-106.5 -44t-107 44.5t-39 120.5v171q0 76 39 120t107 44t106.5 -44t38.5 -120v-171z" />
    <glyph glyph-name="one" unicode="1" horiz-adv-x="491" 
d="M469 115h-159v585h-264v-115h134v-470h-158v-115h447v115z" />
    <glyph glyph-name="two" unicode="2" horiz-adv-x="542" 
d="M501 498q0 23 -4.5 44.5t-13 41t-21 36.5t-28.5 31t-35 25t-40.5 19t-46 12t-50.5 4q-76 0 -139 -31t-111 -89l85 -79q35 43 71.5 64.5t79.5 21.5q52 0 86.5 -31.5t34.5 -80.5q0 -35 -15.5 -63t-56.5 -71l-265 -273v-79h474v113h-277l157 159q63 65 89 116.5t26 109.5z
" />
    <glyph glyph-name="three" unicode="3" horiz-adv-x="571" 
d="M277 711q-83 0 -141.5 -31.5t-104.5 -84.5l85 -75q30 35 66.5 58t82.5 23q51 0 82.5 -27.5t31.5 -67.5t-27 -66.5t-76 -26.5h-90v-110h105q53 0 83 -30t30 -70q0 -44 -36 -75.5t-96 -31.5q-52 0 -93.5 24t-72.5 61l-89 -81q46 -52 109.5 -83t153.5 -31q25 0 48.5 3.5
t45 10.5t40.5 16.5t35.5 22t30 27t24.5 31t18 34.5t11 37t4 39q0 51 -28 93t-74 67q35 24 56 60.5t21 79.5q0 19 -3.5 37t-10.5 34.5t-17 32t-23 28.5t-28.5 24.5t-32.5 20t-36.5 15t-40.5 9.5t-43 3z" />
    <glyph glyph-name="four" unicode="4" horiz-adv-x="621" 
d="M385 0h130v171h85v115h-85v414h-168l-317 -433v-96h355v-171zM180 286l205 281v-281h-205z" />
    <glyph glyph-name="five" unicode="5" horiz-adv-x="578" 
d="M304 454q-37 0 -69 -8t-61 -25l6 164h310v115h-424l-15 -386l105 -16q28 25 55 35.5t62 10.5q57 0 94 -34t37 -86q0 -54 -37.5 -91t-94.5 -37q-45 0 -85 21.5t-76 65.5l-90 -82q51 -58 113.5 -86.5t140.5 -28.5q25 0 48.5 4t45 11t41 18t36.5 24t31 29.5t25 34.5t19 38.5
t12 42.5t4 46q0 21 -3.5 40.5t-10.5 37.5t-17 34t-22.5 30.5t-28 26.5t-32.5 21.5t-36.5 16t-40 10t-42.5 3.5z" />
    <glyph glyph-name="six" unicode="6" horiz-adv-x="608" 
d="M317 -9q24 0 46.5 4t43.5 11.5t40 18t36 24t31 30t25 35t18.5 39t11.5 42.5t4 45q0 21 -4 41t-11 39t-17.5 36t-24 32t-29 28t-33 23t-36.5 17.5t-39.5 11t-42.5 3.5q-51 0 -93.5 -17t-73.5 -51q3 94 48 148.5t107 54.5q43 0 78.5 -18.5t63.5 -52.5l86 78
q-44 50 -100 76.5t-128 26.5q-33 0 -62.5 -6.5t-55.5 -19t-48.5 -31t-41 -42t-33 -52.5t-24 -62.5t-14.5 -71t-5 -79.5v-26q0 -38 5 -73t14.5 -65.5t23.5 -57t32 -48.5t40 -39t47.5 -28.5t54 -17.5t60.5 -6zM313 101q-56 0 -95 38.5t-39 93.5q0 56 39.5 94t94.5 38
q57 0 96.5 -38t39.5 -94q0 -55 -39.5 -93.5t-96.5 -38.5z" />
    <glyph glyph-name="seven" unicode="7" horiz-adv-x="566" 
d="M545 604v96h-524v-115h377l-325 -585h151z" />
    <glyph glyph-name="eight" unicode="8" horiz-adv-x="602" 
d="M564 202q0 52 -29 95t-76 67q37 24 59 61.5t22 82.5q0 22 -4.5 42t-13.5 38.5t-21.5 34.5t-29 29.5t-35.5 24.5t-40.5 18.5t-45.5 11.5t-49 4t-49 -4t-46 -11.5t-41 -18.5t-35 -24.5t-29 -29.5t-22 -34.5t-13.5 -38.5t-4.5 -42q0 -45 22.5 -82t59.5 -62
q-47 -24 -76.5 -67t-29.5 -95q0 -21 4 -40.5t12 -37.5t19 -34t25.5 -29.5t31.5 -25.5t36.5 -21t41.5 -15t45.5 -9.5t48.5 -3.5q28 0 54.5 4t50 12t44.5 19.5t38.5 26t31.5 31.5t24 36.5t15 41.5t5 45zM301 601q46 0 77 -26.5t31 -67.5t-32 -68t-76 -27q-45 0 -76.5 27
t-31.5 68t31 67.5t77 26.5zM301 305q54 0 91.5 -30t37.5 -76q0 -45 -37.5 -74t-91.5 -29q-55 0 -92.5 29t-37.5 74q0 46 38 76t92 30z" />
    <glyph glyph-name="nine" unicode="9" horiz-adv-x="608" 
d="M291 709q-24 0 -46.5 -4t-43.5 -11.5t-40 -18t-36 -24t-31 -30t-25 -35t-18.5 -39t-11.5 -42.5t-4 -45q0 -21 4 -41t11 -39t17.5 -36t24 -32t29 -28t33 -23t36.5 -17.5t39.5 -11t42.5 -3.5q51 0 93.5 17t73.5 51q-3 -94 -48 -148.5t-107 -54.5q-43 0 -78.5 18.5
t-63.5 52.5l-86 -78q44 -50 100 -76.5t128 -26.5q33 0 62.5 6.5t55.5 19t48.5 31t41 42t33 52.5t24 62.5t14.5 71t5 79.5v26q0 38 -5 73t-14.5 65.5t-23.5 57t-32 48.5t-40 39t-47.5 28.5t-54 17.5t-60.5 6zM295 599q56 0 95 -38.5t39 -93.5q0 -56 -39.5 -94t-94.5 -38
q-57 0 -96.5 38t-39.5 94q0 55 39.5 93.5t96.5 38.5z" />
    <glyph glyph-name="colon" unicode=":" 
d="M110 140q-31 0 -53.5 -22t-22.5 -53t22.5 -53t53.5 -22t53.5 22t22.5 53t-22.5 53t-53.5 22zM110 532q-31 0 -53.5 -22t-22.5 -53t22.5 -53t53.5 -22t53.5 22t22.5 53t-22.5 53t-53.5 22z" />
    <glyph glyph-name="semicolon" unicode=";" 
d="M42 -88v-63q68 13 109.5 63t41.5 117q0 51 -23.5 81t-63.5 30q-34 0 -52.5 -23.5t-18.5 -48.5q0 -10 1.5 -17.5t4.5 -14t7.5 -11.5t9 -9t9.5 -7l10 -6t9.5 -5.5l9 -5t7.5 -5.5t4.5 -6.5t1.5 -7.5q0 -21 -19.5 -39t-47.5 -22zM110 532q-31 0 -53.5 -22t-22.5 -53t22.5 -53
t53.5 -22t53.5 22t22.5 53t-22.5 53t-53.5 22z" />
    <glyph glyph-name="less" unicode="&#x3c;" horiz-adv-x="412" 
d="M391 517h-135l-239 -258l239 -259h138l-237 261z" />
    <glyph glyph-name="equal" unicode="=" horiz-adv-x="542" 
d="M497 486h-452v-90h452v90zM497 313h-452v-91h452v91z" />
    <glyph glyph-name="greater" unicode="&#x3e;" horiz-adv-x="412" 
d="M5 0h135l239 258l-239 259h-138l237 -261z" />
    <glyph glyph-name="question" unicode="?" horiz-adv-x="512" 
d="M485 501q0 20 -3.5 38.5t-10.5 36t-17 33.5t-23 29.5t-28.5 25t-33 21t-37 15.5t-40.5 9.5t-43 3.5q-77 0 -132 -31.5t-95 -82.5l94 -68q22 31 55.5 49t74.5 18q46 0 78 -29.5t32 -74.5q0 -42 -31.5 -71t-77.5 -29h-56l4 -202h105l3 104q20 2 38 8t34.5 14.5t31 20t27 25
t22 29.5t16 33.5t10 36t3.5 38.5zM247 135q-30 0 -51 -21t-21 -51t21 -50.5t51 -20.5t50.5 20.5t20.5 50.5t-20.5 51t-50.5 21z" />
    <glyph glyph-name="at" unicode="@" horiz-adv-x="815" 
d="M395 67q37 0 69.5 15.5t55.5 40.5q17 -24 45 -37t65 -13q15 0 29.5 3t28 9.5t25.5 16t22.5 22t19 28t14.5 34t9.5 39.5t3.5 45q0 29 -4.5 56t-13 53t-21 49.5t-29 45t-36 40t-42 34t-48.5 27.5t-54 20.5t-58.5 13t-63.5 4.5q-31 0 -60.5 -4.5t-57.5 -13.5t-53.5 -22
t-48.5 -29.5t-43.5 -36t-37.5 -42.5t-30 -48t-22 -52t-14 -56t-5 -59t4.5 -59t14 -56t22.5 -52.5t29.5 -48t36.5 -42t43 -36t48 -29.5t53 -22t57 -13.5t60 -4.5q70 0 133 24t111 66l-48 48q-40 -34 -92 -54t-110 -20q-27 0 -53 4.5t-49.5 13.5t-45 22t-40.5 29.5t-35 36
t-28.5 41.5t-21.5 46.5t-13.5 51t-4.5 54.5t4.5 54.5t13.5 51t21.5 46.5t28.5 41.5t35.5 36t41.5 29.5t46 22t50 13.5t54 4.5q31 0 59 -4.5t53.5 -12.5t48 -20.5t42 -27.5t35.5 -33.5t28.5 -39t21 -44t13 -48.5t4.5 -51q0 -57 -19.5 -91t-50.5 -34q-25 0 -39 14.5t-14 35.5
v219h-93v-25q-21 16 -46.5 25t-53.5 9q-19 0 -36.5 -3.5t-34 -10.5t-31 -16.5t-26.5 -21.5t-21.5 -26t-16.5 -30t-10.5 -33.5t-3.5 -36.5q0 -18 3.5 -35t10.5 -33t16.5 -30t21.5 -26t26.5 -21.5t31 -16.5t34 -10.5t36.5 -3.5zM402 150q-38 0 -66 27.5t-28 65.5q0 40 28 67
t66 27t65.5 -27t27.5 -67q0 -38 -27.5 -65.5t-65.5 -27.5z" />
    <glyph glyph-name="A" unicode="A" horiz-adv-x="716" 
d="M426 700h-136l-295 -700h140l69 171h304l69 -171h144zM250 288l106 262l105 -262h-211z" />
    <glyph glyph-name="B" unicode="B" horiz-adv-x="599" 
d="M50 0h316q22 0 43 4t40.5 11.5t36.5 18t31.5 24t25.5 29.5t19.5 34t12.5 37.5t4 40.5q0 59 -35 106t-90 69q36 24 57.5 60.5t21.5 79.5q0 20 -4 38t-12 35t-19 31.5t-25 27.5t-30.5 23t-35 17t-39 10.5t-42.5 3.5h-276v-700zM313 587q38 0 61 -24.5t23 -61.5
q0 -35 -23 -60.5t-61 -25.5h-128v172h128zM343 113h-158v193h158q44 0 71.5 -28.5t27.5 -68.5q0 -41 -27.5 -68.5t-71.5 -27.5z" />
    <glyph glyph-name="C" unicode="C" horiz-adv-x="718" 
d="M30 351q0 -31 4.5 -60t13.5 -56.5t21.5 -52.5t29.5 -47.5t36.5 -42.5t43 -36t49.5 -29t54.5 -22t59.5 -13.5t64 -4.5q96 0 174 42t127 109l-105 77q-32 -49 -84.5 -76.5t-112.5 -27.5q-25 0 -48 4.5t-44.5 13t-40.5 20.5t-35 28t-29 35t-22 41t-14 46.5t-5 51.5t4.5 51
t13.5 46t22 41t29 35t35 28t40.5 20.5t45 13t48.5 4.5q56 0 108 -28.5t86 -76.5l105 77q-51 67 -129 109t-172 42q-32 0 -62.5 -4.5t-59 -13.5t-54.5 -22t-49 -29.5t-42.5 -36.5t-36 -42.5t-29.5 -47.5t-22 -52t-13.5 -55.5t-4.5 -58.5z" />
    <glyph glyph-name="D" unicode="D" horiz-adv-x="720" 
d="M690 350q0 29 -4.5 57t-13.5 54.5t-22 50.5t-29.5 46t-36 40.5t-42 34.5t-48 28.5t-52.5 21t-56 13t-59 4.5h-277v-700h277q30 0 59 4.5t56 13t52.5 21t48 28.5t42 34.5t36 40.5t29.5 46t22 50.5t13.5 54.5t4.5 57zM313 582q22 0 43.5 -3.5t41 -10.5t37 -17t33 -22.5
t29 -27.5t23.5 -32.5t17 -36.5t11 -39.5t4 -42.5t-4 -42.5t-11 -39.5t-17 -36t-23.5 -32t-29 -28t-33 -23t-37 -17t-41 -10.5t-43.5 -3.5h-128v464h128z" />
    <glyph glyph-name="E" unicode="E" horiz-adv-x="527" 
d="M50 0h441v118h-306v176h296v115h-296v173h306v118h-441v-700z" />
    <glyph glyph-name="F" unicode="F" horiz-adv-x="522" 
d="M185 0v293h296v115h-296v174h306v118h-441v-700h135z" />
    <glyph glyph-name="G" unicode="G" horiz-adv-x="776" 
d="M30 351q0 -31 4.5 -60t13 -56.5t20.5 -52.5t28 -47.5t35 -42.5t40.5 -36t46.5 -29t52 -22t56.5 -13.5t60.5 -4.5q59 0 115 22.5t99 69.5v-79h130v388h-363v-116h233q-2 -15 -7 -30.5t-12.5 -29.5t-17.5 -27.5t-22.5 -25t-27.5 -20.5t-33 -16t-38.5 -10.5t-43.5 -3.5
q-24 0 -46.5 4.5t-43.5 13t-39.5 21t-34.5 28.5t-28.5 35t-21.5 41t-13.5 47t-4.5 52q0 28 4.5 52.5t13.5 46.5t21.5 41t28 34.5t34 27.5t38.5 20.5t42 12.5t45 4q63 0 117 -28.5t88 -76.5l105 77q-51 67 -130 109t-178 42q-31 0 -61 -4.5t-57.5 -13.5t-52.5 -21.5
t-48 -28.5t-42.5 -35.5t-36 -42t-29 -47.5t-21.5 -52.5t-13.5 -56.5t-4.5 -60z" />
    <glyph glyph-name="H" unicode="H" horiz-adv-x="677" 
d="M185 0v292h307v-292h135v700h-135v-290h-307v290h-135v-700h135z" />
    <glyph glyph-name="I" unicode="I" horiz-adv-x="235" 
d="M185 0v700h-135v-700h135z" />
    <glyph glyph-name="J" unicode="J" horiz-adv-x="501" 
d="M1 57q35 -34 87 -53t114 -19q28 0 53.5 4.5t48.5 13.5t43.5 21.5t37 29t30 36t22.5 41.5t14 47t5 52v470h-135v-446q0 -65 -35.5 -106t-91.5 -41q-31 0 -61.5 12.5t-52.5 34.5z" />
    <glyph glyph-name="K" unicode="K" horiz-adv-x="625" 
d="M50 700v-700h135v293l272 -293h180l-335 354l327 346h-169l-275 -297v297h-135z" />
    <glyph glyph-name="L" unicode="L" horiz-adv-x="517" 
d="M491 118h-306v582h-135v-700h441v118z" />
    <glyph glyph-name="M" unicode="M" horiz-adv-x="889" 
d="M178 0l-1 517l205 -517h124l204 517l-1 -517h131v700h-186l-208 -532l-209 532h-188v-700h129z" />
    <glyph glyph-name="N" unicode="N" horiz-adv-x="726" 
d="M175 0l-1 515l354 -515h148v700h-125l1 -515l-354 515h-148v-700h125z" />
    <glyph glyph-name="O" unicode="O" horiz-adv-x="805" 
d="M30 350q0 -30 4.5 -59t14 -56t22.5 -52.5t30 -48t37 -42t43 -36t49 -29.5t54 -22t58 -13.5t61 -4.5t61 4.5t58 13.5t53.5 22t48.5 29.5t43 36t37 42.5t30 48t22.5 52t14 56t4.5 59t-4.5 59t-14 56t-22.5 52t-30 48t-37 42.5t-43 36t-48.5 29.5t-53.5 22t-58 13.5t-61 4.5
t-61 -4.5t-58 -13.5t-54 -22t-49 -29.5t-43 -36t-37 -42.5t-30 -48t-22.5 -52t-14 -56t-4.5 -59zM168 350q0 22 3.5 43.5t11 41t17.5 37.5t23 33.5t28 28.5t32.5 23t37 17.5t40 11t42.5 3.5t42.5 -3.5t40 -11t36.5 -17.5t32.5 -23t28 -28.5t23 -33.5t17.5 -37.5t10.5 -40.5
t3.5 -44t-3.5 -44t-10.5 -41t-17.5 -37.5t-23 -33t-28 -28.5t-32.5 -23t-36.5 -17.5t-40 -11t-42.5 -3.5t-42.5 3.5t-40 11t-37 17.5t-32.5 23t-28 28.5t-23 33t-17.5 37.5t-11 41t-3.5 44z" />
    <glyph glyph-name="P" unicode="P" horiz-adv-x="593" 
d="M50 0h135v270h162q23 0 44.5 4.5t41 12.5t37 19.5t32 26t26 32t19.5 37t12.5 40.5t4.5 44q0 22 -4.5 43.5t-12.5 40.5t-19.5 36.5t-26 31.5t-32 25.5t-37 20t-41 12.5t-44.5 4h-297v-700zM335 582q43 0 68 -28t25 -70t-25 -70.5t-68 -28.5h-150v197h150z" />
    <glyph glyph-name="Q" unicode="Q" horiz-adv-x="805" 
d="M30 350q0 -30 4.5 -59t14 -56t22.5 -52.5t30 -48t37 -42t43 -36t49 -29.5t54 -22t58 -13.5t61 -4.5q43 0 84 9.5t78 25.5l69 -83l97 79l-63 76q50 49 78.5 115t28.5 141q0 30 -4.5 59t-14 56t-22.5 52t-30 48t-37 42.5t-43 36t-48.5 29.5t-53.5 22t-58 13.5t-61 4.5
t-61 -4.5t-58 -13.5t-54 -22t-49 -29.5t-43 -36t-37 -42.5t-30 -48t-22.5 -52t-14 -56t-4.5 -59zM168 350q0 22 3.5 43.5t11 41t17.5 37.5t23 33.5t28 28.5t32.5 23t37 17.5t40 11t42.5 3.5t42.5 -3.5t40 -11t36.5 -17.5t32.5 -23t28 -28.5t23 -33.5t17.5 -37.5t10.5 -40.5
t3.5 -44q0 -45 -14 -84t-39 -70l-75 91l-98 -79l70 -84q-18 -7 -38 -10t-40 -3q-22 0 -42.5 3.5t-40 11t-37 17.5t-32.5 23t-28 28.5t-23 33t-17.5 37.5t-11 41t-3.5 44z" />
    <glyph glyph-name="R" unicode="R" horiz-adv-x="596" 
d="M185 0v286h98l159 -286h152l-174 303q56 23 92 74t36 114q0 22 -4 42.5t-12.5 39.5t-19.5 35.5t-25.5 31t-31.5 25.5t-36.5 19t-40.5 12t-43 4h-285v-700h135zM313 582q45 0 72 -26t27 -65t-27 -65.5t-72 -26.5h-128v183h128z" />
    <glyph glyph-name="S" unicode="S" horiz-adv-x="582" 
d="M23 217q2 -25 9 -48.5t18 -44.5t25.5 -39t33 -33.5t40 -27t46 -20t51 -12.5t55.5 -4t55 4t49.5 12t43.5 19t36.5 25.5t29 31t21.5 35.5t13.5 40t4.5 43q0 78 -44.5 126t-142.5 73l-118 31q-40 10 -63 30.5t-23 54.5q0 41 30.5 64t76.5 23q56 0 90 -30.5t45 -81.5h132
q-14 99 -86 161.5t-180 62.5q-26 0 -50 -4t-45.5 -11t-41 -17.5t-36 -24.5t-29 -30.5t-22 -35.5t-14 -40.5t-4.5 -45.5q0 -78 46.5 -127t139.5 -73l119 -30q40 -10 63 -32.5t23 -53.5q0 -37 -30 -62t-88 -25q-64 0 -102.5 31.5t-45.5 85.5h-131z" />
    <glyph glyph-name="T" unicode="T" horiz-adv-x="586" 
d="M10 582h215v-582h135v582h216v118h-566v-118z" />
    <glyph glyph-name="U" unicode="U" horiz-adv-x="674" 
d="M180 274v426h-135v-435q0 -31 5.5 -60t15.5 -54.5t24.5 -47.5t32.5 -40.5t40 -32.5t46.5 -24t52 -15t56.5 -5q49 0 93 17t79 47v-50h134v700h-135v-426q0 -75 -44 -121.5t-110 -46.5t-110.5 46t-44.5 122z" />
    <glyph glyph-name="V" unicode="V" horiz-adv-x="716" 
d="M290 0h136l295 700h-143l-217 -540l-217 540h-149z" />
    <glyph glyph-name="W" unicode="W" horiz-adv-x="1015" 
d="M570 700h-120l-166 -506l-129 506h-145l199 -700h136l163 496l162 -496h136l199 700h-140l-129 -505z" />
    <glyph glyph-name="X" unicode="X" horiz-adv-x="691" 
d="M-5 0h163l184 255l185 -255h169l-274 361l256 339h-162l-172 -235l-170 235h-168l259 -342z" />
    <glyph glyph-name="Y" unicode="Y" horiz-adv-x="674" 
d="M404 0v290l275 410h-160l-180 -281l-180 281h-164l274 -408v-292h135z" />
    <glyph glyph-name="Z" unicode="Z" horiz-adv-x="582" 
d="M40 582h339l-355 -494v-88h529v118h-355l354 492v90h-512v-118z" />
    <glyph glyph-name="bracketleft" unicode="[" horiz-adv-x="374" 
d="M340 -125v100h-173v715h173v100h-287v-915h287z" />
    <glyph glyph-name="backslash" unicode="\" horiz-adv-x="445" 
d="M440 0l-305 700h-130l305 -700h130z" />
    <glyph glyph-name="bracketright" unicode="]" horiz-adv-x="374" 
d="M34 790v-100h173v-715h-173v-100h287v915h-287z" />
    <glyph glyph-name="asciicircum" unicode="^" horiz-adv-x="541" 
d="M30 350h110l131 251l130 -251h110l-183 350h-115z" />
    <glyph glyph-name="underscore" unicode="_" horiz-adv-x="494" 
d="M495 -80h-496v-92h496v92z" />
    <glyph glyph-name="grave" unicode="`" horiz-adv-x="510" 
d="M273 717h-143l128 -132h125z" />
    <glyph glyph-name="a" unicode="a" horiz-adv-x="545" 
d="M22 145q0 -68 51 -113t128 -45q51 0 93 20t69 54q13 -28 41 -44.5t65 -16.5h61v113h-27q-14 0 -21.5 8t-7.5 22v203q0 82 -56.5 132t-149.5 50q-59 0 -111 -18t-97 -51l55 -93q34 23 68 34.5t69 11.5q46 0 70.5 -22t24.5 -60v-20l-152 -11q-82 -6 -127.5 -45.5
t-45.5 -108.5zM147 146q0 25 16.5 39t49.5 17l134 12v-33q0 -39 -34 -66.5t-83 -27.5q-37 0 -60 16t-23 43z" />
    <glyph glyph-name="b" unicode="b" horiz-adv-x="645" 
d="M45 0h130v48q34 -29 77 -45.5t90 -16.5q26 0 50 4.5t47 12.5t43 20t38 27t33.5 33t27.5 38t20 42.5t12.5 46t4.5 48.5t-4.5 49t-12.5 46t-20 42t-27.5 38t-33.5 33t-38 27t-43 20t-47 12.5t-50 4.5q-47 0 -89.5 -16.5t-76.5 -44.5v231h-131v-700zM174 258q0 66 46 111.5
t111 45.5q64 0 110.5 -45.5t46.5 -111.5q0 -65 -46.5 -111.5t-110.5 -46.5q-65 0 -111 46.5t-46 111.5z" />
    <glyph glyph-name="c" unicode="c" horiz-adv-x="543" 
d="M157 259q0 65 45.5 110.5t108.5 45.5q41 0 74.5 -18t55.5 -49l93 68q-39 51 -93.5 82.5t-129.5 31.5q-27 0 -52 -4.5t-48.5 -12.5t-44.5 -20t-39.5 -27t-34 -32.5t-27.5 -37.5t-20.5 -42t-13 -46t-4.5 -49t4.5 -49t13 -46t20.5 -42t27.5 -38t34 -33t39.5 -27t44.5 -20
t48.5 -12.5t52 -4.5q75 0 129.5 31.5t93.5 82.5l-93 68q-22 -31 -55.5 -49t-74.5 -18q-63 0 -108.5 46t-45.5 111z" />
    <glyph glyph-name="d" unicode="d" horiz-adv-x="645" 
d="M600 0v700h-131v-231q-34 28 -76.5 44.5t-89.5 16.5q-26 0 -50 -4.5t-47 -12.5t-43 -20t-38 -27t-33.5 -33t-27.5 -38t-20 -42t-12.5 -46t-4.5 -49t4.5 -48.5t12.5 -46t20 -42.5t27.5 -38t33.5 -33t38 -27t43 -20t47 -12.5t50 -4.5q47 0 90 16.5t77 45.5v-48h130z
M471 258q0 -65 -46 -111.5t-111 -46.5q-64 0 -110.5 46.5t-46.5 111.5q0 66 46.5 111.5t110.5 45.5q65 0 111 -45.5t46 -111.5z" />
    <glyph glyph-name="e" unicode="e" horiz-adv-x="588" 
d="M27 259q0 -26 4.5 -51t12.5 -47.5t20 -42.5t27.5 -37.5t33.5 -32t39 -26t44 -19.5t48 -12t51 -4q72 0 129.5 29.5t96.5 82.5l-91 68q-28 -37 -61.5 -52.5t-74.5 -15.5q-54 0 -93 33t-52 83h399v38q0 30 -5 58t-14.5 53t-23.5 47t-31.5 40.5t-38.5 33t-45 24.5t-51 15
t-56 5q-25 0 -49 -4.5t-46.5 -13t-42 -20.5t-37 -27t-32 -33t-26 -38t-19.5 -42t-12 -45t-4 -47zM292 417q47 0 84.5 -27t51.5 -75h-265q13 47 48 74.5t81 27.5z" />
    <glyph glyph-name="f" unicode="f" horiz-adv-x="361" 
d="M10 404h102v-404h130v404h109v113h-109v74q0 18 9 26.5t25 8.5h75v113h-98q-69 0 -105 -37.5t-36 -92.5v-92h-102v-113z" />
    <glyph glyph-name="g" unicode="g" horiz-adv-x="637" 
d="M592 517h-130v-45q-34 28 -75.5 43.5t-87.5 15.5q-25 0 -49 -4.5t-46 -12.5t-42 -19.5t-38 -26t-33 -32t-27 -37.5t-20 -42t-12.5 -45.5t-4.5 -48.5t4.5 -48.5t12.5 -45.5t20 -42t27 -37.5t32.5 -32t38 -26t42.5 -19.5t46 -12.5t49 -4.5q46 0 87 15.5t75 42.5v-63
q0 -43 -24 -66.5t-70 -23.5h-115v-110h145q88 0 141.5 52.5t53.5 137.5v537zM157 263q0 63 45 108.5t108 45.5t108 -45t45 -109q0 -63 -44.5 -108t-108.5 -45q-63 0 -108 45t-45 108z" />
    <glyph glyph-name="h" unicode="h" horiz-adv-x="567" 
d="M176 303q0 51 30.5 81t77.5 30q48 0 77.5 -30.5t29.5 -80.5v-303h131v329q0 21 -3.5 41t-11 38t-18 34.5t-23.5 30t-29 24.5t-34.5 18.5t-39.5 11.5t-43 4q-43 0 -80 -15.5t-64 -43.5v228h-131v-700h131v303z" />
    <glyph glyph-name="i" unicode="i" 
d="M111 572q31 0 51.5 21t20.5 52t-20.5 51.5t-51.5 20.5t-52.5 -20.5t-21.5 -51.5t21.5 -52t52.5 -21zM176 517h-131v-517h131v517z" />
    <glyph glyph-name="j" unicode="j" 
d="M111 572q31 0 51.5 21t20.5 52t-20.5 51.5t-51.5 20.5t-52.5 -20.5t-21.5 -51.5t21.5 -52t52.5 -21zM39 -210q63 0 100 39.5t37 90.5v597h-131v-575q0 -20 -10.5 -30t-28.5 -10h-31v-112h64z" />
    <glyph glyph-name="k" unicode="k" horiz-adv-x="510" 
d="M45 700v-700h131v231l185 -231h160l-224 268l209 249h-150l-180 -223v406h-131z" />
    <glyph glyph-name="l" unicode="l" 
d="M176 0v700h-131v-700h131z" />
    <glyph glyph-name="m" unicode="m" horiz-adv-x="893" 
d="M175 306q0 49 28.5 78.5t74.5 29.5t74.5 -30t28.5 -78v-306h130v306q0 49 29 78.5t74 29.5q46 0 74.5 -30t28.5 -78v-306h130v333q0 21 -3.5 40.5t-10.5 37.5t-17 33.5t-23 29t-28.5 24t-33.5 18t-38.5 11.5t-42.5 4q-52 0 -96 -24t-70 -67q-25 41 -69 66t-101 25
q-40 0 -76.5 -15t-62.5 -41v42h-130v-517h130v306z" />
    <glyph glyph-name="n" unicode="n" horiz-adv-x="567" 
d="M522 329q0 21 -4 41t-11 38t-17.5 34.5t-24 30t-29.5 24.5t-35 18.5t-39.5 11.5t-43.5 4q-42 0 -78.5 -15t-63.5 -43v44h-131v-517h131v303q0 51 30.5 81t77.5 30q48 0 77.5 -30.5t29.5 -80.5v-303h131v329z" />
    <glyph glyph-name="o" unicode="o" horiz-adv-x="622" 
d="M595 258q0 25 -4.5 49t-13 46t-21 42.5t-28 38t-34.5 32.5t-40 27t-44 20t-48 12.5t-51 4.5q-23 0 -45.5 -3.5t-44 -10.5t-41 -16.5t-37 -22t-33 -27.5t-28.5 -31.5t-23 -35.5t-17.5 -39t-11 -42t-3.5 -44t3.5 -44t11 -42t17.5 -39t23 -35.5t28.5 -31.5t33 -27.5t37 -22
t41 -16.5t44 -10.5t45.5 -3.5q26 0 51 4.5t48 12.5t44 20t40 27t34.5 33t28 38t21 42t13 46t4.5 49zM465 258q0 -65 -45 -110.5t-109 -45.5q-63 0 -108.5 45.5t-45.5 110.5t45.5 110.5t108.5 45.5q64 0 109 -45.5t45 -110.5z" />
    <glyph glyph-name="p" unicode="p" horiz-adv-x="645" 
d="M45 517v-727h131v257q34 -28 76.5 -44.5t89.5 -16.5q26 0 50 4.5t47 12.5t43 20t38 27t33.5 33t27.5 38t20 42t12.5 46t4.5 49t-4.5 48.5t-12.5 46t-20 42.5t-27.5 38t-33.5 33t-38 27t-43 20t-47 12.5t-50 4.5q-47 0 -90 -16.5t-77 -45.5v49h-130zM174 258
q0 65 46 111.5t111 46.5q64 0 110.5 -46.5t46.5 -111.5q0 -66 -46.5 -111.5t-110.5 -45.5q-65 0 -111 45.5t-46 111.5z" />
    <glyph glyph-name="q" unicode="q" horiz-adv-x="645" 
d="M600 517h-130v-49q-34 29 -77 45.5t-90 16.5q-26 0 -50 -4.5t-47 -12.5t-43 -20t-38 -27t-33.5 -33t-27.5 -38t-20 -42.5t-12.5 -46t-4.5 -48.5t4.5 -49t12.5 -46t20 -42t27.5 -38t33.5 -33t38 -27t43 -20t47 -12.5t50 -4.5q47 0 89.5 16.5t76.5 44.5v-257h131v727z
M471 258q0 -66 -46 -111.5t-111 -45.5q-64 0 -110.5 45.5t-46.5 111.5q0 65 46.5 111.5t110.5 46.5q65 0 111 -46.5t46 -111.5z" />
    <glyph glyph-name="r" unicode="r" horiz-adv-x="352" 
d="M333 402v120h-35q-42 0 -73 -16.5t-50 -44.5v56h-130v-517h131v278q0 59 32 91.5t78 32.5h47z" />
    <glyph glyph-name="s" unicode="s" horiz-adv-x="474" 
d="M254 -12q93 0 147 47.5t54 116.5q0 57 -35.5 95t-106.5 55l-99 24q-31 7 -46.5 21t-15.5 34t16.5 34t47.5 14q32 0 63.5 -18t41.5 -58h123q-11 74 -69.5 125.5t-157.5 51.5q-83 0 -138 -44.5t-55 -118.5q0 -59 36.5 -97t108.5 -55l107 -25q26 -7 39 -19.5t13 -28.5
q0 -23 -19 -38t-55 -15q-42 0 -73.5 17.5t-41.5 56.5h-124q15 -74 76.5 -124.5t162.5 -50.5z" />
    <glyph glyph-name="t" unicode="t" horiz-adv-x="366" 
d="M253 0h102v113h-65q-22 0 -35.5 10t-13.5 30v251h114v113h-114v150h-130v-150h-101v-113h101v-274q0 -55 36 -92.5t106 -37.5z" />
    <glyph glyph-name="u" unicode="u" horiz-adv-x="567" 
d="M45 188q0 -21 4 -40.5t11 -38t17.5 -34t24 -29.5t29.5 -24.5t35 -18t39.5 -11.5t43.5 -4q42 0 78.5 15t63.5 43v-46h131v517h-131v-303q0 -49 -30 -80t-78 -31t-77.5 31.5t-29.5 79.5v303h-131v-329z" />
    <glyph glyph-name="v" unicode="v" horiz-adv-x="551" 
d="M220 0h112l224 517h-136l-142 -348l-142 348h-141z" />
    <glyph glyph-name="w" unicode="w" horiz-adv-x="784" 
d="M341 517l-112 -326l-91 326h-138l157 -517h119l116 337l116 -337h119l157 517h-134l-91 -326l-112 326h-106z" />
    <glyph glyph-name="x" unicode="x" horiz-adv-x="534" 
d="M-5 0h144l126 173l125 -173h149l-203 268l188 249h-144l-113 -156l-113 156h-149l191 -252z" />
    <glyph glyph-name="y" unicode="y" horiz-adv-x="551" 
d="M191 -48q-12 -30 -28 -41t-43 -11h-50v-110h77q59 0 95.5 25t61.5 88l252 614h-136l-141 -349l-143 349h-141l220 -507z" />
    <glyph glyph-name="z" unicode="z" horiz-adv-x="474" 
d="M31 404h252l-257 -310v-94h423v113h-260l253 307v97h-411v-113z" />
    <glyph glyph-name="braceleft" unicode="{" horiz-adv-x="448" 
d="M288 144q32 67 6.5 121t-96.5 68q70 12 96.5 66t-6.5 123l-32 66q-22 45 -3 79.5t64 34.5q25 0 45 -3.5t45 -12.5l19 93q-31 11 -59.5 16t-62.5 5q-28 0 -52 -4.5t-44 -14t-35.5 -22t-26 -29t-16 -35.5t-5.5 -40.5t5.5 -45.5t17.5 -49l38 -84q17 -37 -4 -65.5t-65 -28.5
h-90v-98h95q41 0 60.5 -28.5t3.5 -65.5l-38 -84q-12 -25 -17.5 -49t-5.5 -45.5t5.5 -40.5t16 -35.5t26 -29t35.5 -22t44 -14t52 -4.5q34 0 62.5 5t59.5 16l-19 93q-25 -9 -45 -12.5t-45 -3.5q-45 0 -64 34.5t3 79.5z" />
    <glyph glyph-name="bar" unicode="|" horiz-adv-x="251" 
d="M176 -210v910h-131v-910h131z" />
    <glyph glyph-name="braceright" unicode="}" horiz-adv-x="448" 
d="M165 522q-32 -67 -6.5 -121t96.5 -68q-70 -12 -96.5 -66t6.5 -123l32 -66q22 -45 3 -79.5t-64 -34.5q-25 0 -45 3.5t-45 12.5l-19 -93q31 -11 59.5 -16t62.5 -5q28 0 52 4.5t44 14t35.5 22t26 29t16 35.5t5.5 40.5t-5.5 45.5t-17.5 49l-38 84q-17 37 4 65.5t65 28.5h90
v98h-95q-41 0 -60.5 28.5t-3.5 65.5l38 84q12 25 17.5 49t5.5 45.5t-5.5 40.5t-16 35.5t-26 29t-35.5 22t-44 14t-52 4.5q-34 0 -62.5 -5t-59.5 -16l19 -93q25 9 45 12.5t45 3.5q45 0 64 -34.5t-3 -79.5z" />
    <glyph glyph-name="asciitilde" unicode="~" horiz-adv-x="516" 
d="M117 291q11 40 21.5 59t28.5 19q7 0 14.5 -2t16.5 -5.5t18.5 -8t19.5 -10t20.5 -10.5t21.5 -10.5t21.5 -10t21 -8t21 -5.5t19.5 -2q52 0 84.5 39t50.5 116l-98 24q-10 -40 -20.5 -58.5t-29.5 -18.5q-6 0 -13.5 2t-16.5 5.5t-18.5 8t-19.5 9.5t-20.5 10.5t-21 10.5
t-21.5 9.5t-21.5 8t-20.5 5.5t-20 2q-51 0 -84 -39t-51 -116z" />
    <glyph glyph-name="uni00A0" unicode="&#xa0;" horiz-adv-x="200" 
 />
    <glyph glyph-name="exclamdown" unicode="&#xa1;" horiz-adv-x="220" 
d="M44 501l-9 -509h130l-10 509h-111zM100 557q30 0 51 21t21 51t-21 50.5t-51 20.5t-51 -20.5t-21 -50.5t21 -51t51 -21z" />
    <glyph glyph-name="cent" unicode="&#xa2;" horiz-adv-x="553" 
d="M353 629h-92v-103q-25 -4 -48.5 -12t-45 -20t-40 -27t-34 -32.5t-28 -38t-21 -42.5t-13 -46t-4.5 -49t4.5 -49t13 -46.5t21 -42.5t28 -38t34 -33t40 -27t45 -20t48.5 -12v-106h92v105q59 8 103.5 38t77.5 73l-93 68q-16 -22 -38.5 -38.5t-49.5 -23.5v303
q27 -7 49.5 -23.5t38.5 -38.5l93 68q-33 43 -77.5 73t-103.5 38v102zM157 259q0 51 29.5 91.5t74.5 56.5v-297q-45 16 -74.5 57t-29.5 92z" />
    <glyph glyph-name="sterling" unicode="&#xa3;" horiz-adv-x="584" 
d="M408 380h-171l-20 61q-23 69 3 115.5t87 46.5q48 0 79.5 -26.5t42.5 -75.5h127q-14 94 -82 152t-165 58q-29 0 -54.5 -4.5t-48 -13.5t-41.5 -22t-34.5 -29t-26.5 -35t-17.5 -40.5t-8.5 -45t1 -49t12 -51.5l13 -41h-72v-96h104l8 -25q19 -59 -6.5 -102.5t-76.5 -43.5h-31
v-113h527v113h-318q29 30 38 73t-7 93l-2 5h140v96z" />
    <glyph glyph-name="yen" unicode="&#xa5;" horiz-adv-x="686" 
d="M122 201v-84h160v-117h135v117h157v84h-157v60h157v84h-120l238 355h-160l-180 -281l-180 281h-164l238 -355h-124v-84h160v-60h-160z" />
    <glyph glyph-name="section" unicode="&#xa7;" horiz-adv-x="584" 
d="M510 47q0 31 -10 54.5t-30 41.5q42 19 66.5 56.5t24.5 88.5q0 65 -37.5 103t-107.5 64l-153 55q-31 11 -46.5 23.5t-15.5 31.5q0 22 19 35t51 13q31 0 62.5 -17.5t41.5 -57.5h124q-3 21 -10.5 40.5t-18.5 37.5t-25.5 33t-33 27t-40 21t-46.5 13.5t-53 4.5
q-86 0 -142 -44.5t-56 -118.5q0 -31 10.5 -55.5t30.5 -43.5q-42 -19 -67 -57t-25 -89q0 -65 37 -103.5t108 -63.5l163 -55q24 -8 38 -20.5t14 -31.5q0 -22 -20 -35t-53 -13q-42 0 -74 17.5t-41 55.5h-124q15 -74 76.5 -124.5t162.5 -50.5q93 0 146.5 47.5t53.5 116.5z
M371 344q36 -13 52 -32.5t16 -46.5q0 -31 -27 -53t-67 -9l-132 48q-36 13 -52 32.5t-16 47.5q0 30 26.5 53t66.5 8z" />
    <glyph glyph-name="dieresis" unicode="&#xa8;" horiz-adv-x="566" 
d="M182 575q30 0 50 20.5t20 51.5q0 30 -20 50t-50 20t-51 -20t-21 -50q0 -31 21 -51.5t51 -20.5zM386 575q30 0 50.5 20.5t20.5 51.5q0 30 -20.5 50t-50.5 20t-50.5 -20t-20.5 -50q0 -31 20.5 -51.5t50.5 -20.5z" />
    <glyph glyph-name="copyright" unicode="&#xa9;" horiz-adv-x="817" 
d="M409 -13q31 0 60.5 4.5t57 13.5t53 22t48 29.5t42.5 36t36.5 42.5t29.5 48t22.5 52t14 56t4.5 59t-4.5 59t-14 56t-22.5 52t-29.5 48t-36.5 42.5t-42.5 36t-48 29.5t-53 22t-57 13.5t-60.5 4.5t-60.5 -4.5t-57.5 -13.5t-53 -22t-48 -29.5t-43 -36t-36.5 -42.5t-29.5 -48
t-22.5 -52t-14 -56t-4.5 -59t4.5 -59t14 -56t22.5 -52.5t29.5 -48t36.5 -42t43 -36t48 -29.5t53 -22t57.5 -13.5t60.5 -4.5zM409 51q-25 0 -48.5 4t-46 11t-43 18t-39 24.5t-34.5 29.5t-29.5 34.5t-24.5 39t-18 43t-11 46.5t-4 49t4 49t11 46.5t18 43t24.5 39t29.5 34.5
t34.5 29.5t39 24.5t43 18t46 11t48.5 4t48.5 -4t45.5 -11t42.5 -17.5t39 -24t34.5 -30t29.5 -35t24.5 -39t18 -43t11 -46.5t4 -49t-4 -49t-11 -46.5t-18 -43t-24.5 -39t-29.5 -34.5t-34.5 -29.5t-39 -24.5t-42.5 -18t-45.5 -11t-48.5 -4zM312 351q0 46 31.5 77.5t75.5 31.5
q28 0 51 -12.5t39 -33.5l65 48q-28 35 -65.5 57t-89.5 22q-21 0 -40.5 -4t-37.5 -11t-34 -17t-29 -23t-23.5 -28t-18 -32.5t-11.5 -36t-4 -38.5t4 -38.5t11.5 -35.5t18 -32t23.5 -28t29 -23t34 -17t37.5 -11t40.5 -4q52 0 89.5 22t65.5 57l-65 47q-16 -20 -39 -33t-51 -13
q-44 0 -75.5 32t-31.5 77z" />
    <glyph glyph-name="ordfeminine" unicode="&#xaa;" horiz-adv-x="409" 
d="M21 433q0 -48 36.5 -80t91.5 -32q37 0 66.5 13.5t48.5 37.5q11 -19 31.5 -30.5t47.5 -11.5h49v93h-20q-10 0 -14.5 5.5t-4.5 15.5v128q0 60 -41 96t-107 36q-45 0 -85.5 -12t-71.5 -35l43 -77q25 15 49 22t48 7q28 0 44 -13.5t16 -37.5v-8l-103 -8q-59 -4 -91.5 -31.5
t-32.5 -77.5zM124 435q0 15 8.5 23.5t27.5 9.5l88 8v-19q0 -23 -21.5 -39.5t-52.5 -16.5q-22 0 -36 9t-14 25z" />
    <glyph glyph-name="guillemotleft" unicode="&#xab;" horiz-adv-x="671" 
d="M391 517h-135l-239 -258l239 -259h138l-237 261zM650 517h-135l-239 -258l239 -259h138l-237 261z" />
    <glyph glyph-name="registered" unicode="&#xae;" horiz-adv-x="482" 
d="M240 302q19 0 37 3.5t34.5 9.5t31.5 15t28.5 20t24.5 24.5t20 28.5t15 32t9.5 35t3.5 37t-3.5 37t-9.5 35t-15 32t-20 28.5t-24.5 24.5t-28.5 20t-31.5 15t-34.5 9.5t-37 3.5t-37 -3.5t-34.5 -9.5t-31.5 -15t-28.5 -20t-24.5 -24.5t-20 -28.5t-15 -32t-9.5 -35t-3.5 -37
t3.5 -37t9.5 -35t15 -32t20 -28.5t24.5 -24.5t28.5 -20t31.5 -15t34.5 -9.5t37 -3.5zM240 350q-65 0 -109.5 45.5t-44.5 111.5q0 65 44.5 111t109.5 46t110 -46t45 -111q0 -66 -45 -111.5t-110 -45.5zM167 415h49v73h17l39 -73h53l-47 82q14 7 23 19.5t9 28.5
q0 25 -16.5 41.5t-44.5 16.5h-82v-188zM240 566q12 0 18 -5.5t6 -15.5q0 -9 -6 -15.5t-19 -6.5h-23v43h24z" />
    <glyph glyph-name="macron" unicode="&#xaf;" horiz-adv-x="510" 
d="M393 685h-267v-85h267v85z" />
    <glyph glyph-name="degree" unicode="&#xb0;" horiz-adv-x="352" 
d="M177 420q59 0 101.5 43t42.5 104q0 57 -42 100t-102 43q-62 0 -104 -43t-42 -100q0 -61 42.5 -104t103.5 -43zM177 493q-30 0 -51.5 21.5t-21.5 52.5q0 28 21.5 49.5t51.5 21.5q28 0 49 -21.5t21 -49.5q0 -31 -21 -52.5t-49 -21.5z" />
    <glyph glyph-name="plusminus" unicode="&#xb1;" horiz-adv-x="545" 
d="M324 193v163h176v100h-176v159h-102v-159h-177v-100h177v-163h102zM500 100h-455v-100h455v100z" />
    <glyph glyph-name="twosuperior" unicode="&#xb2;" horiz-adv-x="330" 
d="M295 588q0 51 -37 85t-98 34q-49 0 -86 -22t-59 -63l70 -40q14 25 30.5 37.5t37.5 12.5q23 0 38.5 -14t15.5 -36q0 -16 -7 -31t-28 -37l-139 -142v-57h269v77l-144 -3l78 79q37 37 48.5 64.5t10.5 55.5z" />
    <glyph glyph-name="threesuperior" unicode="&#xb3;" horiz-adv-x="350" 
d="M175 707q-54 0 -91.5 -22t-56.5 -59l72 -37q11 20 27.5 31.5t38.5 11.5q24 0 38 -12t14 -31q0 -18 -13 -30.5t-34 -12.5h-54v-71h61q24 0 38 -13.5t14 -29.5q0 -21 -16 -35.5t-44 -14.5q-25 0 -44 11.5t-31 31.5l-72 -39q19 -37 57 -58.5t93 -21.5q64 0 105 35.5t41 85.5
q0 31 -19.5 55.5t-49.5 35.5q25 13 40.5 34t15.5 47q0 46 -37.5 76.5t-92.5 31.5z" />
    <glyph glyph-name="acute" unicode="&#xb4;" horiz-adv-x="510" 
d="M244 717l-109 -132h124l129 132h-144z" />
    <glyph glyph-name="paragraph" unicode="&#xb6;" horiz-adv-x="604" 
d="M40 488q0 -22 4 -43t12 -40t19.5 -36t26 -31.5t31.5 -26t36 -19.5t40 -12t43 -4h42v-276h102v276h57v-276h102v700h-303q-22 0 -43 -4t-40 -12t-36 -19.5t-31.5 -26t-26 -31.5t-19.5 -36t-12 -40t-4 -43z" />
    <glyph glyph-name="periodcentered" unicode="&#xb7;" 
d="M110 374q-31 0 -53.5 -22t-22.5 -53t22.5 -53t53.5 -22t53.5 22t22.5 53t-22.5 53t-53.5 22z" />
    <glyph glyph-name="cedilla" unicode="&#xb8;" horiz-adv-x="510" 
d="M389 -129q0 34 -23 57t-62 28l18 51h-70l-32 -99h43q20 0 33.5 -10t13.5 -26q0 -14 -12 -25t-33 -11q-18 0 -33.5 7.5t-28.5 22.5l-52 -43q18 -24 49.5 -37.5t70.5 -13.5q49 0 83.5 28.5t34.5 70.5z" />
    <glyph glyph-name="onesuperior" unicode="&#xb9;" horiz-adv-x="304" 
d="M282 392h-87v308h-156v-77h68v-231h-86v-77h261v77z" />
    <glyph glyph-name="ordmasculine" unicode="&#xba;" horiz-adv-x="454" 
d="M430 513q0 20 -4 39t-12 36.5t-18.5 33t-24.5 28.5t-30.5 23.5t-34.5 17.5t-38.5 11t-41.5 4q-18 0 -36 -3t-34.5 -9t-31.5 -14.5t-28.5 -19t-25 -23t-20.5 -27t-15 -30t-9.5 -32.5t-3.5 -35t3.5 -35t9.5 -32.5t15 -30t20.5 -27t25 -23t28.5 -19t31.5 -14.5t34.5 -9
t36 -3q21 0 41.5 4t38.5 11t34.5 17.5t30.5 23.5t24.5 28.5t18.5 33t12 36.5t4 39zM324 513q0 -41 -28 -69.5t-70 -28.5q-40 0 -68.5 28.5t-28.5 69.5q0 40 28.5 69t68.5 29q42 0 70 -29t28 -69z" />
    <glyph glyph-name="guillemotright" unicode="&#xbb;" horiz-adv-x="671" 
d="M264 0h135l239 258l-239 259h-138l237 -261zM5 0h135l239 258l-239 259h-138l237 -261z" />
    <glyph glyph-name="onequarter" unicode="&#xbc;" horiz-adv-x="766" 
d="M282 392h-87v308h-156v-77h68v-231h-86v-77h261v77zM627 0h88v91h42v73h-42v221h-116l-156 -228v-66h184v-91zM534 164l93 140v-140h-93zM262 0l376 700h-99l-376 -700h99z" />
    <glyph glyph-name="onehalf" unicode="&#xbd;" horiz-adv-x="803" 
d="M282 392h-87v308h-156v-77h68v-231h-86v-77h261v77zM768 273q0 51 -37 85t-98 34q-49 0 -86 -22t-59 -63l70 -40q14 25 30.5 37.5t37.5 12.5q23 0 38.5 -14t15.5 -36q0 -16 -7 -31t-28 -37l-139 -142v-57h269v77l-144 -3l78 79q37 37 48.5 64.5t10.5 55.5zM257 0l376 700
h-99l-376 -700h99z" />
    <glyph glyph-name="threequarters" unicode="&#xbe;" horiz-adv-x="737" 
d="M175 707q-54 0 -91.5 -22t-56.5 -59l72 -37q11 20 27.5 31.5t38.5 11.5q24 0 38 -12t14 -31q0 -18 -13 -30.5t-34 -12.5h-54v-71h61q24 0 38 -13.5t14 -29.5q0 -21 -16 -35.5t-44 -14.5q-25 0 -44 11.5t-31 31.5l-72 -39q19 -37 57 -58.5t93 -21.5q64 0 105 35.5t41 85.5
q0 31 -19.5 55.5t-49.5 35.5q25 13 40.5 34t15.5 47q0 46 -37.5 76.5t-92.5 31.5zM635 0h88v91h42v73h-42v221h-116l-156 -228v-66h184v-91zM542 164l93 140v-140h-93zM271 0l376 700h-99l-376 -700h99z" />
    <glyph glyph-name="questiondown" unicode="&#xbf;" horiz-adv-x="512" 
d="M14 207q0 -20 3.5 -38.5t10.5 -36t17 -33.5t23 -29.5t28.5 -25t33 -21t37 -15.5t40.5 -9.5t43 -3.5q77 0 132 31.5t95 82.5l-94 68q-22 -31 -55.5 -49t-74.5 -18q-46 0 -78 29.5t-32 74.5q0 42 31.5 71t77.5 29h56l-4 202h-105l-3 -104q-20 -2 -38 -8t-34.5 -14.5
t-31 -20t-27 -25t-22 -29.5t-16 -33.5t-10 -36t-3.5 -38.5zM252 573q30 0 51 21t21 51t-21 50.5t-51 20.5t-50.5 -20.5t-20.5 -50.5t20.5 -51t50.5 -21z" />
    <glyph glyph-name="Agrave" unicode="&#xc0;" horiz-adv-x="716" 
d="M426 700h-136l-295 -700h140l69 171h304l69 -171h144zM250 288l106 262l105 -262h-211zM334 900h-143l128 -132h125z" />
    <glyph glyph-name="Aacute" unicode="&#xc1;" horiz-adv-x="716" 
d="M426 700h-136l-295 -700h140l69 171h304l69 -171h144zM250 288l106 262l105 -262h-211zM382 900l-109 -132h124l129 132h-144z" />
    <glyph glyph-name="Acircumflex" unicode="&#xc2;" horiz-adv-x="716" 
d="M426 700h-136l-295 -700h140l69 171h304l69 -171h144zM250 288l106 262l105 -262h-211zM290 768l68 70l68 -70h110l-113 132h-128l-114 -132h109z" />
    <glyph glyph-name="Atilde" unicode="&#xc3;" horiz-adv-x="716" 
d="M426 700h-136l-295 -700h140l69 171h304l69 -171h144zM250 288l106 262l105 -262h-211zM289 890q-39 0 -66 -27.5t-40 -85.5l82 -17q6 27 15 36.5t20 9.5q5 0 11.5 -2t13.5 -5t15 -6.5t16.5 -7.5t17 -7.5t17.5 -6.5t17.5 -5t16.5 -2q39 0 66 27.5t40 84.5l-82 18
q-6 -27 -15 -36.5t-19 -9.5q-5 0 -11.5 2t-14 5t-15.5 6.5t-16 7.5t-17 7.5t-17.5 6.5t-17.5 5t-17 2z" />
    <glyph glyph-name="Adieresis" unicode="&#xc4;" horiz-adv-x="716" 
d="M426 700h-136l-295 -700h140l69 171h304l69 -171h144zM250 288l106 262l105 -262h-211zM256 758q30 0 50 20.5t20 51.5q0 30 -20 50t-50 20t-51 -20t-21 -50q0 -31 21 -51.5t51 -20.5zM460 758q30 0 50.5 20.5t20.5 51.5q0 30 -20.5 50t-50.5 20t-50.5 -20t-20.5 -50
q0 -31 20.5 -51.5t50.5 -20.5z" />
    <glyph glyph-name="Aring" unicode="&#xc5;" horiz-adv-x="716" 
d="M426 700h-136l-295 -700h140l69 171h304l69 -171h144zM250 288l106 262l105 -262h-211zM358 750q48 0 81.5 33t33.5 80q0 46 -33.5 78.5t-81.5 32.5t-81.5 -32.5t-33.5 -78.5q0 -48 33 -80.5t82 -32.5zM358 807q-23 0 -39 16.5t-16 39.5q0 22 16 37.5t39 15.5t39 -15.5
t16 -37.5t-16 -39t-39 -17z" />
    <glyph glyph-name="AE" unicode="&#xc6;" horiz-adv-x="980" 
d="M944 118h-307v176h297v115h-297v173h307v118h-505l-444 -700h156l97 162h254v-162h442v118zM319 279l183 305v-305h-183z" />
    <glyph glyph-name="Ccedilla" unicode="&#xc7;" horiz-adv-x="718" 
d="M30 351q0 -32 5 -62.5t14.5 -58.5t23 -54t31.5 -49t39.5 -42.5t46 -36t52.5 -28.5t58.5 -20t63.5 -11l-26 -81h43q20 0 33.5 -10t13.5 -26q0 -14 -12 -25t-33 -11q-18 0 -33.5 7.5t-28.5 22.5l-52 -43q18 -24 49.5 -37.5t70.5 -13.5q49 0 83.5 28.5t34.5 70.5
q0 34 -23 57t-62 28l11 32q87 6 157.5 46.5t116.5 103.5l-105 77q-32 -49 -84.5 -76.5t-112.5 -27.5q-25 0 -48 4.5t-44.5 13t-40.5 20.5t-35 28t-29 35t-22 41t-14 46.5t-5 51.5t4.5 51t13.5 46t22 41t29 35t35 28t40.5 20.5t45 13t48.5 4.5q56 0 108 -28.5t86 -76.5
l105 77q-51 67 -129 109t-172 42q-32 0 -62.5 -4.5t-59 -13.5t-54.5 -22t-49 -29.5t-42.5 -36.5t-36 -42.5t-29.5 -47.5t-22 -52t-13.5 -55.5t-4.5 -58.5z" />
    <glyph glyph-name="Egrave" unicode="&#xc8;" horiz-adv-x="527" 
d="M50 0h441v118h-306v176h296v115h-296v173h306v118h-441v-700zM254 900h-143l128 -132h125z" />
    <glyph glyph-name="Eacute" unicode="&#xc9;" horiz-adv-x="527" 
d="M50 0h441v118h-306v176h296v115h-296v173h306v118h-441v-700zM302 900l-109 -132h124l129 132h-144z" />
    <glyph glyph-name="Ecircumflex" unicode="&#xca;" horiz-adv-x="527" 
d="M50 0h441v118h-306v176h296v115h-296v173h306v118h-441v-700zM210 768l68 70l68 -70h110l-113 132h-128l-114 -132h109z" />
    <glyph glyph-name="Edieresis" unicode="&#xcb;" horiz-adv-x="527" 
d="M50 0h441v118h-306v176h296v115h-296v173h306v118h-441v-700zM176 758q30 0 50 20.5t20 51.5q0 30 -20 50t-50 20t-51 -20t-21 -50q0 -31 21 -51.5t51 -20.5zM380 758q30 0 50.5 20.5t20.5 51.5q0 30 -20.5 50t-50.5 20t-50.5 -20t-20.5 -50q0 -31 20.5 -51.5t50.5 -20.5
z" />
    <glyph glyph-name="Igrave" unicode="&#xcc;" horiz-adv-x="234" 
d="M185 0v700h-135v-700h135zM94 900h-143l128 -132h125z" />
    <glyph glyph-name="Iacute" unicode="&#xcd;" horiz-adv-x="234" 
d="M185 0v700h-135v-700h135zM142 900l-109 -132h124l129 132h-144z" />
    <glyph glyph-name="Icircumflex" unicode="&#xce;" horiz-adv-x="234" 
d="M185 0v700h-135v-700h135zM50 768l68 70l68 -70h110l-113 132h-128l-114 -132h109z" />
    <glyph glyph-name="Idieresis" unicode="&#xcf;" horiz-adv-x="234" 
d="M185 0v700h-135v-700h135zM16 758q30 0 50 20.5t20 51.5q0 30 -20 50t-50 20t-51 -20t-21 -50q0 -31 21 -51.5t51 -20.5zM220 758q30 0 50.5 20.5t20.5 51.5q0 30 -20.5 50t-50.5 20t-50.5 -20t-20.5 -50q0 -31 20.5 -51.5t50.5 -20.5z" />
    <glyph glyph-name="Eth" unicode="&#xd0;" horiz-adv-x="749" 
d="M5 293h74v-293h277q30 0 59 4.5t56 13t52 21t48 28.5t42.5 34.5t36 40.5t29.5 46t22 50.5t13.5 54.5t4.5 57t-4.5 57t-13.5 54.5t-22 50.5t-29.5 46t-36 40.5t-42.5 34.5t-48 28.5t-52 21t-56 13t-59 4.5h-277v-293h-74v-114zM342 582q22 0 43.5 -3.5t41 -10.5t37 -17
t33 -22.5t29 -27.5t23.5 -32.5t17 -36.5t11 -39.5t4 -42.5t-4 -42.5t-11 -39.5t-17 -36t-23.5 -32t-29 -28t-33 -23t-37 -17t-41 -10.5t-43.5 -3.5h-128v175h153v114h-153v175h128z" />
    <glyph glyph-name="Ntilde" unicode="&#xd1;" horiz-adv-x="726" 
d="M175 0l-1 515l354 -515h148v700h-125l1 -515l-354 515h-148v-700h125zM294 890q-39 0 -66 -27.5t-40 -85.5l82 -17q6 27 15 36.5t20 9.5q5 0 11.5 -2t13.5 -5t15 -6.5t16.5 -7.5t17 -7.5t17.5 -6.5t17.5 -5t16.5 -2q39 0 66 27.5t40 84.5l-82 18q-6 -27 -15 -36.5
t-19 -9.5q-5 0 -11.5 2t-14 5t-15.5 6.5t-16 7.5t-17 7.5t-17.5 6.5t-17.5 5t-17 2z" />
    <glyph glyph-name="Ograve" unicode="&#xd2;" horiz-adv-x="805" 
d="M30 350q0 -30 4.5 -59t14 -56t22.5 -52.5t30 -48t37 -42t43 -36t49 -29.5t54 -22t58 -13.5t61 -4.5t61 4.5t58 13.5t53.5 22t48.5 29.5t43 36t37 42.5t30 48t22.5 52t14 56t4.5 59t-4.5 59t-14 56t-22.5 52t-30 48t-37 42.5t-43 36t-48.5 29.5t-53.5 22t-58 13.5t-61 4.5
t-61 -4.5t-58 -13.5t-54 -22t-49 -29.5t-43 -36t-37 -42.5t-30 -48t-22.5 -52t-14 -56t-4.5 -59zM168 350q0 22 3.5 43.5t11 41t17.5 37.5t23 33.5t28 28.5t32.5 23t37 17.5t40 11t42.5 3.5t42.5 -3.5t40 -11t36.5 -17.5t32.5 -23t28 -28.5t23 -33.5t17.5 -37.5t10.5 -40.5
t3.5 -44t-3.5 -44t-10.5 -41t-17.5 -37.5t-23 -33t-28 -28.5t-32.5 -23t-36.5 -17.5t-40 -11t-42.5 -3.5t-42.5 3.5t-40 11t-37 17.5t-32.5 23t-28 28.5t-23 33t-17.5 37.5t-11 41t-3.5 44zM379 900h-143l128 -132h125z" />
    <glyph glyph-name="Oacute" unicode="&#xd3;" horiz-adv-x="805" 
d="M30 350q0 -30 4.5 -59t14 -56t22.5 -52.5t30 -48t37 -42t43 -36t49 -29.5t54 -22t58 -13.5t61 -4.5t61 4.5t58 13.5t53.5 22t48.5 29.5t43 36t37 42.5t30 48t22.5 52t14 56t4.5 59t-4.5 59t-14 56t-22.5 52t-30 48t-37 42.5t-43 36t-48.5 29.5t-53.5 22t-58 13.5t-61 4.5
t-61 -4.5t-58 -13.5t-54 -22t-49 -29.5t-43 -36t-37 -42.5t-30 -48t-22.5 -52t-14 -56t-4.5 -59zM168 350q0 22 3.5 43.5t11 41t17.5 37.5t23 33.5t28 28.5t32.5 23t37 17.5t40 11t42.5 3.5t42.5 -3.5t40 -11t36.5 -17.5t32.5 -23t28 -28.5t23 -33.5t17.5 -37.5t10.5 -40.5
t3.5 -44t-3.5 -44t-10.5 -41t-17.5 -37.5t-23 -33t-28 -28.5t-32.5 -23t-36.5 -17.5t-40 -11t-42.5 -3.5t-42.5 3.5t-40 11t-37 17.5t-32.5 23t-28 28.5t-23 33t-17.5 37.5t-11 41t-3.5 44zM427 900l-109 -132h124l129 132h-144z" />
    <glyph glyph-name="Ocircumflex" unicode="&#xd4;" horiz-adv-x="805" 
d="M30 350q0 -30 4.5 -59t14 -56t22.5 -52.5t30 -48t37 -42t43 -36t49 -29.5t54 -22t58 -13.5t61 -4.5t61 4.5t58 13.5t53.5 22t48.5 29.5t43 36t37 42.5t30 48t22.5 52t14 56t4.5 59t-4.5 59t-14 56t-22.5 52t-30 48t-37 42.5t-43 36t-48.5 29.5t-53.5 22t-58 13.5t-61 4.5
t-61 -4.5t-58 -13.5t-54 -22t-49 -29.5t-43 -36t-37 -42.5t-30 -48t-22.5 -52t-14 -56t-4.5 -59zM168 350q0 22 3.5 43.5t11 41t17.5 37.5t23 33.5t28 28.5t32.5 23t37 17.5t40 11t42.5 3.5t42.5 -3.5t40 -11t36.5 -17.5t32.5 -23t28 -28.5t23 -33.5t17.5 -37.5t10.5 -40.5
t3.5 -44t-3.5 -44t-10.5 -41t-17.5 -37.5t-23 -33t-28 -28.5t-32.5 -23t-36.5 -17.5t-40 -11t-42.5 -3.5t-42.5 3.5t-40 11t-37 17.5t-32.5 23t-28 28.5t-23 33t-17.5 37.5t-11 41t-3.5 44zM335 768l68 70l68 -70h110l-113 132h-128l-114 -132h109z" />
    <glyph glyph-name="Otilde" unicode="&#xd5;" horiz-adv-x="805" 
d="M30 350q0 -30 4.5 -59t14 -56t22.5 -52.5t30 -48t37 -42t43 -36t49 -29.5t54 -22t58 -13.5t61 -4.5t61 4.5t58 13.5t53.5 22t48.5 29.5t43 36t37 42.5t30 48t22.5 52t14 56t4.5 59t-4.5 59t-14 56t-22.5 52t-30 48t-37 42.5t-43 36t-48.5 29.5t-53.5 22t-58 13.5t-61 4.5
t-61 -4.5t-58 -13.5t-54 -22t-49 -29.5t-43 -36t-37 -42.5t-30 -48t-22.5 -52t-14 -56t-4.5 -59zM168 350q0 22 3.5 43.5t11 41t17.5 37.5t23 33.5t28 28.5t32.5 23t37 17.5t40 11t42.5 3.5t42.5 -3.5t40 -11t36.5 -17.5t32.5 -23t28 -28.5t23 -33.5t17.5 -37.5t10.5 -40.5
t3.5 -44t-3.5 -44t-10.5 -41t-17.5 -37.5t-23 -33t-28 -28.5t-32.5 -23t-36.5 -17.5t-40 -11t-42.5 -3.5t-42.5 3.5t-40 11t-37 17.5t-32.5 23t-28 28.5t-23 33t-17.5 37.5t-11 41t-3.5 44zM334 890q-39 0 -66 -27.5t-40 -85.5l82 -17q6 27 15 36.5t20 9.5q5 0 11.5 -2
t13.5 -5t15 -6.5t16.5 -7.5t17 -7.5t17.5 -6.5t17.5 -5t16.5 -2q39 0 66 27.5t40 84.5l-82 18q-6 -27 -15 -36.5t-19 -9.5q-5 0 -11.5 2t-14 5t-15.5 6.5t-16 7.5t-17 7.5t-17.5 6.5t-17.5 5t-17 2z" />
    <glyph glyph-name="Odieresis" unicode="&#xd6;" horiz-adv-x="805" 
d="M30 350q0 -30 4.5 -59t14 -56t22.5 -52.5t30 -48t37 -42t43 -36t49 -29.5t54 -22t58 -13.5t61 -4.5t61 4.5t58 13.5t53.5 22t48.5 29.5t43 36t37 42.5t30 48t22.5 52t14 56t4.5 59t-4.5 59t-14 56t-22.5 52t-30 48t-37 42.5t-43 36t-48.5 29.5t-53.5 22t-58 13.5t-61 4.5
t-61 -4.5t-58 -13.5t-54 -22t-49 -29.5t-43 -36t-37 -42.5t-30 -48t-22.5 -52t-14 -56t-4.5 -59zM168 350q0 22 3.5 43.5t11 41t17.5 37.5t23 33.5t28 28.5t32.5 23t37 17.5t40 11t42.5 3.5t42.5 -3.5t40 -11t36.5 -17.5t32.5 -23t28 -28.5t23 -33.5t17.5 -37.5t10.5 -40.5
t3.5 -44t-3.5 -44t-10.5 -41t-17.5 -37.5t-23 -33t-28 -28.5t-32.5 -23t-36.5 -17.5t-40 -11t-42.5 -3.5t-42.5 3.5t-40 11t-37 17.5t-32.5 23t-28 28.5t-23 33t-17.5 37.5t-11 41t-3.5 44zM301 758q30 0 50 20.5t20 51.5q0 30 -20 50t-50 20t-51 -20t-21 -50
q0 -31 21 -51.5t51 -20.5zM505 758q30 0 50.5 20.5t20.5 51.5q0 30 -20.5 50t-50.5 20t-50.5 -20t-20.5 -50q0 -31 20.5 -51.5t50.5 -20.5z" />
    <glyph glyph-name="multiply" unicode="&#xd7;" horiz-adv-x="535" 
d="M119 144l148 150l148 -151l66 66l-149 151l148 150l-64 64l-148 -150l-148 151l-66 -66l149 -151l-148 -150z" />
    <glyph glyph-name="Oslash" unicode="&#xd8;" horiz-adv-x="805" 
d="M58 0h121l31 38q42 -24 91 -37.5t102 -13.5q31 0 61 4.5t58 13.5t53.5 22t48.5 29.5t43 36t37 42.5t30 48t22.5 52t14 56t4.5 59q0 75 -28 140t-77 114l78 96h-121l-31 -38q-42 24 -91 37.5t-102 13.5q-31 0 -61 -4.5t-58 -13.5t-54 -22t-49 -29.5t-43 -36t-37 -42.5
t-30 -48t-22.5 -52t-14 -56t-4.5 -59q0 -75 28 -140.5t77 -114.5zM168 350q0 22 3.5 43.5t11 41t17.5 37.5t23 33.5t28 28.5t32.5 23t37 17.5t40 11t42.5 3.5q31 0 58.5 -7.5t52.5 -20.5l-295 -362q-24 30 -37.5 69t-13.5 82zM637 350q0 -23 -3.5 -44t-10.5 -41t-17.5 -37.5
t-23 -33t-28 -28.5t-32.5 -23t-36.5 -17.5t-40 -11t-42.5 -3.5q-30 0 -58 7t-53 20l294 363q24 -31 37.5 -69.5t13.5 -81.5z" />
    <glyph glyph-name="Ugrave" unicode="&#xd9;" horiz-adv-x="674" 
d="M180 274v426h-135v-435q0 -31 5.5 -60t15.5 -54.5t24.5 -47.5t32.5 -40.5t40 -32.5t46.5 -24t52 -15t56.5 -5q49 0 93 17t79 47v-50h134v700h-135v-426q0 -75 -44 -121.5t-110 -46.5t-110.5 46t-44.5 122zM311 900h-143l128 -132h125z" />
    <glyph glyph-name="Uacute" unicode="&#xda;" horiz-adv-x="674" 
d="M180 274v426h-135v-435q0 -31 5.5 -60t15.5 -54.5t24.5 -47.5t32.5 -40.5t40 -32.5t46.5 -24t52 -15t56.5 -5q49 0 93 17t79 47v-50h134v700h-135v-426q0 -75 -44 -121.5t-110 -46.5t-110.5 46t-44.5 122zM359 900l-109 -132h124l129 132h-144z" />
    <glyph glyph-name="Ucircumflex" unicode="&#xdb;" horiz-adv-x="674" 
d="M180 274v426h-135v-435q0 -31 5.5 -60t15.5 -54.5t24.5 -47.5t32.5 -40.5t40 -32.5t46.5 -24t52 -15t56.5 -5q49 0 93 17t79 47v-50h134v700h-135v-426q0 -75 -44 -121.5t-110 -46.5t-110.5 46t-44.5 122zM267 768l68 70l68 -70h110l-113 132h-128l-114 -132h109z" />
    <glyph glyph-name="Udieresis" unicode="&#xdc;" horiz-adv-x="674" 
d="M180 274v426h-135v-435q0 -31 5.5 -60t15.5 -54.5t24.5 -47.5t32.5 -40.5t40 -32.5t46.5 -24t52 -15t56.5 -5q49 0 93 17t79 47v-50h134v700h-135v-426q0 -75 -44 -121.5t-110 -46.5t-110.5 46t-44.5 122zM233 758q30 0 50 20.5t20 51.5q0 30 -20 50t-50 20t-51 -20
t-21 -50q0 -31 21 -51.5t51 -20.5zM437 758q30 0 50.5 20.5t20.5 51.5q0 30 -20.5 50t-50.5 20t-50.5 -20t-20.5 -50q0 -31 20.5 -51.5t50.5 -20.5z" />
    <glyph glyph-name="Yacute" unicode="&#xdd;" horiz-adv-x="674" 
d="M404 0v290l275 410h-160l-180 -281l-180 281h-164l274 -408v-292h135zM361 900l-109 -132h124l129 132h-144z" />
    <glyph glyph-name="Thorn" unicode="&#xde;" horiz-adv-x="594" 
d="M185 700h-135v-700h135v139h166q22 0 43 4t40.5 12t36.5 19.5t31.5 25.5t25.5 31t19.5 36t12.5 40t4 43t-4 43.5t-12.5 40.5t-19.5 36t-25.5 31t-31.5 25.5t-36.5 19.5t-40.5 12t-43 4h-166v138zM337 445q40 0 64.5 -28t24.5 -69q0 -40 -24.5 -68.5t-64.5 -28.5h-152v194
h152z" />
    <glyph glyph-name="germandbls" unicode="&#xdf;" horiz-adv-x="650" 
d="M388 370l77 43q37 20 59 49.5t22 74.5q0 19 -4.5 36.5t-13.5 33.5t-21.5 29.5t-28 25t-34.5 21t-40 15.5t-44 9.5t-48 3.5q-28 0 -54.5 -4t-50.5 -12t-45 -19.5t-38.5 -26.5t-31.5 -34t-23.5 -41t-14.5 -47.5t-5 -54.5v-472h131v472q0 57 36 91t92 34q46 0 77 -19.5
t31 -48.5q0 -15 -10 -28.5t-32 -24.5l-49 -28q-36 -19 -55 -45.5t-19 -67.5q0 -49 32 -78t96 -48l73 -21q28 -8 40 -21t12 -31q0 -21 -17 -35t-50 -14q-30 0 -52 15t-30 46h-123q13 -67 65.5 -113.5t141.5 -46.5t139.5 47t50.5 116q0 57 -33.5 93.5t-106.5 55.5l-87 23
q-15 4 -23 9.5t-8 16.5q0 7 5 12t12 9z" />
    <glyph glyph-name="agrave" unicode="&#xe0;" horiz-adv-x="545" 
d="M22 145q0 -68 51 -113t128 -45q51 0 93 20t69 54q13 -28 41 -44.5t65 -16.5h61v113h-27q-14 0 -21.5 8t-7.5 22v203q0 82 -56.5 132t-149.5 50q-59 0 -111 -18t-97 -51l55 -93q34 23 68 34.5t69 11.5q46 0 70.5 -22t24.5 -60v-20l-152 -11q-82 -6 -127.5 -45.5
t-45.5 -108.5zM147 146q0 25 16.5 39t49.5 17l134 12v-33q0 -39 -34 -66.5t-83 -27.5q-37 0 -60 16t-23 43zM240 717h-143l128 -132h125z" />
    <glyph glyph-name="aacute" unicode="&#xe1;" horiz-adv-x="545" 
d="M22 145q0 -68 51 -113t128 -45q51 0 93 20t69 54q13 -28 41 -44.5t65 -16.5h61v113h-27q-14 0 -21.5 8t-7.5 22v203q0 82 -56.5 132t-149.5 50q-59 0 -111 -18t-97 -51l55 -93q34 23 68 34.5t69 11.5q46 0 70.5 -22t24.5 -60v-20l-152 -11q-82 -6 -127.5 -45.5
t-45.5 -108.5zM147 146q0 25 16.5 39t49.5 17l134 12v-33q0 -39 -34 -66.5t-83 -27.5q-37 0 -60 16t-23 43zM288 717l-109 -132h124l129 132h-144z" />
    <glyph glyph-name="acircumflex" unicode="&#xe2;" horiz-adv-x="545" 
d="M22 145q0 -68 51 -113t128 -45q51 0 93 20t69 54q13 -28 41 -44.5t65 -16.5h61v113h-27q-14 0 -21.5 8t-7.5 22v203q0 82 -56.5 132t-149.5 50q-59 0 -111 -18t-97 -51l55 -93q34 23 68 34.5t69 11.5q46 0 70.5 -22t24.5 -60v-20l-152 -11q-82 -6 -127.5 -45.5
t-45.5 -108.5zM147 146q0 25 16.5 39t49.5 17l134 12v-33q0 -39 -34 -66.5t-83 -27.5q-37 0 -60 16t-23 43zM196 585l68 70l68 -70h110l-113 132h-128l-114 -132h109z" />
    <glyph glyph-name="atilde" unicode="&#xe3;" horiz-adv-x="545" 
d="M22 145q0 -68 51 -113t128 -45q51 0 93 20t69 54q13 -28 41 -44.5t65 -16.5h61v113h-27q-14 0 -21.5 8t-7.5 22v203q0 82 -56.5 132t-149.5 50q-59 0 -111 -18t-97 -51l55 -93q34 23 68 34.5t69 11.5q46 0 70.5 -22t24.5 -60v-20l-152 -11q-82 -6 -127.5 -45.5
t-45.5 -108.5zM147 146q0 25 16.5 39t49.5 17l134 12v-33q0 -39 -34 -66.5t-83 -27.5q-37 0 -60 16t-23 43zM195 707q-39 0 -66 -27.5t-40 -85.5l82 -17q6 27 15 36.5t20 9.5q5 0 11.5 -2t13.5 -5t15 -6.5t16.5 -7.5t17 -7.5t17.5 -6.5t17.5 -5t16.5 -2q39 0 66 27.5
t40 84.5l-82 18q-6 -27 -15 -36.5t-19 -9.5q-5 0 -11.5 2t-14 5t-15.5 6.5t-16 7.5t-17 7.5t-17.5 6.5t-17.5 5t-17 2z" />
    <glyph glyph-name="adieresis" unicode="&#xe4;" horiz-adv-x="545" 
d="M22 145q0 -68 51 -113t128 -45q51 0 93 20t69 54q13 -28 41 -44.5t65 -16.5h61v113h-27q-14 0 -21.5 8t-7.5 22v203q0 82 -56.5 132t-149.5 50q-59 0 -111 -18t-97 -51l55 -93q34 23 68 34.5t69 11.5q46 0 70.5 -22t24.5 -60v-20l-152 -11q-82 -6 -127.5 -45.5
t-45.5 -108.5zM147 146q0 25 16.5 39t49.5 17l134 12v-33q0 -39 -34 -66.5t-83 -27.5q-37 0 -60 16t-23 43zM162 575q30 0 50 20.5t20 51.5q0 30 -20 50t-50 20t-51 -20t-21 -50q0 -31 21 -51.5t51 -20.5zM366 575q30 0 50.5 20.5t20.5 51.5q0 30 -20.5 50t-50.5 20
t-50.5 -20t-20.5 -50q0 -31 20.5 -51.5t50.5 -20.5z" />
    <glyph glyph-name="aring" unicode="&#xe5;" horiz-adv-x="545" 
d="M22 145q0 -68 51 -113t128 -45q51 0 93 20t69 54q13 -28 41 -44.5t65 -16.5h61v113h-27q-14 0 -21.5 8t-7.5 22v203q0 82 -56.5 132t-149.5 50q-59 0 -111 -18t-97 -51l55 -93q34 23 68 34.5t69 11.5q46 0 70.5 -22t24.5 -60v-20l-152 -11q-82 -6 -127.5 -45.5
t-45.5 -108.5zM147 146q0 25 16.5 39t49.5 17l134 12v-33q0 -39 -34 -66.5t-83 -27.5q-37 0 -60 16t-23 43zM264 567q48 0 81.5 33t33.5 80q0 46 -33.5 78.5t-81.5 32.5t-81.5 -32.5t-33.5 -78.5q0 -48 33 -80.5t82 -32.5zM264 624q-23 0 -39 16.5t-16 39.5q0 22 16 37.5
t39 15.5t39 -15.5t16 -37.5t-16 -39t-39 -17z" />
    <glyph glyph-name="ae" unicode="&#xe6;" horiz-adv-x="908" 
d="M633 -12q69 0 125 30t96 82l-91 68q-28 -37 -61.5 -52.5t-74.5 -15.5q-54 0 -93.5 33t-52.5 83h400v38q0 30 -5 58t-14.5 53t-23 47t-31 40.5t-38 33t-44.5 24.5t-50.5 15t-54.5 5q-56 0 -103.5 -21t-81.5 -59q-24 37 -66.5 57.5t-96.5 20.5q-60 0 -114.5 -17.5
t-96.5 -50.5l54 -94q34 23 68.5 34t69.5 11q45 0 69.5 -21.5t24.5 -59.5v-21l-153 -10q-81 -5 -126.5 -45t-45.5 -109q0 -68 52 -113t130 -45q77 0 129 28.5t81 75.5q37 -48 94 -75.5t125 -27.5zM613 418q47 0 84.5 -27t51.5 -75h-266q14 47 49 74.5t81 27.5zM147 146
q0 25 16 39.5t50 16.5l134 10v-31q0 -39 -34.5 -66.5t-83.5 -27.5q-37 0 -59.5 16t-22.5 43z" />
    <glyph glyph-name="ccedilla" unicode="&#xe7;" horiz-adv-x="548" 
d="M157 259q0 65 45.5 110.5t108.5 45.5q41 0 74.5 -18t55.5 -49l93 68q-39 51 -93.5 82.5t-129.5 31.5q-27 0 -52 -4.5t-48.5 -12.5t-44.5 -20t-39.5 -27t-34 -32.5t-27.5 -37.5t-20.5 -42t-13 -46t-4.5 -49q0 -23 4 -45t11 -42.5t17.5 -39.5t23.5 -36.5t29 -32t34.5 -27
t38.5 -22t42.5 -16t45.5 -9.5l-26 -81h43q20 0 33.5 -10t13.5 -26q0 -14 -12 -25t-33 -11q-18 0 -33.5 7.5t-28.5 22.5l-52 -43q18 -24 49.5 -37.5t70.5 -13.5q49 0 83.5 28.5t34.5 70.5q0 34 -23 57t-62 28l11 33q63 6 110.5 36t81.5 76l-93 68q-22 -31 -55.5 -49
t-74.5 -18q-63 0 -108.5 46t-45.5 111z" />
    <glyph glyph-name="egrave" unicode="&#xe8;" horiz-adv-x="588" 
d="M27 259q0 -26 4.5 -51t12.5 -47.5t20 -42.5t27.5 -37.5t33.5 -32t39 -26t44 -19.5t48 -12t51 -4q72 0 129.5 29.5t96.5 82.5l-91 68q-28 -37 -61.5 -52.5t-74.5 -15.5q-54 0 -93 33t-52 83h399v38q0 30 -5 58t-14.5 53t-23.5 47t-31.5 40.5t-38.5 33t-45 24.5t-51 15
t-56 5q-25 0 -49 -4.5t-46.5 -13t-42 -20.5t-37 -27t-32 -33t-26 -38t-19.5 -42t-12 -45t-4 -47zM292 417q47 0 84.5 -27t51.5 -75h-265q13 47 48 74.5t81 27.5zM272 717h-143l128 -132h125z" />
    <glyph glyph-name="eacute" unicode="&#xe9;" horiz-adv-x="588" 
d="M27 259q0 -26 4.5 -51t12.5 -47.5t20 -42.5t27.5 -37.5t33.5 -32t39 -26t44 -19.5t48 -12t51 -4q72 0 129.5 29.5t96.5 82.5l-91 68q-28 -37 -61.5 -52.5t-74.5 -15.5q-54 0 -93 33t-52 83h399v38q0 30 -5 58t-14.5 53t-23.5 47t-31.5 40.5t-38.5 33t-45 24.5t-51 15
t-56 5q-25 0 -49 -4.5t-46.5 -13t-42 -20.5t-37 -27t-32 -33t-26 -38t-19.5 -42t-12 -45t-4 -47zM292 417q47 0 84.5 -27t51.5 -75h-265q13 47 48 74.5t81 27.5zM320 717l-109 -132h124l129 132h-144z" />
    <glyph glyph-name="ecircumflex" unicode="&#xea;" horiz-adv-x="588" 
d="M27 259q0 -26 4.5 -51t12.5 -47.5t20 -42.5t27.5 -37.5t33.5 -32t39 -26t44 -19.5t48 -12t51 -4q72 0 129.5 29.5t96.5 82.5l-91 68q-28 -37 -61.5 -52.5t-74.5 -15.5q-54 0 -93 33t-52 83h399v38q0 30 -5 58t-14.5 53t-23.5 47t-31.5 40.5t-38.5 33t-45 24.5t-51 15
t-56 5q-25 0 -49 -4.5t-46.5 -13t-42 -20.5t-37 -27t-32 -33t-26 -38t-19.5 -42t-12 -45t-4 -47zM292 417q47 0 84.5 -27t51.5 -75h-265q13 47 48 74.5t81 27.5zM228 585l68 70l68 -70h110l-113 132h-128l-114 -132h109z" />
    <glyph glyph-name="edieresis" unicode="&#xeb;" horiz-adv-x="588" 
d="M27 259q0 -26 4.5 -51t12.5 -47.5t20 -42.5t27.5 -37.5t33.5 -32t39 -26t44 -19.5t48 -12t51 -4q72 0 129.5 29.5t96.5 82.5l-91 68q-28 -37 -61.5 -52.5t-74.5 -15.5q-54 0 -93 33t-52 83h399v38q0 30 -5 58t-14.5 53t-23.5 47t-31.5 40.5t-38.5 33t-45 24.5t-51 15
t-56 5q-25 0 -49 -4.5t-46.5 -13t-42 -20.5t-37 -27t-32 -33t-26 -38t-19.5 -42t-12 -45t-4 -47zM292 417q47 0 84.5 -27t51.5 -75h-265q13 47 48 74.5t81 27.5zM194 575q30 0 50 20.5t20 51.5q0 30 -20 50t-50 20t-51 -20t-21 -50q0 -31 21 -51.5t51 -20.5zM398 575
q30 0 50.5 20.5t20.5 51.5q0 30 -20.5 50t-50.5 20t-50.5 -20t-20.5 -50q0 -31 20.5 -51.5t50.5 -20.5z" />
    <glyph glyph-name="igrave" unicode="&#xec;" 
d="M176 517h-131v-517h131v517zM87 717h-143l128 -132h125z" />
    <glyph glyph-name="iacute" unicode="&#xed;" 
d="M176 517h-131v-517h131v517zM135 717l-109 -132h124l129 132h-144z" />
    <glyph glyph-name="icircumflex" unicode="&#xee;" 
d="M176 517h-131v-517h131v517zM43 585l68 70l68 -70h110l-113 132h-128l-114 -132h109z" />
    <glyph glyph-name="idieresis" unicode="&#xef;" 
d="M176 517h-131v-517h131v517zM9 575q30 0 50 20.5t20 51.5q0 30 -20 50t-50 20t-51 -20t-21 -50q0 -31 21 -51.5t51 -20.5zM213 575q30 0 50.5 20.5t20.5 51.5q0 30 -20.5 50t-50.5 20t-50.5 -20t-20.5 -50q0 -31 20.5 -51.5t50.5 -20.5z" />
    <glyph glyph-name="eth" unicode="&#xf0;" horiz-adv-x="592" 
d="M259 521l74 49q36 -33 59.5 -71.5t32.5 -78.5q-32 34 -72 51t-87 17q-22 0 -42.5 -4t-40 -11.5t-37 -18t-33.5 -24t-29 -29.5t-23.5 -34t-18 -37.5t-11.5 -40.5t-4 -43q0 -24 4 -46.5t11.5 -43.5t18.5 -40t25 -35.5t31 -30.5t36 -25t40 -18.5t44 -11.5t47 -4q31 0 59 6
t53 17t46.5 27t39.5 37t31.5 46.5t23 55t14.5 62.5t5 70v27q0 85 -32 160t-92 135l68 44l-49 67l-86 -56q-27 19 -57.5 36t-64.5 30l-56 -97q20 -7 39 -16.5t36 -19.5l-52 -34zM288 103q-57 0 -97 40.5t-40 97.5t40 97t97 40q55 0 95 -40t40 -97t-39.5 -97.5t-95.5 -40.5z
" />
    <glyph glyph-name="ntilde" unicode="&#xf1;" horiz-adv-x="567" 
d="M522 329q0 21 -4 41t-11 38t-17.5 34.5t-24 30t-29.5 24.5t-35 18.5t-39.5 11.5t-43.5 4q-42 0 -78.5 -15t-63.5 -43v44h-131v-517h131v303q0 51 30.5 81t77.5 30q48 0 77.5 -30.5t29.5 -80.5v-303h131v329zM215 707q-39 0 -66 -27.5t-40 -85.5l82 -17q6 27 15 36.5
t20 9.5q5 0 11.5 -2t13.5 -5t15 -6.5t16.5 -7.5t17 -7.5t17.5 -6.5t17.5 -5t16.5 -2q39 0 66 27.5t40 84.5l-82 18q-6 -27 -15 -36.5t-19 -9.5q-5 0 -11.5 2t-14 5t-15.5 6.5t-16 7.5t-17 7.5t-17.5 6.5t-17.5 5t-17 2z" />
    <glyph glyph-name="ograve" unicode="&#xf2;" horiz-adv-x="622" 
d="M595 258q0 25 -4.5 49t-13 46t-21 42.5t-28 38t-34.5 32.5t-40 27t-44 20t-48 12.5t-51 4.5q-23 0 -45.5 -3.5t-44 -10.5t-41 -16.5t-37 -22t-33 -27.5t-28.5 -31.5t-23 -35.5t-17.5 -39t-11 -42t-3.5 -44t3.5 -44t11 -42t17.5 -39t23 -35.5t28.5 -31.5t33 -27.5t37 -22
t41 -16.5t44 -10.5t45.5 -3.5q26 0 51 4.5t48 12.5t44 20t40 27t34.5 33t28 38t21 42t13 46t4.5 49zM465 258q0 -65 -45 -110.5t-109 -45.5q-63 0 -108.5 45.5t-45.5 110.5t45.5 110.5t108.5 45.5q64 0 109 -45.5t45 -110.5zM287 717h-143l128 -132h125z" />
    <glyph glyph-name="oacute" unicode="&#xf3;" horiz-adv-x="622" 
d="M595 258q0 25 -4.5 49t-13 46t-21 42.5t-28 38t-34.5 32.5t-40 27t-44 20t-48 12.5t-51 4.5q-23 0 -45.5 -3.5t-44 -10.5t-41 -16.5t-37 -22t-33 -27.5t-28.5 -31.5t-23 -35.5t-17.5 -39t-11 -42t-3.5 -44t3.5 -44t11 -42t17.5 -39t23 -35.5t28.5 -31.5t33 -27.5t37 -22
t41 -16.5t44 -10.5t45.5 -3.5q26 0 51 4.5t48 12.5t44 20t40 27t34.5 33t28 38t21 42t13 46t4.5 49zM465 258q0 -65 -45 -110.5t-109 -45.5q-63 0 -108.5 45.5t-45.5 110.5t45.5 110.5t108.5 45.5q64 0 109 -45.5t45 -110.5zM335 717l-109 -132h124l129 132h-144z" />
    <glyph glyph-name="ocircumflex" unicode="&#xf4;" horiz-adv-x="622" 
d="M595 258q0 25 -4.5 49t-13 46t-21 42.5t-28 38t-34.5 32.5t-40 27t-44 20t-48 12.5t-51 4.5q-23 0 -45.5 -3.5t-44 -10.5t-41 -16.5t-37 -22t-33 -27.5t-28.5 -31.5t-23 -35.5t-17.5 -39t-11 -42t-3.5 -44t3.5 -44t11 -42t17.5 -39t23 -35.5t28.5 -31.5t33 -27.5t37 -22
t41 -16.5t44 -10.5t45.5 -3.5q26 0 51 4.5t48 12.5t44 20t40 27t34.5 33t28 38t21 42t13 46t4.5 49zM465 258q0 -65 -45 -110.5t-109 -45.5q-63 0 -108.5 45.5t-45.5 110.5t45.5 110.5t108.5 45.5q64 0 109 -45.5t45 -110.5zM243 585l68 70l68 -70h110l-113 132h-128
l-114 -132h109z" />
    <glyph glyph-name="otilde" unicode="&#xf5;" horiz-adv-x="622" 
d="M595 258q0 25 -4.5 49t-13 46t-21 42.5t-28 38t-34.5 32.5t-40 27t-44 20t-48 12.5t-51 4.5q-23 0 -45.5 -3.5t-44 -10.5t-41 -16.5t-37 -22t-33 -27.5t-28.5 -31.5t-23 -35.5t-17.5 -39t-11 -42t-3.5 -44t3.5 -44t11 -42t17.5 -39t23 -35.5t28.5 -31.5t33 -27.5t37 -22
t41 -16.5t44 -10.5t45.5 -3.5q26 0 51 4.5t48 12.5t44 20t40 27t34.5 33t28 38t21 42t13 46t4.5 49zM465 258q0 -65 -45 -110.5t-109 -45.5q-63 0 -108.5 45.5t-45.5 110.5t45.5 110.5t108.5 45.5q64 0 109 -45.5t45 -110.5zM242 707q-39 0 -66 -27.5t-40 -85.5l82 -17
q6 27 15 36.5t20 9.5q5 0 11.5 -2t13.5 -5t15 -6.5t16.5 -7.5t17 -7.5t17.5 -6.5t17.5 -5t16.5 -2q39 0 66 27.5t40 84.5l-82 18q-6 -27 -15 -36.5t-19 -9.5q-5 0 -11.5 2t-14 5t-15.5 6.5t-16 7.5t-17 7.5t-17.5 6.5t-17.5 5t-17 2z" />
    <glyph glyph-name="odieresis" unicode="&#xf6;" horiz-adv-x="622" 
d="M595 258q0 25 -4.5 49t-13 46t-21 42.5t-28 38t-34.5 32.5t-40 27t-44 20t-48 12.5t-51 4.5q-23 0 -45.5 -3.5t-44 -10.5t-41 -16.5t-37 -22t-33 -27.5t-28.5 -31.5t-23 -35.5t-17.5 -39t-11 -42t-3.5 -44t3.5 -44t11 -42t17.5 -39t23 -35.5t28.5 -31.5t33 -27.5t37 -22
t41 -16.5t44 -10.5t45.5 -3.5q26 0 51 4.5t48 12.5t44 20t40 27t34.5 33t28 38t21 42t13 46t4.5 49zM465 258q0 -65 -45 -110.5t-109 -45.5q-63 0 -108.5 45.5t-45.5 110.5t45.5 110.5t108.5 45.5q64 0 109 -45.5t45 -110.5zM209 575q30 0 50 20.5t20 51.5q0 30 -20 50
t-50 20t-51 -20t-21 -50q0 -31 21 -51.5t51 -20.5zM413 575q30 0 50.5 20.5t20.5 51.5q0 30 -20.5 50t-50.5 20t-50.5 -20t-20.5 -50q0 -31 20.5 -51.5t50.5 -20.5z" />
    <glyph glyph-name="divide" unicode="&#xf7;" horiz-adv-x="542" 
d="M272 642q-31 0 -53.5 -22t-22.5 -53t22.5 -53t53.5 -22t53.5 22t22.5 53t-22.5 53t-53.5 22zM497 310v102h-452v-102h452zM272 227q-31 0 -53.5 -22t-22.5 -53t22.5 -53t53.5 -22t53.5 22t22.5 53t-22.5 53t-53.5 22z" />
    <glyph glyph-name="oslash" unicode="&#xf8;" horiz-adv-x="622" 
d="M46 0h94l22 26q33 -19 71 -29.5t78 -10.5q26 0 51 4.5t48 12.5t44 20t40 27t34.5 33t28 38t21 42t13 46t4.5 49q0 54 -21 103t-58 85l60 71h-95l-22 -26q-32 19 -70 29t-78 10q-23 0 -45.5 -3.5t-44 -10.5t-41 -16.5t-37 -22t-33 -27.5t-28.5 -31.5t-23 -35.5t-17.5 -39
t-11 -42t-3.5 -44q0 -54 21 -102.5t57 -84.5zM157 258q0 65 45.5 110.5t108.5 45.5q19 0 36.5 -4.5t33.5 -11.5l-195 -232q-13 19 -21 43t-8 49zM465 258q0 -65 -45 -110.5t-109 -45.5q-19 0 -37 4.5t-34 12.5l196 231q13 -19 21 -42.5t8 -49.5z" />
    <glyph glyph-name="ugrave" unicode="&#xf9;" horiz-adv-x="567" 
d="M45 188q0 -21 4 -40.5t11 -38t17.5 -34t24 -29.5t29.5 -24.5t35 -18t39.5 -11.5t43.5 -4q42 0 78.5 15t63.5 43v-46h131v517h-131v-303q0 -49 -30 -80t-78 -31t-77.5 31.5t-29.5 79.5v303h-131v-329zM260 717h-143l128 -132h125z" />
    <glyph glyph-name="uacute" unicode="&#xfa;" horiz-adv-x="567" 
d="M45 188q0 -21 4 -40.5t11 -38t17.5 -34t24 -29.5t29.5 -24.5t35 -18t39.5 -11.5t43.5 -4q42 0 78.5 15t63.5 43v-46h131v517h-131v-303q0 -49 -30 -80t-78 -31t-77.5 31.5t-29.5 79.5v303h-131v-329zM308 717l-109 -132h124l129 132h-144z" />
    <glyph glyph-name="ucircumflex" unicode="&#xfb;" horiz-adv-x="567" 
d="M45 188q0 -21 4 -40.5t11 -38t17.5 -34t24 -29.5t29.5 -24.5t35 -18t39.5 -11.5t43.5 -4q42 0 78.5 15t63.5 43v-46h131v517h-131v-303q0 -49 -30 -80t-78 -31t-77.5 31.5t-29.5 79.5v303h-131v-329zM216 585l68 70l68 -70h110l-113 132h-128l-114 -132h109z" />
    <glyph glyph-name="udieresis" unicode="&#xfc;" horiz-adv-x="567" 
d="M45 188q0 -21 4 -40.5t11 -38t17.5 -34t24 -29.5t29.5 -24.5t35 -18t39.5 -11.5t43.5 -4q42 0 78.5 15t63.5 43v-46h131v517h-131v-303q0 -49 -30 -80t-78 -31t-77.5 31.5t-29.5 79.5v303h-131v-329zM182 575q30 0 50 20.5t20 51.5q0 30 -20 50t-50 20t-51 -20t-21 -50
q0 -31 21 -51.5t51 -20.5zM386 575q30 0 50.5 20.5t20.5 51.5q0 30 -20.5 50t-50.5 20t-50.5 -20t-20.5 -50q0 -31 20.5 -51.5t50.5 -20.5z" />
    <glyph glyph-name="yacute" unicode="&#xfd;" horiz-adv-x="551" 
d="M191 -48q-12 -30 -28 -41t-43 -11h-50v-110h77q59 0 95.5 25t61.5 88l252 614h-136l-141 -349l-143 349h-141l220 -507zM303 717l-109 -132h124l129 132h-144z" />
    <glyph glyph-name="thorn" unicode="&#xfe;" horiz-adv-x="645" 
d="M45 700v-910h131v258q34 -28 76.5 -44.5t89.5 -16.5q26 0 50 4.5t47 12.5t43 20t38 27t33.5 33t27.5 38t20 42t12.5 46t4.5 49t-4.5 48.5t-12.5 46t-20 42.5t-27.5 38t-33.5 33t-38 27t-43 20t-47 12.5t-50 4.5q-47 0 -90 -16.5t-77 -45.5v231h-130zM174 259
q0 65 46 111.5t111 46.5q64 0 110.5 -46.5t46.5 -111.5q0 -66 -46.5 -111.5t-110.5 -45.5q-65 0 -111 45.5t-46 111.5z" />
    <glyph glyph-name="ydieresis" unicode="&#xff;" horiz-adv-x="551" 
d="M191 -48q-12 -30 -28 -41t-43 -11h-50v-110h77q59 0 95.5 25t61.5 88l252 614h-136l-141 -349l-143 349h-141l220 -507zM177 575q30 0 50 20.5t20 51.5q0 30 -20 50t-50 20t-51 -20t-21 -50q0 -31 21 -51.5t51 -20.5zM381 575q30 0 50.5 20.5t20.5 51.5q0 30 -20.5 50
t-50.5 20t-50.5 -20t-20.5 -50q0 -31 20.5 -51.5t50.5 -20.5z" />
    <glyph glyph-name="Amacron" unicode="&#x100;" horiz-adv-x="716" 
d="M426 700h-136l-295 -700h140l69 171h304l69 -171h144zM250 288l106 262l105 -262h-211zM491 868h-267v-85h267v85z" />
    <glyph glyph-name="amacron" unicode="&#x101;" horiz-adv-x="545" 
d="M22 145q0 -68 51 -113t128 -45q51 0 93 20t69 54q13 -28 41 -44.5t65 -16.5h61v113h-27q-14 0 -21.5 8t-7.5 22v203q0 82 -56.5 132t-149.5 50q-59 0 -111 -18t-97 -51l55 -93q34 23 68 34.5t69 11.5q46 0 70.5 -22t24.5 -60v-20l-152 -11q-82 -6 -127.5 -45.5
t-45.5 -108.5zM147 146q0 25 16.5 39t49.5 17l134 12v-33q0 -39 -34 -66.5t-83 -27.5q-37 0 -60 16t-23 43zM397 685h-267v-85h267v85z" />
    <glyph glyph-name="Abreve" unicode="&#x102;" horiz-adv-x="716" 
d="M426 700h-136l-295 -700h140l69 171h304l69 -171h144zM250 288l106 262l105 -262h-211zM358 839q-25 0 -48 13.5t-37 54.5l-85 -25q16 -58 64 -90t106 -32t106 32t64 90l-85 25q-13 -41 -37.5 -54.5t-47.5 -13.5z" />
    <glyph glyph-name="abreve" unicode="&#x103;" horiz-adv-x="545" 
d="M22 145q0 -68 51 -113t128 -45q51 0 93 20t69 54q13 -28 41 -44.5t65 -16.5h61v113h-27q-14 0 -21.5 8t-7.5 22v203q0 82 -56.5 132t-149.5 50q-59 0 -111 -18t-97 -51l55 -93q34 23 68 34.5t69 11.5q46 0 70.5 -22t24.5 -60v-20l-152 -11q-82 -6 -127.5 -45.5
t-45.5 -108.5zM147 146q0 25 16.5 39t49.5 17l134 12v-33q0 -39 -34 -66.5t-83 -27.5q-37 0 -60 16t-23 43zM264 656q-25 0 -48 13.5t-37 54.5l-85 -25q16 -58 64 -90t106 -32t106 32t64 90l-85 25q-13 -41 -37.5 -54.5t-47.5 -13.5z" />
    <glyph glyph-name="Aogonek" unicode="&#x104;" horiz-adv-x="716" 
d="M721 0l-295 700h-136l-295 -700h140l69 171h304l69 -171h66q-46 -34 -62.5 -66t-16.5 -64q0 -38 27.5 -64.5t79.5 -26.5q19 0 37.5 4t31.5 10l-13 64q-10 -4 -20 -6t-20 -2q-20 0 -32.5 11.5t-12.5 33.5q0 21 14.5 47.5t64.5 58.5zM250 288l106 262l105 -262h-211z" />
    <glyph glyph-name="aogonek" unicode="&#x105;" horiz-adv-x="545" 
d="M22 145q0 -68 51 -113t128 -45q51 0 93 20t69 54q12 -25 35.5 -41t54.5 -19q-47 -34 -63.5 -66.5t-16.5 -64.5q0 -38 27.5 -64.5t79.5 -26.5q19 0 37.5 4t31.5 10l-13 64q-10 -4 -20 -6t-20 -2q-20 0 -32.5 11.5t-12.5 33.5q0 21 14.5 47.5t64.5 58.5v113h-27
q-14 0 -21.5 8t-7.5 22v203q0 82 -56.5 132t-149.5 50q-59 0 -111 -18t-97 -51l55 -93q34 23 68 34.5t69 11.5q46 0 70.5 -22t24.5 -60v-20l-152 -11q-82 -6 -127.5 -45.5t-45.5 -108.5zM147 146q0 25 16.5 39t49.5 17l134 12v-33q0 -39 -34 -66.5t-83 -27.5q-37 0 -60 16
t-23 43z" />
    <glyph glyph-name="Cacute" unicode="&#x106;" horiz-adv-x="718" 
d="M30 351q0 -31 4.5 -60t13.5 -56.5t21.5 -52.5t29.5 -47.5t36.5 -42.5t43 -36t49.5 -29t54.5 -22t59.5 -13.5t64 -4.5q96 0 174 42t127 109l-105 77q-32 -49 -84.5 -76.5t-112.5 -27.5q-25 0 -48 4.5t-44.5 13t-40.5 20.5t-35 28t-29 35t-22 41t-14 46.5t-5 51.5t4.5 51
t13.5 46t22 41t29 35t35 28t40.5 20.5t45 13t48.5 4.5q56 0 108 -28.5t86 -76.5l105 77q-51 67 -129 109t-172 42q-32 0 -62.5 -4.5t-59 -13.5t-54.5 -22t-49 -29.5t-42.5 -36.5t-36 -42.5t-29.5 -47.5t-22 -52t-13.5 -55.5t-4.5 -58.5zM425 900l-109 -132h124l129 132h-144
z" />
    <glyph glyph-name="cacute" unicode="&#x107;" horiz-adv-x="543" 
d="M157 259q0 65 45.5 110.5t108.5 45.5q41 0 74.5 -18t55.5 -49l93 68q-39 51 -93.5 82.5t-129.5 31.5q-27 0 -52 -4.5t-48.5 -12.5t-44.5 -20t-39.5 -27t-34 -32.5t-27.5 -37.5t-20.5 -42t-13 -46t-4.5 -49t4.5 -49t13 -46t20.5 -42t27.5 -38t34 -33t39.5 -27t44.5 -20
t48.5 -12.5t52 -4.5q75 0 129.5 31.5t93.5 82.5l-93 68q-22 -31 -55.5 -49t-74.5 -18q-63 0 -108.5 46t-45.5 111zM332 717l-109 -132h124l129 132h-144z" />
    <glyph glyph-name="Ccircumflex" unicode="&#x108;" horiz-adv-x="718" 
d="M30 351q0 -31 4.5 -60t13.5 -56.5t21.5 -52.5t29.5 -47.5t36.5 -42.5t43 -36t49.5 -29t54.5 -22t59.5 -13.5t64 -4.5q96 0 174 42t127 109l-105 77q-32 -49 -84.5 -76.5t-112.5 -27.5q-25 0 -48 4.5t-44.5 13t-40.5 20.5t-35 28t-29 35t-22 41t-14 46.5t-5 51.5t4.5 51
t13.5 46t22 41t29 35t35 28t40.5 20.5t45 13t48.5 4.5q56 0 108 -28.5t86 -76.5l105 77q-51 67 -129 109t-172 42q-32 0 -62.5 -4.5t-59 -13.5t-54.5 -22t-49 -29.5t-42.5 -36.5t-36 -42.5t-29.5 -47.5t-22 -52t-13.5 -55.5t-4.5 -58.5zM333 768l68 70l68 -70h110l-113 132
h-128l-114 -132h109z" />
    <glyph glyph-name="ccircumflex" unicode="&#x109;" horiz-adv-x="543" 
d="M157 259q0 65 45.5 110.5t108.5 45.5q41 0 74.5 -18t55.5 -49l93 68q-39 51 -93.5 82.5t-129.5 31.5q-27 0 -52 -4.5t-48.5 -12.5t-44.5 -20t-39.5 -27t-34 -32.5t-27.5 -37.5t-20.5 -42t-13 -46t-4.5 -49t4.5 -49t13 -46t20.5 -42t27.5 -38t34 -33t39.5 -27t44.5 -20
t48.5 -12.5t52 -4.5q75 0 129.5 31.5t93.5 82.5l-93 68q-22 -31 -55.5 -49t-74.5 -18q-63 0 -108.5 46t-45.5 111zM240 585l68 70l68 -70h110l-113 132h-128l-114 -132h109z" />
    <glyph glyph-name="Cdotaccent" unicode="&#x10a;" horiz-adv-x="718" 
d="M30 351q0 -31 4.5 -60t13.5 -56.5t21.5 -52.5t29.5 -47.5t36.5 -42.5t43 -36t49.5 -29t54.5 -22t59.5 -13.5t64 -4.5q96 0 174 42t127 109l-105 77q-32 -49 -84.5 -76.5t-112.5 -27.5q-25 0 -48 4.5t-44.5 13t-40.5 20.5t-35 28t-29 35t-22 41t-14 46.5t-5 51.5t4.5 51
t13.5 46t22 41t29 35t35 28t40.5 20.5t45 13t48.5 4.5q56 0 108 -28.5t86 -76.5l105 77q-51 67 -129 109t-172 42q-32 0 -62.5 -4.5t-59 -13.5t-54.5 -22t-49 -29.5t-42.5 -36.5t-36 -42.5t-29.5 -47.5t-22 -52t-13.5 -55.5t-4.5 -58.5zM401 758q30 0 50.5 20.5t20.5 51.5
q0 30 -20.5 50t-50.5 20t-50.5 -20t-20.5 -50q0 -31 20.5 -51.5t50.5 -20.5z" />
    <glyph glyph-name="cdotaccent" unicode="&#x10b;" horiz-adv-x="543" 
d="M157 259q0 65 45.5 110.5t108.5 45.5q41 0 74.5 -18t55.5 -49l93 68q-39 51 -93.5 82.5t-129.5 31.5q-27 0 -52 -4.5t-48.5 -12.5t-44.5 -20t-39.5 -27t-34 -32.5t-27.5 -37.5t-20.5 -42t-13 -46t-4.5 -49t4.5 -49t13 -46t20.5 -42t27.5 -38t34 -33t39.5 -27t44.5 -20
t48.5 -12.5t52 -4.5q75 0 129.5 31.5t93.5 82.5l-93 68q-22 -31 -55.5 -49t-74.5 -18q-63 0 -108.5 46t-45.5 111zM308 575q30 0 50.5 20.5t20.5 51.5q0 30 -20.5 50t-50.5 20t-50.5 -20t-20.5 -50q0 -31 20.5 -51.5t50.5 -20.5z" />
    <glyph glyph-name="Ccaron" unicode="&#x10c;" horiz-adv-x="718" 
d="M30 351q0 -31 4.5 -60t13.5 -56.5t21.5 -52.5t29.5 -47.5t36.5 -42.5t43 -36t49.5 -29t54.5 -22t59.5 -13.5t64 -4.5q96 0 174 42t127 109l-105 77q-32 -49 -84.5 -76.5t-112.5 -27.5q-25 0 -48 4.5t-44.5 13t-40.5 20.5t-35 28t-29 35t-22 41t-14 46.5t-5 51.5t4.5 51
t13.5 46t22 41t29 35t35 28t40.5 20.5t45 13t48.5 4.5q56 0 108 -28.5t86 -76.5l105 77q-51 67 -129 109t-172 42q-32 0 -62.5 -4.5t-59 -13.5t-54.5 -22t-49 -29.5t-42.5 -36.5t-36 -42.5t-29.5 -47.5t-22 -52t-13.5 -55.5t-4.5 -58.5zM470 900l-68 -71l-68 71h-110
l118 -132h119l118 132h-109z" />
    <glyph glyph-name="ccaron" unicode="&#x10d;" horiz-adv-x="543" 
d="M157 259q0 65 45.5 110.5t108.5 45.5q41 0 74.5 -18t55.5 -49l93 68q-39 51 -93.5 82.5t-129.5 31.5q-27 0 -52 -4.5t-48.5 -12.5t-44.5 -20t-39.5 -27t-34 -32.5t-27.5 -37.5t-20.5 -42t-13 -46t-4.5 -49t4.5 -49t13 -46t20.5 -42t27.5 -38t34 -33t39.5 -27t44.5 -20
t48.5 -12.5t52 -4.5q75 0 129.5 31.5t93.5 82.5l-93 68q-22 -31 -55.5 -49t-74.5 -18q-63 0 -108.5 46t-45.5 111zM377 717l-68 -71l-68 71h-110l118 -132h119l118 132h-109z" />
    <glyph glyph-name="Dcaron" unicode="&#x10e;" horiz-adv-x="720" 
d="M690 350q0 29 -4.5 57t-13.5 54.5t-22 50.5t-29.5 46t-36 40.5t-42 34.5t-48 28.5t-52.5 21t-56 13t-59 4.5h-277v-700h277q30 0 59 4.5t56 13t52.5 21t48 28.5t42 34.5t36 40.5t29.5 46t22 50.5t13.5 54.5t4.5 57zM313 582q22 0 43.5 -3.5t41 -10.5t37 -17t33 -22.5
t29 -27.5t23.5 -32.5t17 -36.5t11 -39.5t4 -42.5t-4 -42.5t-11 -39.5t-17 -36t-23.5 -32t-29 -28t-33 -23t-37 -17t-41 -10.5t-43.5 -3.5h-128v464h128zM431 900l-68 -71l-68 71h-110l118 -132h119l118 132h-109z" />
    <glyph glyph-name="dcaron" unicode="&#x10f;" horiz-adv-x="800" 
d="M600 0v700h-131v-231q-34 28 -76.5 44.5t-89.5 16.5q-26 0 -50 -4.5t-47 -12.5t-43 -20t-38 -27t-33.5 -33t-27.5 -38t-20 -42t-12.5 -46t-4.5 -49t4.5 -48.5t12.5 -46t20 -42.5t27.5 -38t33.5 -33t38 -27t43 -20t47 -12.5t50 -4.5q47 0 90 16.5t77 45.5v-48h130z
M471 258q0 -65 -46 -111.5t-111 -46.5q-64 0 -110.5 46.5t-46.5 111.5q0 66 46.5 111.5t110.5 45.5q65 0 111 -45.5t46 -111.5zM656 475h97l43 225h-122z" />
    <glyph glyph-name="Dcroat" unicode="&#x110;" horiz-adv-x="749" 
d="M5 293h74v-293h277q30 0 59 4.5t56 13t52 21t48 28.5t42.5 34.5t36 40.5t29.5 46t22 50.5t13.5 54.5t4.5 57t-4.5 57t-13.5 54.5t-22 50.5t-29.5 46t-36 40.5t-42.5 34.5t-48 28.5t-52 21t-56 13t-59 4.5h-277v-293h-74v-114zM342 582q22 0 43.5 -3.5t41 -10.5t37 -17
t33 -22.5t29 -27.5t23.5 -32.5t17 -36.5t11 -39.5t4 -42.5t-4 -42.5t-11 -39.5t-17 -36t-23.5 -32t-29 -28t-33 -23t-37 -17t-41 -10.5t-43.5 -3.5h-128v175h153v114h-153v175h128z" />
    <glyph glyph-name="dcroat" unicode="&#x111;" horiz-adv-x="646" 
d="M600 0v568h51v86h-51v46h-131v-46h-126v-86h126v-99q-34 28 -76.5 44.5t-89.5 16.5q-26 0 -50 -4.5t-47 -12.5t-43 -20t-38 -27t-33.5 -33t-27.5 -38t-20 -42t-12.5 -46t-4.5 -49t4.5 -48.5t12.5 -46t20 -42.5t27.5 -38t33.5 -33t38 -27t43 -20t47 -12.5t50 -4.5
q47 0 90 16.5t77 45.5v-48h130zM471 258q0 -65 -46 -111.5t-111 -46.5q-64 0 -110.5 46.5t-46.5 111.5q0 66 46.5 111.5t110.5 45.5q65 0 111 -45.5t46 -111.5z" />
    <glyph glyph-name="Emacron" unicode="&#x112;" horiz-adv-x="527" 
d="M50 0h441v118h-306v176h296v115h-296v173h306v118h-441v-700zM411 868h-267v-85h267v85z" />
    <glyph glyph-name="emacron" unicode="&#x113;" horiz-adv-x="588" 
d="M27 259q0 -26 4.5 -51t12.5 -47.5t20 -42.5t27.5 -37.5t33.5 -32t39 -26t44 -19.5t48 -12t51 -4q72 0 129.5 29.5t96.5 82.5l-91 68q-28 -37 -61.5 -52.5t-74.5 -15.5q-54 0 -93 33t-52 83h399v38q0 30 -5 58t-14.5 53t-23.5 47t-31.5 40.5t-38.5 33t-45 24.5t-51 15
t-56 5q-25 0 -49 -4.5t-46.5 -13t-42 -20.5t-37 -27t-32 -33t-26 -38t-19.5 -42t-12 -45t-4 -47zM292 417q47 0 84.5 -27t51.5 -75h-265q13 47 48 74.5t81 27.5zM429 685h-267v-85h267v85z" />
    <glyph glyph-name="Ebreve" unicode="&#x114;" horiz-adv-x="527" 
d="M50 0h441v118h-306v176h296v115h-296v173h306v118h-441v-700zM278 839q-25 0 -48 13.5t-37 54.5l-85 -25q16 -58 64 -90t106 -32t106 32t64 90l-85 25q-13 -41 -37.5 -54.5t-47.5 -13.5z" />
    <glyph glyph-name="ebreve" unicode="&#x115;" horiz-adv-x="588" 
d="M27 259q0 -26 4.5 -51t12.5 -47.5t20 -42.5t27.5 -37.5t33.5 -32t39 -26t44 -19.5t48 -12t51 -4q72 0 129.5 29.5t96.5 82.5l-91 68q-28 -37 -61.5 -52.5t-74.5 -15.5q-54 0 -93 33t-52 83h399v38q0 30 -5 58t-14.5 53t-23.5 47t-31.5 40.5t-38.5 33t-45 24.5t-51 15
t-56 5q-25 0 -49 -4.5t-46.5 -13t-42 -20.5t-37 -27t-32 -33t-26 -38t-19.5 -42t-12 -45t-4 -47zM292 417q47 0 84.5 -27t51.5 -75h-265q13 47 48 74.5t81 27.5zM296 656q-25 0 -48 13.5t-37 54.5l-85 -25q16 -58 64 -90t106 -32t106 32t64 90l-85 25q-13 -41 -37.5 -54.5
t-47.5 -13.5z" />
    <glyph glyph-name="Edotaccent" unicode="&#x116;" horiz-adv-x="527" 
d="M50 0h441v118h-306v176h296v115h-296v173h306v118h-441v-700zM278 758q30 0 50.5 20.5t20.5 51.5q0 30 -20.5 50t-50.5 20t-50.5 -20t-20.5 -50q0 -31 20.5 -51.5t50.5 -20.5z" />
    <glyph glyph-name="edotaccent" unicode="&#x117;" horiz-adv-x="588" 
d="M27 259q0 -26 4.5 -51t12.5 -47.5t20 -42.5t27.5 -37.5t33.5 -32t39 -26t44 -19.5t48 -12t51 -4q72 0 129.5 29.5t96.5 82.5l-91 68q-28 -37 -61.5 -52.5t-74.5 -15.5q-54 0 -93 33t-52 83h399v38q0 30 -5 58t-14.5 53t-23.5 47t-31.5 40.5t-38.5 33t-45 24.5t-51 15
t-56 5q-25 0 -49 -4.5t-46.5 -13t-42 -20.5t-37 -27t-32 -33t-26 -38t-19.5 -42t-12 -45t-4 -47zM292 417q47 0 84.5 -27t51.5 -75h-265q13 47 48 74.5t81 27.5zM296 575q30 0 50.5 20.5t20.5 51.5q0 30 -20.5 50t-50.5 20t-50.5 -20t-20.5 -50q0 -31 20.5 -51.5t50.5 -20.5
z" />
    <glyph glyph-name="Eogonek" unicode="&#x118;" horiz-adv-x="527" 
d="M50 0h363q-46 -34 -62.5 -66t-16.5 -64q0 -38 27.5 -64.5t79.5 -26.5q19 0 37.5 4t31.5 10l-13 64q-10 -4 -20 -6t-20 -2q-20 0 -32.5 11.5t-12.5 33.5q0 21 14.5 47.5t64.5 58.5v118h-306v176h296v115h-296v173h306v118h-441v-700z" />
    <glyph glyph-name="eogonek" unicode="&#x119;" horiz-adv-x="588" 
d="M27 259q0 -26 4.5 -50.5t12.5 -46.5t19.5 -42t26.5 -37.5t33 -32t38 -26t42.5 -20t47 -13t50.5 -4.5q-37 -31 -50 -59.5t-13 -57.5q0 -38 27.5 -64.5t79.5 -26.5q19 0 37.5 4t31.5 10l-13 64q-10 -4 -20 -6t-20 -2q-20 0 -32.5 11.5t-12.5 33.5q0 21 14.5 47.5t63.5 57.5
q43 13 78 38.5t61 61.5l-91 68q-28 -37 -61.5 -52.5t-74.5 -15.5q-54 0 -93 33t-52 83h399v38q0 30 -5 58t-14.5 53t-23.5 47t-31.5 40.5t-38.5 33t-45 24.5t-51 15t-56 5q-25 0 -49 -4.5t-46.5 -13t-42 -20.5t-37 -27t-32 -33t-26 -38t-19.5 -42t-12 -45t-4 -47zM292 417
q47 0 84.5 -27t51.5 -75h-265q13 47 48 74.5t81 27.5z" />
    <glyph glyph-name="Ecaron" unicode="&#x11a;" horiz-adv-x="527" 
d="M50 0h441v118h-306v176h296v115h-296v173h306v118h-441v-700zM347 900l-68 -71l-68 71h-110l118 -132h119l118 132h-109z" />
    <glyph glyph-name="ecaron" unicode="&#x11b;" horiz-adv-x="588" 
d="M27 259q0 -26 4.5 -51t12.5 -47.5t20 -42.5t27.5 -37.5t33.5 -32t39 -26t44 -19.5t48 -12t51 -4q72 0 129.5 29.5t96.5 82.5l-91 68q-28 -37 -61.5 -52.5t-74.5 -15.5q-54 0 -93 33t-52 83h399v38q0 30 -5 58t-14.5 53t-23.5 47t-31.5 40.5t-38.5 33t-45 24.5t-51 15
t-56 5q-25 0 -49 -4.5t-46.5 -13t-42 -20.5t-37 -27t-32 -33t-26 -38t-19.5 -42t-12 -45t-4 -47zM292 417q47 0 84.5 -27t51.5 -75h-265q13 47 48 74.5t81 27.5zM365 717l-68 -71l-68 71h-110l118 -132h119l118 132h-109z" />
    <glyph glyph-name="Gcircumflex" unicode="&#x11c;" horiz-adv-x="776" 
d="M30 351q0 -31 4.5 -60t13 -56.5t20.5 -52.5t28 -47.5t35 -42.5t40.5 -36t46.5 -29t52 -22t56.5 -13.5t60.5 -4.5q59 0 115 22.5t99 69.5v-79h130v388h-363v-116h233q-2 -15 -7 -30.5t-12.5 -29.5t-17.5 -27.5t-22.5 -25t-27.5 -20.5t-33 -16t-38.5 -10.5t-43.5 -3.5
q-24 0 -46.5 4.5t-43.5 13t-39.5 21t-34.5 28.5t-28.5 35t-21.5 41t-13.5 47t-4.5 52q0 28 4.5 52.5t13.5 46.5t21.5 41t28 34.5t34 27.5t38.5 20.5t42 12.5t45 4q63 0 117 -28.5t88 -76.5l105 77q-51 67 -130 109t-178 42q-31 0 -61 -4.5t-57.5 -13.5t-52.5 -21.5
t-48 -28.5t-42.5 -35.5t-36 -42t-29 -47.5t-21.5 -52.5t-13.5 -56.5t-4.5 -60zM336 768l68 70l68 -70h110l-113 132h-128l-114 -132h109z" />
    <glyph glyph-name="gcircumflex" unicode="&#x11d;" horiz-adv-x="637" 
d="M592 517h-130v-45q-34 28 -75.5 43.5t-87.5 15.5q-25 0 -49 -4.5t-46 -12.5t-42 -19.5t-38 -26t-33 -32t-27 -37.5t-20 -42t-12.5 -45.5t-4.5 -48.5t4.5 -48.5t12.5 -45.5t20 -42t27 -37.5t32.5 -32t38 -26t42.5 -19.5t46 -12.5t49 -4.5q46 0 87 15.5t75 42.5v-63
q0 -43 -24 -66.5t-70 -23.5h-115v-110h145q88 0 141.5 52.5t53.5 137.5v537zM157 263q0 63 45 108.5t108 45.5t108 -45t45 -109q0 -63 -44.5 -108t-108.5 -45q-63 0 -108 45t-45 108zM245 585l68 70l68 -70h110l-113 132h-128l-114 -132h109z" />
    <glyph glyph-name="Gbreve" unicode="&#x11e;" horiz-adv-x="776" 
d="M30 351q0 -31 4.5 -60t13 -56.5t20.5 -52.5t28 -47.5t35 -42.5t40.5 -36t46.5 -29t52 -22t56.5 -13.5t60.5 -4.5q59 0 115 22.5t99 69.5v-79h130v388h-363v-116h233q-2 -15 -7 -30.5t-12.5 -29.5t-17.5 -27.5t-22.5 -25t-27.5 -20.5t-33 -16t-38.5 -10.5t-43.5 -3.5
q-24 0 -46.5 4.5t-43.5 13t-39.5 21t-34.5 28.5t-28.5 35t-21.5 41t-13.5 47t-4.5 52q0 28 4.5 52.5t13.5 46.5t21.5 41t28 34.5t34 27.5t38.5 20.5t42 12.5t45 4q63 0 117 -28.5t88 -76.5l105 77q-51 67 -130 109t-178 42q-31 0 -61 -4.5t-57.5 -13.5t-52.5 -21.5
t-48 -28.5t-42.5 -35.5t-36 -42t-29 -47.5t-21.5 -52.5t-13.5 -56.5t-4.5 -60zM404 839q-25 0 -48 13.5t-37 54.5l-85 -25q16 -58 64 -90t106 -32t106 32t64 90l-85 25q-13 -41 -37.5 -54.5t-47.5 -13.5z" />
    <glyph glyph-name="gbreve" unicode="&#x11f;" horiz-adv-x="637" 
d="M592 517h-130v-45q-34 28 -75.5 43.5t-87.5 15.5q-25 0 -49 -4.5t-46 -12.5t-42 -19.5t-38 -26t-33 -32t-27 -37.5t-20 -42t-12.5 -45.5t-4.5 -48.5t4.5 -48.5t12.5 -45.5t20 -42t27 -37.5t32.5 -32t38 -26t42.5 -19.5t46 -12.5t49 -4.5q46 0 87 15.5t75 42.5v-63
q0 -43 -24 -66.5t-70 -23.5h-115v-110h145q88 0 141.5 52.5t53.5 137.5v537zM157 263q0 63 45 108.5t108 45.5t108 -45t45 -109q0 -63 -44.5 -108t-108.5 -45q-63 0 -108 45t-45 108zM313 656q-25 0 -48 13.5t-37 54.5l-85 -25q16 -58 64 -90t106 -32t106 32t64 90l-85 25
q-13 -41 -37.5 -54.5t-47.5 -13.5z" />
    <glyph glyph-name="Gdotaccent" unicode="&#x120;" horiz-adv-x="776" 
d="M30 351q0 -31 4.5 -60t13 -56.5t20.5 -52.5t28 -47.5t35 -42.5t40.5 -36t46.5 -29t52 -22t56.5 -13.5t60.5 -4.5q59 0 115 22.5t99 69.5v-79h130v388h-363v-116h233q-2 -15 -7 -30.5t-12.5 -29.5t-17.5 -27.5t-22.5 -25t-27.5 -20.5t-33 -16t-38.5 -10.5t-43.5 -3.5
q-24 0 -46.5 4.5t-43.5 13t-39.5 21t-34.5 28.5t-28.5 35t-21.5 41t-13.5 47t-4.5 52q0 28 4.5 52.5t13.5 46.5t21.5 41t28 34.5t34 27.5t38.5 20.5t42 12.5t45 4q63 0 117 -28.5t88 -76.5l105 77q-51 67 -130 109t-178 42q-31 0 -61 -4.5t-57.5 -13.5t-52.5 -21.5
t-48 -28.5t-42.5 -35.5t-36 -42t-29 -47.5t-21.5 -52.5t-13.5 -56.5t-4.5 -60zM404 758q30 0 50.5 20.5t20.5 51.5q0 30 -20.5 50t-50.5 20t-50.5 -20t-20.5 -50q0 -31 20.5 -51.5t50.5 -20.5z" />
    <glyph glyph-name="gdotaccent" unicode="&#x121;" horiz-adv-x="637" 
d="M592 517h-130v-45q-34 28 -75.5 43.5t-87.5 15.5q-25 0 -49 -4.5t-46 -12.5t-42 -19.5t-38 -26t-33 -32t-27 -37.5t-20 -42t-12.5 -45.5t-4.5 -48.5t4.5 -48.5t12.5 -45.5t20 -42t27 -37.5t32.5 -32t38 -26t42.5 -19.5t46 -12.5t49 -4.5q46 0 87 15.5t75 42.5v-63
q0 -43 -24 -66.5t-70 -23.5h-115v-110h145q88 0 141.5 52.5t53.5 137.5v537zM157 263q0 63 45 108.5t108 45.5t108 -45t45 -109q0 -63 -44.5 -108t-108.5 -45q-63 0 -108 45t-45 108zM313 575q30 0 50.5 20.5t20.5 51.5q0 30 -20.5 50t-50.5 20t-50.5 -20t-20.5 -50
q0 -31 20.5 -51.5t50.5 -20.5z" />
    <glyph glyph-name="uni0122" unicode="&#x122;" horiz-adv-x="776" 
d="M30 351q0 -31 4.5 -60t13 -56.5t20.5 -52.5t28 -47.5t35 -42.5t40.5 -36t46.5 -29t52 -22t56.5 -13.5t60.5 -4.5q59 0 115 22.5t99 69.5v-79h130v388h-363v-116h233q-2 -15 -7 -30.5t-12.5 -29.5t-17.5 -27.5t-22.5 -25t-27.5 -20.5t-33 -16t-38.5 -10.5t-43.5 -3.5
q-24 0 -46.5 4.5t-43.5 13t-39.5 21t-34.5 28.5t-28.5 35t-21.5 41t-13.5 47t-4.5 52q0 28 4.5 52.5t13.5 46.5t21.5 41t28 34.5t34 27.5t38.5 20.5t42 12.5t45 4q63 0 117 -28.5t88 -76.5l105 77q-51 67 -130 109t-178 42q-31 0 -61 -4.5t-57.5 -13.5t-52.5 -21.5
t-48 -28.5t-42.5 -35.5t-36 -42t-29 -47.5t-21.5 -52.5t-13.5 -56.5t-4.5 -60zM337 -224v-48q54 4 88.5 41.5t34.5 86.5q0 40 -18.5 63t-48.5 23q-24 0 -41 -16.5t-17 -37.5q0 -8 1.5 -14t4.5 -11t6.5 -9t8 -7.5t8.5 -6.5t8.5 -5.5t8 -4.5t6.5 -4.5t4.5 -5.5t1.5 -6
q0 -12 -16 -24t-40 -14z" />
    <glyph glyph-name="uni0123" unicode="&#x123;" horiz-adv-x="637" 
d="M364 745v48q-54 -4 -88.5 -41.5t-34.5 -86.5q0 -40 18.5 -63t48.5 -23q24 0 41 16.5t17 37.5q0 8 -1.5 14t-4.5 11t-6.5 9t-8 7.5t-8.5 6.5t-8.5 5.5t-8 4.5t-6.5 4.5t-4.5 5.5t-1.5 6q0 12 16 24t40 14zM592 517h-130v-45q-34 28 -75.5 43.5t-87.5 15.5q-25 0 -49 -4.5
t-46 -12.5t-42 -19.5t-38 -26t-33 -32t-27 -37.5t-20 -42t-12.5 -45.5t-4.5 -48.5t4.5 -48.5t12.5 -45.5t20 -42t27 -37.5t32.5 -32t38 -26t42.5 -19.5t46 -12.5t49 -4.5q46 0 87 15.5t75 42.5v-63q0 -43 -24 -66.5t-70 -23.5h-115v-110h145q88 0 141.5 52.5t53.5 137.5v537
zM157 263q0 63 45 108.5t108 45.5t108 -45t45 -109q0 -63 -44.5 -108t-108.5 -45q-63 0 -108 45t-45 108z" />
    <glyph glyph-name="Hcircumflex" unicode="&#x124;" horiz-adv-x="675" 
d="M185 0v292h307v-292h135v700h-135v-290h-307v290h-135v-700h135zM270 768l68 70l68 -70h110l-113 132h-128l-114 -132h109z" />
    <glyph glyph-name="hcircumflex" unicode="&#x125;" horiz-adv-x="567" 
d="M176 303q0 51 30.5 81t77.5 30q48 0 77.5 -30.5t29.5 -80.5v-303h131v329q0 21 -3.5 41t-11 38t-18 34.5t-23.5 30t-29 24.5t-34.5 18.5t-39.5 11.5t-43 4q-43 0 -80 -15.5t-64 -43.5v228h-131v-700h131v303zM42 768l68 70l68 -70h110l-113 132h-128l-114 -132h109z" />
    <glyph glyph-name="Hbar" unicode="&#x126;" horiz-adv-x="715" 
d="M204 0v292h307v-292h135v501h64v105h-64v94h-135v-94h-307v94h-135v-94h-64v-105h64v-501h135zM204 410v91h307v-91h-307z" />
    <glyph glyph-name="hbar" unicode="&#x127;" horiz-adv-x="568" 
d="M302 568v86h-125v46h-131v-46h-51v-86h51v-568h131v303q0 51 30.5 81t77.5 30q48 0 77.5 -30.5t29.5 -80.5v-303h131v329q0 21 -3.5 41t-11 38t-18 34.5t-23.5 30t-29 24.5t-34.5 18.5t-39 11.5t-43.5 4q-43 0 -80 -15.5t-64 -43.5v96h125z" />
    <glyph glyph-name="Itilde" unicode="&#x128;" horiz-adv-x="234" 
d="M185 0v700h-135v-700h135zM49 890q-39 0 -66 -27.5t-40 -85.5l82 -17q6 27 15 36.5t20 9.5q5 0 11.5 -2t13.5 -5t15 -6.5t16.5 -7.5t17 -7.5t17.5 -6.5t17.5 -5t16.5 -2q39 0 66 27.5t40 84.5l-82 18q-6 -27 -15 -36.5t-19 -9.5q-5 0 -11.5 2t-14 5t-15.5 6.5t-16 7.5
t-17 7.5t-17.5 6.5t-17.5 5t-17 2z" />
    <glyph glyph-name="itilde" unicode="&#x129;" 
d="M176 517h-131v-517h131v517zM42 707q-39 0 -66 -27.5t-40 -85.5l82 -17q6 27 15 36.5t20 9.5q5 0 11.5 -2t13.5 -5t15 -6.5t16.5 -7.5t17 -7.5t17.5 -6.5t17.5 -5t16.5 -2q39 0 66 27.5t40 84.5l-82 18q-6 -27 -15 -36.5t-19 -9.5q-5 0 -11.5 2t-14 5t-15.5 6.5t-16 7.5
t-17 7.5t-17.5 6.5t-17.5 5t-17 2z" />
    <glyph glyph-name="Imacron" unicode="&#x12a;" horiz-adv-x="234" 
d="M185 0v700h-135v-700h135zM251 868h-267v-85h267v85z" />
    <glyph glyph-name="imacron" unicode="&#x12b;" 
d="M176 517h-131v-517h131v517zM244 685h-267v-85h267v85z" />
    <glyph glyph-name="Ibreve" unicode="&#x12c;" horiz-adv-x="234" 
d="M185 0v700h-135v-700h135zM118 839q-25 0 -48 13.5t-37 54.5l-85 -25q16 -58 64 -90t106 -32t106 32t64 90l-85 25q-13 -41 -37.5 -54.5t-47.5 -13.5z" />
    <glyph glyph-name="ibreve" unicode="&#x12d;" 
d="M176 517h-131v-517h131v517zM111 656q-25 0 -48 13.5t-37 54.5l-85 -25q16 -58 64 -90t106 -32t106 32t64 90l-85 25q-13 -41 -37.5 -54.5t-47.5 -13.5z" />
    <glyph glyph-name="Iogonek" unicode="&#x12e;" horiz-adv-x="234" 
d="M184 0h1v700h-135v-700h56q-46 -34 -62.5 -66t-16.5 -64q0 -38 27.5 -64.5t79.5 -26.5q19 0 37.5 4t31.5 10l-13 64q-10 -4 -20 -6t-20 -2q-20 0 -32.5 11.5t-12.5 33.5q0 21 14.5 47.5t64.5 58.5z" />
    <glyph glyph-name="iogonek" unicode="&#x12f;" 
d="M111 572q31 0 51.5 21t20.5 52t-20.5 51.5t-51.5 20.5t-52.5 -20.5t-21.5 -51.5t21.5 -52t52.5 -21zM176 0v517h-131v-517h53q-46 -34 -62.5 -66t-16.5 -64q0 -38 27.5 -64.5t79.5 -26.5q19 0 37.5 4t31.5 10l-13 64q-10 -4 -20 -6t-20 -2q-20 0 -32.5 11.5t-12.5 33.5
q0 21 14.5 47.5t64.5 58.5z" />
    <glyph glyph-name="Idotaccent" unicode="&#x130;" horiz-adv-x="234" 
d="M185 0v700h-135v-700h135zM118 758q30 0 50.5 20.5t20.5 51.5q0 30 -20.5 50t-50.5 20t-50.5 -20t-20.5 -50q0 -31 20.5 -51.5t50.5 -20.5z" />
    <glyph glyph-name="dotlessi" unicode="&#x131;" 
d="M176 517h-131v-517h131v517z" />
    <glyph glyph-name="IJ" unicode="&#x132;" horiz-adv-x="735" 
d="M185 0v700h-135v-700h135zM235 57q35 -34 87 -53t114 -19q28 0 53.5 4.5t48.5 13.5t43.5 21.5t37 29t30 36t22.5 41.5t14 47t5 52v470h-135v-446q0 -65 -35.5 -106t-91.5 -41q-31 0 -61.5 12.5t-52.5 34.5z" />
    <glyph glyph-name="ij" unicode="&#x133;" horiz-adv-x="442" 
d="M111 572q31 0 51.5 21t20.5 52t-20.5 51.5t-51.5 20.5t-52.5 -20.5t-21.5 -51.5t21.5 -52t52.5 -21zM176 517h-131v-517h131v517zM332 572q31 0 51.5 21t20.5 52t-20.5 51.5t-51.5 20.5t-52.5 -20.5t-21.5 -51.5t21.5 -52t52.5 -21zM260 -210q63 0 100 39.5t37 90.5v597
h-131v-575q0 -20 -10.5 -30t-28.5 -10h-31v-112h64z" />
    <glyph glyph-name="Jcircumflex" unicode="&#x134;" horiz-adv-x="501" 
d="M1 57q35 -34 87 -53t114 -19q28 0 53.5 4.5t48.5 13.5t43.5 21.5t37 29t30 36t22.5 41.5t14 47t5 52v470h-135v-446q0 -65 -35.5 -106t-91.5 -41q-31 0 -61.5 12.5t-52.5 34.5zM321 768l68 70l68 -70h110l-113 132h-128l-114 -132h109z" />
    <glyph glyph-name="jcircumflex" unicode="&#x135;" 
d="M39 -210q63 0 100 39.5t37 90.5v597h-131v-575q0 -20 -10.5 -30t-28.5 -10h-31v-112h64zM43 585l68 70l68 -70h110l-113 132h-128l-114 -132h109z" />
    <glyph glyph-name="uni0136" unicode="&#x136;" horiz-adv-x="625" 
d="M50 700v-700h135v293l272 -293h180l-335 354l327 346h-169l-275 -297v297h-135zM257 -224v-48q54 4 88.5 41.5t34.5 86.5q0 40 -18.5 63t-48.5 23q-24 0 -41 -16.5t-17 -37.5q0 -8 1.5 -14t4.5 -11t6.5 -9t8 -7.5t8.5 -6.5t8.5 -5.5t8 -4.5t6.5 -4.5t4.5 -5.5t1.5 -6
q0 -12 -16 -24t-40 -14z" />
    <glyph glyph-name="uni0137" unicode="&#x137;" horiz-adv-x="510" 
d="M45 700v-700h131v231l185 -231h160l-224 268l209 249h-150l-180 -223v406h-131zM204 -224v-48q54 4 88.5 41.5t34.5 86.5q0 40 -18.5 63t-48.5 23q-24 0 -41 -16.5t-17 -37.5q0 -8 1.5 -14t4.5 -11t6.5 -9t8 -7.5t8.5 -6.5t8.5 -5.5t8 -4.5t6.5 -4.5t4.5 -5.5t1.5 -6
q0 -12 -16 -24t-40 -14z" />
    <glyph glyph-name="kgreenlandic" unicode="&#x138;" horiz-adv-x="510" 
d="M45 517v-517h131v231l185 -231h160l-224 268l209 249h-150l-180 -223v223h-131z" />
    <glyph glyph-name="Lacute" unicode="&#x139;" horiz-adv-x="517" 
d="M491 118h-306v582h-135v-700h441v118zM139 900l-109 -132h124l129 132h-144z" />
    <glyph glyph-name="lacute" unicode="&#x13a;" 
d="M176 0v700h-131v-700h131zM135 900l-109 -132h124l129 132h-144z" />
    <glyph glyph-name="uni013B" unicode="&#x13b;" horiz-adv-x="517" 
d="M491 118h-306v582h-135v-700h441v118zM218 -224v-48q54 4 88.5 41.5t34.5 86.5q0 40 -18.5 63t-48.5 23q-24 0 -41 -16.5t-17 -37.5q0 -8 1.5 -14t4.5 -11t6.5 -9t8 -7.5t8.5 -6.5t8.5 -5.5t8 -4.5t6.5 -4.5t4.5 -5.5t1.5 -6q0 -12 -16 -24t-40 -14z" />
    <glyph glyph-name="uni013C" unicode="&#x13c;" 
d="M176 0v700h-131v-700h131zM51 -224v-48q54 4 88.5 41.5t34.5 86.5q0 40 -18.5 63t-48.5 23q-24 0 -41 -16.5t-17 -37.5q0 -8 1.5 -14t4.5 -11t6.5 -9t8 -7.5t8.5 -6.5t8.5 -5.5t8 -4.5t6.5 -4.5t4.5 -5.5t1.5 -6q0 -12 -16 -24t-40 -14z" />
    <glyph glyph-name="Lcaron" unicode="&#x13d;" horiz-adv-x="522" 
d="M491 118h-306v582h-135v-700h441v118zM320 475h97l43 225h-122z" />
    <glyph glyph-name="lcaron" unicode="&#x13e;" horiz-adv-x="377" 
d="M176 0v700h-131v-700h131zM232 475h97l43 225h-122z" />
    <glyph glyph-name="Ldot" unicode="&#x13f;" horiz-adv-x="522" 
d="M491 118h-306v582h-135v-700h441v118zM367 291q30 0 50.5 20.5t20.5 51.5q0 30 -20.5 50t-50.5 20t-50.5 -20t-20.5 -50q0 -31 20.5 -51.5t50.5 -20.5z" />
    <glyph glyph-name="ldot" unicode="&#x140;" horiz-adv-x="374" 
d="M176 0v700h-131v-700h131zM289 266q30 0 50.5 20.5t20.5 51.5q0 30 -20.5 50t-50.5 20t-50.5 -20t-20.5 -50q0 -31 20.5 -51.5t50.5 -20.5z" />
    <glyph glyph-name="Lslash" unicode="&#x141;" horiz-adv-x="542" 
d="M5 156l70 53v-209h441v118h-306v193l138 105v114l-138 -105v275h-135v-377l-70 -53v-114z" />
    <glyph glyph-name="lslash" unicode="&#x142;" horiz-adv-x="290" 
d="M10 168l60 53v-221h131v338l75 67v114l-75 -67v248h-131v-365l-60 -54v-113z" />
    <glyph glyph-name="Nacute" unicode="&#x143;" horiz-adv-x="726" 
d="M175 0l-1 515l354 -515h148v700h-125l1 -515l-354 515h-148v-700h125zM387 900l-109 -132h124l129 132h-144z" />
    <glyph glyph-name="nacute" unicode="&#x144;" horiz-adv-x="567" 
d="M522 329q0 21 -4 41t-11 38t-17.5 34.5t-24 30t-29.5 24.5t-35 18.5t-39.5 11.5t-43.5 4q-42 0 -78.5 -15t-63.5 -43v44h-131v-517h131v303q0 51 30.5 81t77.5 30q48 0 77.5 -30.5t29.5 -80.5v-303h131v329zM308 717l-109 -132h124l129 132h-144z" />
    <glyph glyph-name="uni0145" unicode="&#x145;" horiz-adv-x="726" 
d="M175 0l-1 515l354 -515h148v700h-125l1 -515l-354 515h-148v-700h125zM303 -224v-48q54 4 88.5 41.5t34.5 86.5q0 40 -18.5 63t-48.5 23q-24 0 -41 -16.5t-17 -37.5q0 -8 1.5 -14t4.5 -11t6.5 -9t8 -7.5t8.5 -6.5t8.5 -5.5t8 -4.5t6.5 -4.5t4.5 -5.5t1.5 -6
q0 -12 -16 -24t-40 -14z" />
    <glyph glyph-name="uni0146" unicode="&#x146;" horiz-adv-x="567" 
d="M522 329q0 21 -4 41t-11 38t-17.5 34.5t-24 30t-29.5 24.5t-35 18.5t-39.5 11.5t-43.5 4q-42 0 -78.5 -15t-63.5 -43v44h-131v-517h131v303q0 51 30.5 81t77.5 30q48 0 77.5 -30.5t29.5 -80.5v-303h131v329zM224 -224v-48q54 4 88.5 41.5t34.5 86.5q0 40 -18.5 63
t-48.5 23q-24 0 -41 -16.5t-17 -37.5q0 -8 1.5 -14t4.5 -11t6.5 -9t8 -7.5t8.5 -6.5t8.5 -5.5t8 -4.5t6.5 -4.5t4.5 -5.5t1.5 -6q0 -12 -16 -24t-40 -14z" />
    <glyph glyph-name="Ncaron" unicode="&#x147;" horiz-adv-x="726" 
d="M175 0l-1 515l354 -515h148v700h-125l1 -515l-354 515h-148v-700h125zM432 900l-68 -71l-68 71h-110l118 -132h119l118 132h-109z" />
    <glyph glyph-name="ncaron" unicode="&#x148;" horiz-adv-x="567" 
d="M522 329q0 21 -4 41t-11 38t-17.5 34.5t-24 30t-29.5 24.5t-35 18.5t-39.5 11.5t-43.5 4q-42 0 -78.5 -15t-63.5 -43v44h-131v-517h131v303q0 51 30.5 81t77.5 30q48 0 77.5 -30.5t29.5 -80.5v-303h131v329zM353 717l-68 -71l-68 71h-110l118 -132h119l118 132h-109z" />
    <glyph glyph-name="Eng" unicode="&#x14a;" horiz-adv-x="726" 
d="M676 -95v795h-125v-495l-353 495h-148v-700h125v514l375 -529v-53q0 -20 -12 -30t-31 -10h-31v-112h68q64 0 98 37t34 88z" />
    <glyph glyph-name="eng" unicode="&#x14b;" horiz-adv-x="567" 
d="M385 -210q63 0 100 39.5t37 90.5v409q0 21 -4 41t-11 38t-17.5 34.5t-24 30t-29.5 24.5t-35 18.5t-39.5 11.5t-43.5 4q-42 0 -78.5 -15t-63.5 -43v44h-131v-517h131v303q0 51 30.5 81t77.5 30q48 0 77.5 -30.5t29.5 -80.5v-361q0 -20 -10.5 -30t-28.5 -10h-31v-112h64z
" />
    <glyph glyph-name="Omacron" unicode="&#x14c;" horiz-adv-x="805" 
d="M30 350q0 -30 4.5 -59t14 -56t22.5 -52.5t30 -48t37 -42t43 -36t49 -29.5t54 -22t58 -13.5t61 -4.5t61 4.5t58 13.5t53.5 22t48.5 29.5t43 36t37 42.5t30 48t22.5 52t14 56t4.5 59t-4.5 59t-14 56t-22.5 52t-30 48t-37 42.5t-43 36t-48.5 29.5t-53.5 22t-58 13.5t-61 4.5
t-61 -4.5t-58 -13.5t-54 -22t-49 -29.5t-43 -36t-37 -42.5t-30 -48t-22.5 -52t-14 -56t-4.5 -59zM168 350q0 22 3.5 43.5t11 41t17.5 37.5t23 33.5t28 28.5t32.5 23t37 17.5t40 11t42.5 3.5t42.5 -3.5t40 -11t36.5 -17.5t32.5 -23t28 -28.5t23 -33.5t17.5 -37.5t10.5 -40.5
t3.5 -44t-3.5 -44t-10.5 -41t-17.5 -37.5t-23 -33t-28 -28.5t-32.5 -23t-36.5 -17.5t-40 -11t-42.5 -3.5t-42.5 3.5t-40 11t-37 17.5t-32.5 23t-28 28.5t-23 33t-17.5 37.5t-11 41t-3.5 44zM536 868h-267v-85h267v85z" />
    <glyph glyph-name="omacron" unicode="&#x14d;" horiz-adv-x="622" 
d="M595 258q0 25 -4.5 49t-13 46t-21 42.5t-28 38t-34.5 32.5t-40 27t-44 20t-48 12.5t-51 4.5q-23 0 -45.5 -3.5t-44 -10.5t-41 -16.5t-37 -22t-33 -27.5t-28.5 -31.5t-23 -35.5t-17.5 -39t-11 -42t-3.5 -44t3.5 -44t11 -42t17.5 -39t23 -35.5t28.5 -31.5t33 -27.5t37 -22
t41 -16.5t44 -10.5t45.5 -3.5q26 0 51 4.5t48 12.5t44 20t40 27t34.5 33t28 38t21 42t13 46t4.5 49zM465 258q0 -65 -45 -110.5t-109 -45.5q-63 0 -108.5 45.5t-45.5 110.5t45.5 110.5t108.5 45.5q64 0 109 -45.5t45 -110.5zM444 685h-267v-85h267v85z" />
    <glyph glyph-name="Obreve" unicode="&#x14e;" horiz-adv-x="805" 
d="M30 350q0 -30 4.5 -59t14 -56t22.5 -52.5t30 -48t37 -42t43 -36t49 -29.5t54 -22t58 -13.5t61 -4.5t61 4.5t58 13.5t53.5 22t48.5 29.5t43 36t37 42.5t30 48t22.5 52t14 56t4.5 59t-4.5 59t-14 56t-22.5 52t-30 48t-37 42.5t-43 36t-48.5 29.5t-53.5 22t-58 13.5t-61 4.5
t-61 -4.5t-58 -13.5t-54 -22t-49 -29.5t-43 -36t-37 -42.5t-30 -48t-22.5 -52t-14 -56t-4.5 -59zM168 350q0 22 3.5 43.5t11 41t17.5 37.5t23 33.5t28 28.5t32.5 23t37 17.5t40 11t42.5 3.5t42.5 -3.5t40 -11t36.5 -17.5t32.5 -23t28 -28.5t23 -33.5t17.5 -37.5t10.5 -40.5
t3.5 -44t-3.5 -44t-10.5 -41t-17.5 -37.5t-23 -33t-28 -28.5t-32.5 -23t-36.5 -17.5t-40 -11t-42.5 -3.5t-42.5 3.5t-40 11t-37 17.5t-32.5 23t-28 28.5t-23 33t-17.5 37.5t-11 41t-3.5 44zM403 839q-25 0 -48 13.5t-37 54.5l-85 -25q16 -58 64 -90t106 -32t106 32t64 90
l-85 25q-13 -41 -37.5 -54.5t-47.5 -13.5z" />
    <glyph glyph-name="obreve" unicode="&#x14f;" horiz-adv-x="622" 
d="M595 258q0 25 -4.5 49t-13 46t-21 42.5t-28 38t-34.5 32.5t-40 27t-44 20t-48 12.5t-51 4.5q-23 0 -45.5 -3.5t-44 -10.5t-41 -16.5t-37 -22t-33 -27.5t-28.5 -31.5t-23 -35.5t-17.5 -39t-11 -42t-3.5 -44t3.5 -44t11 -42t17.5 -39t23 -35.5t28.5 -31.5t33 -27.5t37 -22
t41 -16.5t44 -10.5t45.5 -3.5q26 0 51 4.5t48 12.5t44 20t40 27t34.5 33t28 38t21 42t13 46t4.5 49zM465 258q0 -65 -45 -110.5t-109 -45.5q-63 0 -108.5 45.5t-45.5 110.5t45.5 110.5t108.5 45.5q64 0 109 -45.5t45 -110.5zM311 656q-25 0 -48 13.5t-37 54.5l-85 -25
q16 -58 64 -90t106 -32t106 32t64 90l-85 25q-13 -41 -37.5 -54.5t-47.5 -13.5z" />
    <glyph glyph-name="Ohungarumlaut" unicode="&#x150;" horiz-adv-x="805" 
d="M30 350q0 -30 4.5 -59t14 -56t22.5 -52.5t30 -48t37 -42t43 -36t49 -29.5t54 -22t58 -13.5t61 -4.5t61 4.5t58 13.5t53.5 22t48.5 29.5t43 36t37 42.5t30 48t22.5 52t14 56t4.5 59t-4.5 59t-14 56t-22.5 52t-30 48t-37 42.5t-43 36t-48.5 29.5t-53.5 22t-58 13.5t-61 4.5
t-61 -4.5t-58 -13.5t-54 -22t-49 -29.5t-43 -36t-37 -42.5t-30 -48t-22.5 -52t-14 -56t-4.5 -59zM168 350q0 22 3.5 43.5t11 41t17.5 37.5t23 33.5t28 28.5t32.5 23t37 17.5t40 11t42.5 3.5t42.5 -3.5t40 -11t36.5 -17.5t32.5 -23t28 -28.5t23 -33.5t17.5 -37.5t10.5 -40.5
t3.5 -44t-3.5 -44t-10.5 -41t-17.5 -37.5t-23 -33t-28 -28.5t-32.5 -23t-36.5 -17.5t-40 -11t-42.5 -3.5t-42.5 3.5t-40 11t-37 17.5t-32.5 23t-28 28.5t-23 33t-17.5 37.5t-11 41t-3.5 44zM325 900l-107 -132h112l123 132h-128zM523 900l-107 -132h112l123 132h-128z" />
    <glyph glyph-name="ohungarumlaut" unicode="&#x151;" horiz-adv-x="622" 
d="M595 258q0 25 -4.5 49t-13 46t-21 42.5t-28 38t-34.5 32.5t-40 27t-44 20t-48 12.5t-51 4.5q-23 0 -45.5 -3.5t-44 -10.5t-41 -16.5t-37 -22t-33 -27.5t-28.5 -31.5t-23 -35.5t-17.5 -39t-11 -42t-3.5 -44t3.5 -44t11 -42t17.5 -39t23 -35.5t28.5 -31.5t33 -27.5t37 -22
t41 -16.5t44 -10.5t45.5 -3.5q26 0 51 4.5t48 12.5t44 20t40 27t34.5 33t28 38t21 42t13 46t4.5 49zM465 258q0 -65 -45 -110.5t-109 -45.5q-63 0 -108.5 45.5t-45.5 110.5t45.5 110.5t108.5 45.5q64 0 109 -45.5t45 -110.5zM233 717l-107 -132h112l123 132h-128zM431 717
l-107 -132h112l123 132h-128z" />
    <glyph glyph-name="OE" unicode="&#x152;" horiz-adv-x="992" 
d="M30 350q0 -29 4.5 -57t13.5 -54.5t22 -50.5t29.5 -46t36 -40.5t42.5 -34.5t48 -28.5t52 -21t56 -13t59 -4.5h563v118h-307v176h297v115h-297v173h307v118h-563q-30 0 -59 -4.5t-56 -13t-52.5 -21t-48 -28.5t-42 -34.5t-36 -40.5t-29.5 -46t-22 -50.5t-13.5 -54.5
t-4.5 -57zM407 118q-22 0 -43.5 3.5t-41 10.5t-37 17t-33 22.5t-29 27.5t-23.5 32.5t-17 36.5t-11 39.5t-4 42.5t4 42.5t11 39.5t17 36t23.5 32t29 28t33 23t37 17t41 10.5t43.5 3.5h107v-464h-107z" />
    <glyph glyph-name="oe" unicode="&#x153;" horiz-adv-x="1028" 
d="M747 -13q72 0 129.5 29.5t96.5 82.5l-91 68q-28 -37 -61.5 -52.5t-74.5 -15.5q-54 0 -93 33t-52 83h399v38q0 30 -5 58t-14.5 53t-23.5 47t-31.5 40.5t-38.5 33t-45 24.5t-51 15t-56 5q-63 0 -116.5 -27t-89.5 -72q-38 46 -95 73t-123 27q-23 0 -45.5 -3.5t-44 -10.5
t-41 -16.5t-37 -22t-33 -27t-28.5 -31.5t-23 -35.5t-17.5 -39t-11 -42t-3.5 -43.5q0 -23 3.5 -44.5t11 -42t17.5 -39t23 -35.5t28.5 -32t33 -27.5t37 -22t41 -16.5t44 -10.5t45.5 -3.5q66 0 122.5 27.5t95.5 73.5q37 -46 94 -73t124 -27zM732 417q47 0 84.5 -27t51.5 -75
h-265q13 47 48 74.5t81 27.5zM466 259q0 -66 -45.5 -111.5t-109.5 -45.5q-63 0 -108.5 45.5t-45.5 111.5q0 64 45.5 109.5t108.5 45.5q64 0 109.5 -45.5t45.5 -109.5z" />
    <glyph glyph-name="Racute" unicode="&#x154;" horiz-adv-x="596" 
d="M185 0v286h98l159 -286h152l-174 303q56 23 92 74t36 114q0 22 -4 42.5t-12.5 39.5t-19.5 35.5t-25.5 31t-31.5 25.5t-36.5 19t-40.5 12t-43 4h-285v-700h135zM313 582q45 0 72 -26t27 -65t-27 -65.5t-72 -26.5h-128v183h128zM322 900l-109 -132h124l129 132h-144z" />
    <glyph glyph-name="racute" unicode="&#x155;" horiz-adv-x="352" 
d="M333 402v120h-35q-42 0 -73 -16.5t-50 -44.5v56h-130v-517h131v278q0 59 32 91.5t78 32.5h47zM237 717l-109 -132h124l129 132h-144z" />
    <glyph glyph-name="uni0156" unicode="&#x156;" horiz-adv-x="596" 
d="M185 0v286h98l159 -286h152l-174 303q56 23 92 74t36 114q0 22 -4 42.5t-12.5 39.5t-19.5 35.5t-25.5 31t-31.5 25.5t-36.5 19t-40.5 12t-43 4h-285v-700h135zM313 582q45 0 72 -26t27 -65t-27 -65.5t-72 -26.5h-128v183h128zM252 -224v-48q54 4 88.5 41.5t34.5 86.5
q0 40 -18.5 63t-48.5 23q-24 0 -41 -16.5t-17 -37.5q0 -8 1.5 -14t4.5 -11t6.5 -9t8 -7.5t8.5 -6.5t8.5 -5.5t8 -4.5t6.5 -4.5t4.5 -5.5t1.5 -6q0 -12 -16 -24t-40 -14z" />
    <glyph glyph-name="uni0157" unicode="&#x157;" horiz-adv-x="352" 
d="M333 402v120h-35q-42 0 -73 -16.5t-50 -44.5v56h-130v-517h131v278q0 59 32 91.5t78 32.5h47zM54 -224v-48q54 4 88.5 41.5t34.5 86.5q0 40 -18.5 63t-48.5 23q-24 0 -41 -16.5t-17 -37.5q0 -8 1.5 -14t4.5 -11t6.5 -9t8 -7.5t8.5 -6.5t8.5 -5.5t8 -4.5t6.5 -4.5
t4.5 -5.5t1.5 -6q0 -12 -16 -24t-40 -14z" />
    <glyph glyph-name="Rcaron" unicode="&#x158;" horiz-adv-x="596" 
d="M185 0v286h98l159 -286h152l-174 303q56 23 92 74t36 114q0 22 -4 42.5t-12.5 39.5t-19.5 35.5t-25.5 31t-31.5 25.5t-36.5 19t-40.5 12t-43 4h-285v-700h135zM313 582q45 0 72 -26t27 -65t-27 -65.5t-72 -26.5h-128v183h128zM367 900l-68 -71l-68 71h-110l118 -132h119
l118 132h-109z" />
    <glyph glyph-name="rcaron" unicode="&#x159;" horiz-adv-x="352" 
d="M333 402v120h-35q-42 0 -73 -16.5t-50 -44.5v56h-130v-517h131v278q0 59 32 91.5t78 32.5h47zM282 717l-68 -71l-68 71h-110l118 -132h119l118 132h-109z" />
    <glyph glyph-name="Sacute" unicode="&#x15a;" horiz-adv-x="582" 
d="M23 217q2 -25 9 -48.5t18 -44.5t25.5 -39t33 -33.5t40 -27t46 -20t51 -12.5t55.5 -4t55 4t49.5 12t43.5 19t36.5 25.5t29 31t21.5 35.5t13.5 40t4.5 43q0 78 -44.5 126t-142.5 73l-118 31q-40 10 -63 30.5t-23 54.5q0 41 30.5 64t76.5 23q56 0 90 -30.5t45 -81.5h132
q-14 99 -86 161.5t-180 62.5q-26 0 -50 -4t-45.5 -11t-41 -17.5t-36 -24.5t-29 -30.5t-22 -35.5t-14 -40.5t-4.5 -45.5q0 -78 46.5 -127t139.5 -73l119 -30q40 -10 63 -32.5t23 -53.5q0 -37 -30 -62t-88 -25q-64 0 -102.5 31.5t-45.5 85.5h-131zM310 900l-109 -132h124
l129 132h-144z" />
    <glyph glyph-name="sacute" unicode="&#x15b;" horiz-adv-x="474" 
d="M254 -12q93 0 147 47.5t54 116.5q0 57 -35.5 95t-106.5 55l-99 24q-31 7 -46.5 21t-15.5 34t16.5 34t47.5 14q32 0 63.5 -18t41.5 -58h123q-11 74 -69.5 125.5t-157.5 51.5q-83 0 -138 -44.5t-55 -118.5q0 -59 36.5 -97t108.5 -55l107 -25q26 -7 39 -19.5t13 -28.5
q0 -23 -19 -38t-55 -15q-42 0 -73.5 17.5t-41.5 56.5h-124q15 -74 76.5 -124.5t162.5 -50.5zM249 717l-109 -132h124l129 132h-144z" />
    <glyph glyph-name="Scircumflex" unicode="&#x15c;" horiz-adv-x="582" 
d="M23 217q2 -25 9 -48.5t18 -44.5t25.5 -39t33 -33.5t40 -27t46 -20t51 -12.5t55.5 -4t55 4t49.5 12t43.5 19t36.5 25.5t29 31t21.5 35.5t13.5 40t4.5 43q0 78 -44.5 126t-142.5 73l-118 31q-40 10 -63 30.5t-23 54.5q0 41 30.5 64t76.5 23q56 0 90 -30.5t45 -81.5h132
q-14 99 -86 161.5t-180 62.5q-26 0 -50 -4t-45.5 -11t-41 -17.5t-36 -24.5t-29 -30.5t-22 -35.5t-14 -40.5t-4.5 -45.5q0 -78 46.5 -127t139.5 -73l119 -30q40 -10 63 -32.5t23 -53.5q0 -37 -30 -62t-88 -25q-64 0 -102.5 31.5t-45.5 85.5h-131zM218 768l68 70l68 -70h110
l-113 132h-128l-114 -132h109z" />
    <glyph glyph-name="scircumflex" unicode="&#x15d;" horiz-adv-x="474" 
d="M254 -12q93 0 147 47.5t54 116.5q0 57 -35.5 95t-106.5 55l-99 24q-31 7 -46.5 21t-15.5 34t16.5 34t47.5 14q32 0 63.5 -18t41.5 -58h123q-11 74 -69.5 125.5t-157.5 51.5q-83 0 -138 -44.5t-55 -118.5q0 -59 36.5 -97t108.5 -55l107 -25q26 -7 39 -19.5t13 -28.5
q0 -23 -19 -38t-55 -15q-42 0 -73.5 17.5t-41.5 56.5h-124q15 -74 76.5 -124.5t162.5 -50.5zM157 585l68 70l68 -70h110l-113 132h-128l-114 -132h109z" />
    <glyph glyph-name="uni015E" unicode="&#x15e;" horiz-adv-x="582" 
d="M23 217q7 -92 72.5 -153.5t164.5 -73.5l-27 -82h43q20 0 33.5 -10t13.5 -26q0 -14 -12 -25t-33 -11q-18 0 -33.5 7.5t-28.5 22.5l-52 -43q18 -24 49.5 -37.5t70.5 -13.5q49 0 83.5 28.5t34.5 70.5q0 34 -23 57t-62 28l12 33q103 7 164 66t61 143q0 78 -44.5 126
t-142.5 73l-118 31q-40 10 -63 30.5t-23 54.5q0 41 30.5 64t76.5 23q56 0 90 -30.5t45 -81.5h132q-14 99 -86 161.5t-180 62.5q-26 0 -50 -4t-45.5 -11t-41 -17.5t-36 -24.5t-29 -30.5t-22 -35.5t-14 -40.5t-4.5 -45.5q0 -78 46.5 -127t139.5 -73l119 -30q40 -10 63 -32.5
t23 -53.5q0 -37 -30 -62t-88 -25q-64 0 -102.5 31.5t-45.5 85.5h-131z" />
    <glyph glyph-name="uni015F" unicode="&#x15f;" horiz-adv-x="474" 
d="M347 -129q0 34 -23 57t-62 28l11 33q85 5 133.5 51t48.5 112q0 57 -35.5 95t-106.5 55l-99 24q-31 7 -46.5 21t-15.5 34t16.5 34t47.5 14q32 0 63.5 -18t41.5 -58h123q-11 74 -69.5 125.5t-157.5 51.5q-83 0 -138 -44.5t-55 -118.5q0 -59 36.5 -97t108.5 -55l107 -25
q26 -7 39 -19.5t13 -28.5q0 -23 -19 -38t-55 -15q-42 0 -73.5 17.5t-41.5 56.5h-124q13 -64 61.5 -111.5t128.5 -59.5l-27 -84h43q20 0 33.5 -10t13.5 -26q0 -14 -12 -25t-33 -11q-18 0 -33.5 7.5t-28.5 22.5l-52 -43q18 -24 49.5 -37.5t70.5 -13.5q49 0 83.5 28.5
t34.5 70.5z" />
    <glyph glyph-name="Scaron" unicode="&#x160;" horiz-adv-x="582" 
d="M23 217q2 -25 9 -48.5t18 -44.5t25.5 -39t33 -33.5t40 -27t46 -20t51 -12.5t55.5 -4t55 4t49.5 12t43.5 19t36.5 25.5t29 31t21.5 35.5t13.5 40t4.5 43q0 78 -44.5 126t-142.5 73l-118 31q-40 10 -63 30.5t-23 54.5q0 41 30.5 64t76.5 23q56 0 90 -30.5t45 -81.5h132
q-14 99 -86 161.5t-180 62.5q-26 0 -50 -4t-45.5 -11t-41 -17.5t-36 -24.5t-29 -30.5t-22 -35.5t-14 -40.5t-4.5 -45.5q0 -78 46.5 -127t139.5 -73l119 -30q40 -10 63 -32.5t23 -53.5q0 -37 -30 -62t-88 -25q-64 0 -102.5 31.5t-45.5 85.5h-131zM355 900l-68 -71l-68 71
h-110l118 -132h119l118 132h-109z" />
    <glyph glyph-name="scaron" unicode="&#x161;" horiz-adv-x="474" 
d="M254 -12q93 0 147 47.5t54 116.5q0 57 -35.5 95t-106.5 55l-99 24q-31 7 -46.5 21t-15.5 34t16.5 34t47.5 14q32 0 63.5 -18t41.5 -58h123q-11 74 -69.5 125.5t-157.5 51.5q-83 0 -138 -44.5t-55 -118.5q0 -59 36.5 -97t108.5 -55l107 -25q26 -7 39 -19.5t13 -28.5
q0 -23 -19 -38t-55 -15q-42 0 -73.5 17.5t-41.5 56.5h-124q15 -74 76.5 -124.5t162.5 -50.5zM294 717l-68 -71l-68 71h-110l118 -132h119l118 132h-109z" />
    <glyph glyph-name="uni0162" unicode="&#x162;" horiz-adv-x="586" 
d="M399 -129q0 34 -23 57t-62 28l16 44h30v582h216v118h-566v-118h215v-582h35l-30 -92h43q20 0 33.5 -10t13.5 -26q0 -14 -12 -25t-33 -11q-18 0 -33.5 7.5t-28.5 22.5l-52 -43q18 -24 49.5 -37.5t70.5 -13.5q49 0 83.5 28.5t34.5 70.5z" />
    <glyph glyph-name="uni0163" unicode="&#x163;" horiz-adv-x="366" 
d="M10 404h101v-274q0 -46 25.5 -80.5t74.5 -45.5l-31 -96h43q20 0 33.5 -10t13.5 -26q0 -14 -12 -25t-33 -11q-18 0 -33.5 7.5t-28.5 22.5l-52 -43q18 -24 49.5 -37.5t70.5 -13.5q49 0 83.5 28.5t34.5 70.5q0 34 -23 57t-62 28l16 44h75v113h-65q-22 0 -35.5 10t-13.5 30
v251h114v113h-114v150h-130v-150h-101v-113z" />
    <glyph glyph-name="Tcaron" unicode="&#x164;" horiz-adv-x="586" 
d="M10 582h215v-582h135v582h216v118h-566v-118zM362 900l-68 -71l-68 71h-110l118 -132h119l118 132h-109z" />
    <glyph glyph-name="tcaron" unicode="&#x165;" horiz-adv-x="366" 
d="M253 0h102v113h-65q-22 0 -35.5 10t-13.5 30v251h114v113h-114v150h-130v-150h-101v-113h101v-274q0 -55 36 -92.5t106 -37.5zM296 577h97l43 225h-122z" />
    <glyph glyph-name="Tbar" unicode="&#x166;" horiz-adv-x="586" 
d="M486 278v114h-126v190h216v118h-566v-118h215v-190h-125v-114h125v-278h135v278h126z" />
    <glyph glyph-name="tbar" unicode="&#x167;" horiz-adv-x="366" 
d="M10 217h101v-87q0 -55 36 -92.5t106 -37.5h102v113h-65q-22 0 -35.5 10t-13.5 30v64h114v105h-114v82h114v113h-114v150h-130v-150h-101v-113h101v-82h-101v-105z" />
    <glyph glyph-name="Utilde" unicode="&#x168;" horiz-adv-x="674" 
d="M180 274v426h-135v-435q0 -31 5.5 -60t15.5 -54.5t24.5 -47.5t32.5 -40.5t40 -32.5t46.5 -24t52 -15t56.5 -5q49 0 93 17t79 47v-50h134v700h-135v-426q0 -75 -44 -121.5t-110 -46.5t-110.5 46t-44.5 122zM266 890q-39 0 -66 -27.5t-40 -85.5l82 -17q6 27 15 36.5t20 9.5
q5 0 11.5 -2t13.5 -5t15 -6.5t16.5 -7.5t17 -7.5t17.5 -6.5t17.5 -5t16.5 -2q39 0 66 27.5t40 84.5l-82 18q-6 -27 -15 -36.5t-19 -9.5q-5 0 -11.5 2t-14 5t-15.5 6.5t-16 7.5t-17 7.5t-17.5 6.5t-17.5 5t-17 2z" />
    <glyph glyph-name="utilde" unicode="&#x169;" horiz-adv-x="567" 
d="M45 188q0 -21 4 -40.5t11 -38t17.5 -34t24 -29.5t29.5 -24.5t35 -18t39.5 -11.5t43.5 -4q42 0 78.5 15t63.5 43v-46h131v517h-131v-303q0 -49 -30 -80t-78 -31t-77.5 31.5t-29.5 79.5v303h-131v-329zM215 707q-39 0 -66 -27.5t-40 -85.5l82 -17q6 27 15 36.5t20 9.5
q5 0 11.5 -2t13.5 -5t15 -6.5t16.5 -7.5t17 -7.5t17.5 -6.5t17.5 -5t16.5 -2q39 0 66 27.5t40 84.5l-82 18q-6 -27 -15 -36.5t-19 -9.5q-5 0 -11.5 2t-14 5t-15.5 6.5t-16 7.5t-17 7.5t-17.5 6.5t-17.5 5t-17 2z" />
    <glyph glyph-name="Umacron" unicode="&#x16a;" horiz-adv-x="674" 
d="M180 274v426h-135v-435q0 -31 5.5 -60t15.5 -54.5t24.5 -47.5t32.5 -40.5t40 -32.5t46.5 -24t52 -15t56.5 -5q49 0 93 17t79 47v-50h134v700h-135v-426q0 -75 -44 -121.5t-110 -46.5t-110.5 46t-44.5 122zM468 868h-267v-85h267v85z" />
    <glyph glyph-name="umacron" unicode="&#x16b;" horiz-adv-x="567" 
d="M45 188q0 -21 4 -40.5t11 -38t17.5 -34t24 -29.5t29.5 -24.5t35 -18t39.5 -11.5t43.5 -4q42 0 78.5 15t63.5 43v-46h131v517h-131v-303q0 -49 -30 -80t-78 -31t-77.5 31.5t-29.5 79.5v303h-131v-329zM417 685h-267v-85h267v85z" />
    <glyph glyph-name="Ubreve" unicode="&#x16c;" horiz-adv-x="674" 
d="M180 274v426h-135v-435q0 -31 5.5 -60t15.5 -54.5t24.5 -47.5t32.5 -40.5t40 -32.5t46.5 -24t52 -15t56.5 -5q49 0 93 17t79 47v-50h134v700h-135v-426q0 -75 -44 -121.5t-110 -46.5t-110.5 46t-44.5 122zM335 839q-25 0 -48 13.5t-37 54.5l-85 -25q16 -58 64 -90
t106 -32t106 32t64 90l-85 25q-13 -41 -37.5 -54.5t-47.5 -13.5z" />
    <glyph glyph-name="ubreve" unicode="&#x16d;" horiz-adv-x="567" 
d="M45 188q0 -21 4 -40.5t11 -38t17.5 -34t24 -29.5t29.5 -24.5t35 -18t39.5 -11.5t43.5 -4q42 0 78.5 15t63.5 43v-46h131v517h-131v-303q0 -49 -30 -80t-78 -31t-77.5 31.5t-29.5 79.5v303h-131v-329zM284 656q-25 0 -48 13.5t-37 54.5l-85 -25q16 -58 64 -90t106 -32
t106 32t64 90l-85 25q-13 -41 -37.5 -54.5t-47.5 -13.5z" />
    <glyph glyph-name="Uring" unicode="&#x16e;" horiz-adv-x="674" 
d="M180 274v426h-135v-435q0 -31 5.5 -60t15.5 -54.5t24.5 -47.5t32.5 -40.5t40 -32.5t46.5 -24t52 -15t56.5 -5q49 0 93 17t79 47v-50h134v700h-135v-426q0 -75 -44 -121.5t-110 -46.5t-110.5 46t-44.5 122zM335 750q48 0 81.5 33t33.5 80q0 46 -33.5 78.5t-81.5 32.5
t-81.5 -32.5t-33.5 -78.5q0 -48 33 -80.5t82 -32.5zM335 807q-23 0 -39 16.5t-16 39.5q0 22 16 37.5t39 15.5t39 -15.5t16 -37.5t-16 -39t-39 -17z" />
    <glyph glyph-name="uring" unicode="&#x16f;" horiz-adv-x="567" 
d="M45 188q0 -21 4 -40.5t11 -38t17.5 -34t24 -29.5t29.5 -24.5t35 -18t39.5 -11.5t43.5 -4q42 0 78.5 15t63.5 43v-46h131v517h-131v-303q0 -49 -30 -80t-78 -31t-77.5 31.5t-29.5 79.5v303h-131v-329zM284 567q48 0 81.5 33t33.5 80q0 46 -33.5 78.5t-81.5 32.5
t-81.5 -32.5t-33.5 -78.5q0 -48 33 -80.5t82 -32.5zM284 624q-23 0 -39 16.5t-16 39.5q0 22 16 37.5t39 15.5t39 -15.5t16 -37.5t-16 -39t-39 -17z" />
    <glyph glyph-name="Uhungarumlaut" unicode="&#x170;" horiz-adv-x="674" 
d="M180 274v426h-135v-435q0 -31 5.5 -60t15.5 -54.5t24.5 -47.5t32.5 -40.5t40 -32.5t46.5 -24t52 -15t56.5 -5q49 0 93 17t79 47v-50h134v700h-135v-426q0 -75 -44 -121.5t-110 -46.5t-110.5 46t-44.5 122zM257 900l-107 -132h112l123 132h-128zM455 900l-107 -132h112
l123 132h-128z" />
    <glyph glyph-name="uhungarumlaut" unicode="&#x171;" horiz-adv-x="567" 
d="M45 188q0 -21 4 -40.5t11 -38t17.5 -34t24 -29.5t29.5 -24.5t35 -18t39.5 -11.5t43.5 -4q42 0 78.5 15t63.5 43v-46h131v517h-131v-303q0 -49 -30 -80t-78 -31t-77.5 31.5t-29.5 79.5v303h-131v-329zM206 717l-107 -132h112l123 132h-128zM404 717l-107 -132h112l123 132
h-128z" />
    <glyph glyph-name="Uogonek" unicode="&#x172;" horiz-adv-x="674" 
d="M180 274v426h-135v-435q0 -31 5.5 -60t15.5 -54.5t24.5 -47.5t32.5 -40.5t40 -32.5t46.5 -24t52 -15t56.5 -5q49 0 93 17t79 47v-50h56q-46 -34 -62.5 -66t-16.5 -64q0 -38 27.5 -64.5t79.5 -26.5q19 0 37.5 4t31.5 10l-13 64q-10 -4 -20 -6t-20 -2q-20 0 -32.5 11.5
t-12.5 33.5q0 21 14.5 47.5t64.5 58.5v700h-135v-426q0 -75 -44 -121.5t-110 -46.5t-110.5 46t-44.5 122z" />
    <glyph glyph-name="uogonek" unicode="&#x173;" horiz-adv-x="567" 
d="M45 188q0 -21 4 -40.5t11 -38t17.5 -34t24 -29.5t29.5 -24.5t35 -18t39.5 -11.5t43.5 -4q42 0 78.5 15t63.5 43v-46h53q-46 -34 -62.5 -66t-16.5 -64q0 -38 27.5 -64.5t79.5 -26.5q19 0 37.5 4t31.5 10l-13 64q-10 -4 -20 -6t-20 -2q-20 0 -32.5 11.5t-12.5 33.5
q0 21 14.5 47.5t64.5 58.5v517h-131v-303q0 -49 -30 -80t-78 -31t-77.5 31.5t-29.5 79.5v303h-131v-329z" />
    <glyph glyph-name="Wcircumflex" unicode="&#x174;" horiz-adv-x="1015" 
d="M570 700h-120l-166 -506l-129 506h-145l199 -700h136l163 496l162 -496h136l199 700h-140l-129 -505zM439 768l68 70l68 -70h110l-113 132h-128l-114 -132h109z" />
    <glyph glyph-name="wcircumflex" unicode="&#x175;" horiz-adv-x="784" 
d="M341 517l-112 -326l-91 326h-138l157 -517h119l116 337l116 -337h119l157 517h-134l-91 -326l-112 326h-106zM324 585l68 70l68 -70h110l-113 132h-128l-114 -132h109z" />
    <glyph glyph-name="Ycircumflex" unicode="&#x176;" horiz-adv-x="674" 
d="M404 0v290l275 410h-160l-180 -281l-180 281h-164l274 -408v-292h135zM269 768l68 70l68 -70h110l-113 132h-128l-114 -132h109z" />
    <glyph glyph-name="ycircumflex" unicode="&#x177;" horiz-adv-x="551" 
d="M191 -48q-12 -30 -28 -41t-43 -11h-50v-110h77q59 0 95.5 25t61.5 88l252 614h-136l-141 -349l-143 349h-141l220 -507zM211 585l68 70l68 -70h110l-113 132h-128l-114 -132h109z" />
    <glyph glyph-name="Ydieresis" unicode="&#x178;" horiz-adv-x="674" 
d="M404 0v290l275 410h-160l-180 -281l-180 281h-164l274 -408v-292h135zM235 758q30 0 50 20.5t20 51.5q0 30 -20 50t-50 20t-51 -20t-21 -50q0 -31 21 -51.5t51 -20.5zM439 758q30 0 50.5 20.5t20.5 51.5q0 30 -20.5 50t-50.5 20t-50.5 -20t-20.5 -50q0 -31 20.5 -51.5
t50.5 -20.5z" />
    <glyph glyph-name="Zacute" unicode="&#x179;" horiz-adv-x="582" 
d="M40 582h339l-355 -494v-88h529v118h-355l354 492v90h-512v-118zM315 900l-109 -132h124l129 132h-144z" />
    <glyph glyph-name="zacute" unicode="&#x17a;" horiz-adv-x="474" 
d="M31 404h252l-257 -310v-94h423v113h-260l253 307v97h-411v-113zM262 717l-109 -132h124l129 132h-144z" />
    <glyph glyph-name="Zdotaccent" unicode="&#x17b;" horiz-adv-x="582" 
d="M40 582h339l-355 -494v-88h529v118h-355l354 492v90h-512v-118zM291 758q30 0 50.5 20.5t20.5 51.5q0 30 -20.5 50t-50.5 20t-50.5 -20t-20.5 -50q0 -31 20.5 -51.5t50.5 -20.5z" />
    <glyph glyph-name="zdotaccent" unicode="&#x17c;" horiz-adv-x="474" 
d="M31 404h252l-257 -310v-94h423v113h-260l253 307v97h-411v-113zM238 575q30 0 50.5 20.5t20.5 51.5q0 30 -20.5 50t-50.5 20t-50.5 -20t-20.5 -50q0 -31 20.5 -51.5t50.5 -20.5z" />
    <glyph glyph-name="Zcaron" unicode="&#x17d;" horiz-adv-x="582" 
d="M40 582h339l-355 -494v-88h529v118h-355l354 492v90h-512v-118zM360 900l-68 -71l-68 71h-110l118 -132h119l118 132h-109z" />
    <glyph glyph-name="zcaron" unicode="&#x17e;" horiz-adv-x="474" 
d="M31 404h252l-257 -310v-94h423v113h-260l253 307v97h-411v-113zM307 717l-68 -71l-68 71h-110l118 -132h119l118 132h-109z" />
    <glyph glyph-name="florin" unicode="&#x192;" horiz-adv-x="371" 
d="M356 404v113h-103l11 74q3 18 10.5 26.5t23.5 8.5h75v113h-98q-68 0 -99 -38t-39 -92l-14 -92h-108v-113h91l-69 -462q-3 -20 -12 -30t-27 -10h-59v-112h89q63 0 96 39.5t40 90.5l72 484h120z" />
    <glyph glyph-name="uni0218" unicode="&#x218;" horiz-adv-x="582" 
d="M23 217q2 -25 9 -48.5t18 -44.5t25.5 -39t33 -33.5t40 -27t46 -20t51 -12.5t55.5 -4t55 4t49.5 12t43.5 19t36.5 25.5t29 31t21.5 35.5t13.5 40t4.5 43q0 78 -44.5 126t-142.5 73l-118 31q-40 10 -63 30.5t-23 54.5q0 41 30.5 64t76.5 23q56 0 90 -30.5t45 -81.5h132
q-14 99 -86 161.5t-180 62.5q-26 0 -50 -4t-45.5 -11t-41 -17.5t-36 -24.5t-29 -30.5t-22 -35.5t-14 -40.5t-4.5 -45.5q0 -78 46.5 -127t139.5 -73l119 -30q40 -10 63 -32.5t23 -53.5q0 -37 -30 -62t-88 -25q-64 0 -102.5 31.5t-45.5 85.5h-131zM236 -224v-48
q54 4 88.5 41.5t34.5 86.5q0 40 -18.5 63t-48.5 23q-24 0 -41 -16.5t-17 -37.5q0 -8 1.5 -14t4.5 -11t6.5 -9t8 -7.5t8.5 -6.5t8.5 -5.5t8 -4.5t6.5 -4.5t4.5 -5.5t1.5 -6q0 -12 -16 -24t-40 -14z" />
    <glyph glyph-name="uni0219" unicode="&#x219;" horiz-adv-x="474" 
d="M254 -12q93 0 147 47.5t54 116.5q0 57 -35.5 95t-106.5 55l-99 24q-31 7 -46.5 21t-15.5 34t16.5 34t47.5 14q32 0 63.5 -18t41.5 -58h123q-11 74 -69.5 125.5t-157.5 51.5q-83 0 -138 -44.5t-55 -118.5q0 -59 36.5 -97t108.5 -55l107 -25q26 -7 39 -19.5t13 -28.5
q0 -23 -19 -38t-55 -15q-42 0 -73.5 17.5t-41.5 56.5h-124q15 -74 76.5 -124.5t162.5 -50.5zM182 -224v-48q54 4 88.5 41.5t34.5 86.5q0 40 -18.5 63t-48.5 23q-24 0 -41 -16.5t-17 -37.5q0 -8 1.5 -14t4.5 -11t6.5 -9t8 -7.5t8.5 -6.5t8.5 -5.5t8 -4.5t6.5 -4.5t4.5 -5.5
t1.5 -6q0 -12 -16 -24t-40 -14z" />
    <glyph glyph-name="uni021A" unicode="&#x21a;" horiz-adv-x="586" 
d="M10 582h215v-582h135v582h216v118h-566v-118zM233 -224v-48q54 4 88.5 41.5t34.5 86.5q0 40 -18.5 63t-48.5 23q-24 0 -41 -16.5t-17 -37.5q0 -8 1.5 -14t4.5 -11t6.5 -9t8 -7.5t8.5 -6.5t8.5 -5.5t8 -4.5t6.5 -4.5t4.5 -5.5t1.5 -6q0 -12 -16 -24t-40 -14z" />
    <glyph glyph-name="uni021B" unicode="&#x21b;" horiz-adv-x="366" 
d="M253 0h102v113h-65q-22 0 -35.5 10t-13.5 30v251h114v113h-114v150h-130v-150h-101v-113h101v-274q0 -55 36 -92.5t106 -37.5zM184 -224v-48q54 4 88.5 41.5t34.5 86.5q0 40 -18.5 63t-48.5 23q-24 0 -41 -16.5t-17 -37.5q0 -8 1.5 -14t4.5 -11t6.5 -9t8 -7.5t8.5 -6.5
t8.5 -5.5t8 -4.5t6.5 -4.5t4.5 -5.5t1.5 -6q0 -12 -16 -24t-40 -14z" />
    <glyph glyph-name="uni0237" unicode="&#x237;" 
d="M39 -210q63 0 100 39.5t37 90.5v597h-131v-575q0 -20 -10.5 -30t-28.5 -10h-31v-112h64z" />
    <glyph glyph-name="circumflex" unicode="&#x2c6;" horiz-adv-x="510" 
d="M187 585l68 70l68 -70h110l-113 132h-128l-114 -132h109z" />
    <glyph glyph-name="caron" unicode="&#x2c7;" horiz-adv-x="510" 
d="M324 717l-68 -71l-68 71h-110l118 -132h119l118 132h-109z" />
    <glyph glyph-name="breve" unicode="&#x2d8;" horiz-adv-x="510" 
d="M255 656q-25 0 -48 13.5t-37 54.5l-85 -25q16 -58 64 -90t106 -32t106 32t64 90l-85 25q-13 -41 -37.5 -54.5t-47.5 -13.5z" />
    <glyph glyph-name="dotaccent" unicode="&#x2d9;" horiz-adv-x="276" 
d="M138 575q30 0 50.5 20.5t20.5 51.5q0 30 -20.5 50t-50.5 20t-50.5 -20t-20.5 -50q0 -31 20.5 -51.5t50.5 -20.5z" />
    <glyph glyph-name="ring" unicode="&#x2da;" horiz-adv-x="510" 
d="M255 567q48 0 81.5 33t33.5 80q0 46 -33.5 78.5t-81.5 32.5t-81.5 -32.5t-33.5 -78.5q0 -48 33 -80.5t82 -32.5zM255 624q-23 0 -39 16.5t-16 39.5q0 22 16 37.5t39 15.5t39 -15.5t16 -37.5t-16 -39t-39 -17z" />
    <glyph glyph-name="ogonek" unicode="&#x2db;" horiz-adv-x="510" 
d="M320 0l-48 20q-65 -40 -87 -76.5t-22 -73.5q0 -38 27.5 -64.5t79.5 -26.5q19 0 37.5 4t31.5 10l-13 64q-10 -4 -20 -6t-20 -2q-20 0 -32.5 11.5t-12.5 33.5q0 21 14.5 47.5t64.5 58.5z" />
    <glyph glyph-name="tilde" unicode="&#x2dc;" horiz-adv-x="510" 
d="M186 707q-39 0 -66 -27.5t-40 -85.5l82 -17q6 27 15 36.5t20 9.5q5 0 11.5 -2t13.5 -5t15 -6.5t16.5 -7.5t17 -7.5t17.5 -6.5t17.5 -5t16.5 -2q39 0 66 27.5t40 84.5l-82 18q-6 -27 -15 -36.5t-19 -9.5q-5 0 -11.5 2t-14 5t-15.5 6.5t-16 7.5t-17 7.5t-17.5 6.5t-17.5 5
t-17 2z" />
    <glyph glyph-name="hungarumlaut" unicode="&#x2dd;" horiz-adv-x="535" 
d="M189 717l-107 -132h112l123 132h-128zM387 717l-107 -132h112l123 132h-128z" />
    <glyph glyph-name="uni09F3" unicode="&#x9f3;" horiz-adv-x="669" 
d="M227 191v187h63v105h-63v93q0 51 -32.5 87.5t-93.5 36.5h-70v-117h32q18 0 28.5 -9.5t10.5 -29.5v-61h-71v-105h71v-196q0 -22 4.5 -42.5t13 -38.5t20.5 -34t27 -29t33 -23t38.5 -17t43.5 -10.5t47 -3.5q26 0 51 4t48.5 11t45 17.5t40.5 24t35.5 29.5t30.5 34t25 38
t18.5 42t11.5 45t4 47q0 22 -3 42t-9 39t-15 36.5t-20 32.5t-24 28t-28 23t-32 17.5t-35 11t-37 3.5q-23 0 -45.5 -6t-50.5 -17l37 -111q13 5 28 9.5t28 4.5q34 0 58 -33t24 -80q0 -19 -3.5 -37.5t-10.5 -35t-17 -31t-22 -26.5t-26.5 -22t-31 -17t-34 -10.5t-36.5 -3.5
q-44 0 -75.5 25t-31.5 73z" />
    <glyph glyph-name="Wgrave" unicode="&#x1e80;" horiz-adv-x="1015" 
d="M570 700h-120l-166 -506l-129 506h-145l199 -700h136l163 496l162 -496h136l199 700h-140l-129 -505zM483 900h-143l128 -132h125z" />
    <glyph glyph-name="wgrave" unicode="&#x1e81;" horiz-adv-x="784" 
d="M341 517l-112 -326l-91 326h-138l157 -517h119l116 337l116 -337h119l157 517h-134l-91 -326l-112 326h-106zM368 717h-143l128 -132h125z" />
    <glyph glyph-name="Wacute" unicode="&#x1e82;" horiz-adv-x="1015" 
d="M570 700h-120l-166 -506l-129 506h-145l199 -700h136l163 496l162 -496h136l199 700h-140l-129 -505zM531 900l-109 -132h124l129 132h-144z" />
    <glyph glyph-name="wacute" unicode="&#x1e83;" horiz-adv-x="784" 
d="M341 517l-112 -326l-91 326h-138l157 -517h119l116 337l116 -337h119l157 517h-134l-91 -326l-112 326h-106zM416 717l-109 -132h124l129 132h-144z" />
    <glyph glyph-name="Wdieresis" unicode="&#x1e84;" horiz-adv-x="1015" 
d="M570 700h-120l-166 -506l-129 506h-145l199 -700h136l163 496l162 -496h136l199 700h-140l-129 -505zM405 758q30 0 50 20.5t20 51.5q0 30 -20 50t-50 20t-51 -20t-21 -50q0 -31 21 -51.5t51 -20.5zM609 758q30 0 50.5 20.5t20.5 51.5q0 30 -20.5 50t-50.5 20t-50.5 -20
t-20.5 -50q0 -31 20.5 -51.5t50.5 -20.5z" />
    <glyph glyph-name="wdieresis" unicode="&#x1e85;" horiz-adv-x="784" 
d="M341 517l-112 -326l-91 326h-138l157 -517h119l116 337l116 -337h119l157 517h-134l-91 -326l-112 326h-106zM290 575q30 0 50 20.5t20 51.5q0 30 -20 50t-50 20t-51 -20t-21 -50q0 -31 21 -51.5t51 -20.5zM494 575q30 0 50.5 20.5t20.5 51.5q0 30 -20.5 50t-50.5 20
t-50.5 -20t-20.5 -50q0 -31 20.5 -51.5t50.5 -20.5z" />
    <glyph glyph-name="Ygrave" unicode="&#x1ef2;" horiz-adv-x="674" 
d="M404 0v290l275 410h-160l-180 -281l-180 281h-164l274 -408v-292h135zM313 900h-143l128 -132h125z" />
    <glyph glyph-name="ygrave" unicode="&#x1ef3;" horiz-adv-x="551" 
d="M191 -48q-12 -30 -28 -41t-43 -11h-50v-110h77q59 0 95.5 25t61.5 88l252 614h-136l-141 -349l-143 349h-141l220 -507zM255 717h-143l128 -132h125z" />
    <glyph glyph-name="uni2002" unicode="&#x2002;" horiz-adv-x="500" 
 />
    <glyph glyph-name="uni2003" unicode="&#x2003;" horiz-adv-x="1000" 
 />
    <glyph glyph-name="uni2009" unicode="&#x2009;" horiz-adv-x="175" 
 />
    <glyph glyph-name="uni200A" unicode="&#x200a;" horiz-adv-x="100" 
 />
    <glyph glyph-name="uni200B" unicode="&#x200b;" horiz-adv-x="0" 
 />
    <glyph glyph-name="endash" unicode="&#x2013;" horiz-adv-x="587" 
d="M30 244h526v110h-526v-110z" />
    <glyph glyph-name="emdash" unicode="&#x2014;" horiz-adv-x="806" 
d="M30 244h746v110h-746v-110z" />
    <glyph glyph-name="uni2015" unicode="&#x2015;" horiz-adv-x="1006" 
d="M30 244h946v110h-946v-110z" />
    <glyph glyph-name="quoteleft" unicode="&#x2018;" 
d="M178 669v63q-68 -13 -109.5 -63t-41.5 -117q0 -51 23.5 -81t63.5 -30q34 0 52.5 23.5t18.5 48.5q0 10 -1.5 17.5t-4.5 14t-7.5 11.5t-9 9t-9.5 7l-10 6t-9.5 5.5l-9 5t-7.5 5.5t-4.5 6.5t-1.5 7.5q0 21 19.5 39t47.5 22z" />
    <glyph glyph-name="quoteright" unicode="&#x2019;" 
d="M42 506v-63q68 13 109.5 63t41.5 117q0 51 -23.5 81t-63.5 30q-34 0 -52.5 -23.5t-18.5 -48.5q0 -10 1.5 -17.5t4.5 -14t7.5 -11.5t9 -9t9.5 -7l10 -6t9.5 -5.5l9 -5t7.5 -5.5t4.5 -6.5t1.5 -7.5q0 -21 -19.5 -39t-47.5 -22z" />
    <glyph glyph-name="quotesinglbase" unicode="&#x201a;" 
d="M42 -88v-63q68 13 109.5 63t41.5 117q0 51 -23.5 81t-63.5 30q-34 0 -52.5 -23.5t-18.5 -48.5q0 -10 1.5 -17.5t4.5 -14t7.5 -11.5t9 -9t9.5 -7l10 -6t9.5 -5.5l9 -5t7.5 -5.5t4.5 -6.5t1.5 -7.5q0 -21 -19.5 -39t-47.5 -22z" />
    <glyph glyph-name="quotedblleft" unicode="&#x201c;" horiz-adv-x="412" 
d="M178 669v63q-68 -13 -109.5 -63t-41.5 -117q0 -51 23.5 -81t63.5 -30q34 0 52.5 23.5t18.5 48.5q0 10 -1.5 17.5t-4.5 14t-7.5 11.5t-9 9t-9.5 7l-10 6t-9.5 5.5l-9 5t-7.5 5.5t-4.5 6.5t-1.5 7.5q0 21 19.5 39t47.5 22zM370 669v63q-68 -13 -109.5 -63t-41.5 -117
q0 -51 23.5 -81t63.5 -30q34 0 52.5 23.5t18.5 48.5q0 10 -1.5 17.5t-4.5 14t-7.5 11.5t-9 9t-9.5 7l-10 6t-9.5 5.5l-9 5t-7.5 5.5t-4.5 6.5t-1.5 7.5q0 21 19.5 39t47.5 22z" />
    <glyph glyph-name="quotedblright" unicode="&#x201d;" horiz-adv-x="412" 
d="M234 506v-63q68 13 109.5 63t41.5 117q0 51 -23.5 81t-63.5 30q-34 0 -52.5 -23.5t-18.5 -48.5q0 -10 1.5 -17.5t4.5 -14t7.5 -11.5t9 -9t9.5 -7l10 -6t9.5 -5.5l9 -5t7.5 -5.5t4.5 -6.5t1.5 -7.5q0 -21 -19.5 -39t-47.5 -22zM42 506v-63q68 13 109.5 63t41.5 117
q0 51 -23.5 81t-63.5 30q-34 0 -52.5 -23.5t-18.5 -48.5q0 -10 1.5 -17.5t4.5 -14t7.5 -11.5t9 -9t9.5 -7l10 -6t9.5 -5.5l9 -5t7.5 -5.5t4.5 -6.5t1.5 -7.5q0 -21 -19.5 -39t-47.5 -22z" />
    <glyph glyph-name="quotedblbase" unicode="&#x201e;" horiz-adv-x="412" 
d="M234 -88v-63q68 13 109.5 63t41.5 117q0 51 -23.5 81t-63.5 30q-34 0 -52.5 -23.5t-18.5 -48.5q0 -10 1.5 -17.5t4.5 -14t7.5 -11.5t9 -9t9.5 -7l10 -6t9.5 -5.5l9 -5t7.5 -5.5t4.5 -6.5t1.5 -7.5q0 -21 -19.5 -39t-47.5 -22zM42 -88v-63q68 13 109.5 63t41.5 117
q0 51 -23.5 81t-63.5 30q-34 0 -52.5 -23.5t-18.5 -48.5q0 -10 1.5 -17.5t4.5 -14t7.5 -11.5t9 -9t9.5 -7l10 -6t9.5 -5.5l9 -5t7.5 -5.5t4.5 -6.5t1.5 -7.5q0 -21 -19.5 -39t-47.5 -22z" />
    <glyph glyph-name="dagger" unicode="&#x2020;" horiz-adv-x="428" 
d="M163 0h104v418h121v99h-121v183h-104v-183h-122v-99h122v-418z" />
    <glyph glyph-name="daggerdbl" unicode="&#x2021;" horiz-adv-x="428" 
d="M163 0h104v183h121v99h-121v136h121v99h-121v183h-104v-183h-122v-99h122v-136h-122v-99h122v-183z" />
    <glyph glyph-name="bullet" unicode="&#x2022;" horiz-adv-x="310" 
d="M156 456q-52 0 -89 -36t-37 -87q0 -52 37 -88t89 -36t88 36t36 88q0 51 -36 87t-88 36z" />
    <glyph glyph-name="ellipsis" unicode="&#x2026;" horiz-adv-x="642" 
d="M110 140q-31 0 -53.5 -22t-22.5 -53t22.5 -53t53.5 -22t53.5 22t22.5 53t-22.5 53t-53.5 22zM321 140q-31 0 -53.5 -22t-22.5 -53t22.5 -53t53.5 -22t53.5 22t22.5 53t-22.5 53t-53.5 22zM531 140q-31 0 -53.5 -22t-22.5 -53t22.5 -53t53.5 -22t53.5 22t22.5 53t-22.5 53
t-53.5 22z" />
    <glyph glyph-name="guilsinglleft" unicode="&#x2039;" horiz-adv-x="412" 
d="M391 517h-135l-239 -258l239 -259h138l-237 261z" />
    <glyph glyph-name="guilsinglright" unicode="&#x203a;" horiz-adv-x="412" 
d="M5 0h135l239 258l-239 259h-138l237 -261z" />
    <glyph glyph-name="fraction" unicode="&#x2044;" horiz-adv-x="561" 
d="M141 0l376 700h-99l-376 -700h99z" />
    <glyph glyph-name="uni2070" unicode="&#x2070;" horiz-adv-x="367" 
d="M33 456q0 -69 42 -109.5t108 -40.5t108.5 40.5t42.5 109.5v104q0 69 -42.5 109t-108.5 40t-108 -40.5t-42 -108.5v-104zM246 459q0 -37 -17 -56t-46 -19q-28 0 -45 19t-17 56v98q0 36 17 55.5t45 19.5q29 0 46 -19t17 -56v-98z" />
    <glyph glyph-name="uni2074" unicode="&#x2074;" horiz-adv-x="368" 
d="M210 315h88v91h42v73h-42v221h-116l-156 -228v-66h184v-91zM117 479l93 140v-140h-93z" />
    <glyph glyph-name="uni2075" unicode="&#x2075;" horiz-adv-x="345" 
d="M189 567q-21 0 -38 -6t-33 -21l2 83h164v77h-240l-9 -217l73 -12q13 13 24.5 18.5t30.5 5.5q31 0 46.5 -16t15.5 -38q0 -25 -17 -42t-45 -17q-25 0 -41 11.5t-27 32.5l-72 -40q19 -37 55.5 -58.5t89.5 -21.5q65 0 105 41.5t40 98.5q0 50 -34.5 85.5t-89.5 35.5z" />
    <glyph glyph-name="uni2076" unicode="&#x2076;" horiz-adv-x="358" 
d="M195 634q21 0 39 -8t33 -22l52 56q-26 23 -55 35t-69 12q-74 0 -118 -48.5t-44 -141.5v-25q0 -84 42.5 -133.5t113.5 -49.5q58 0 98 39.5t40 102.5q0 49 -35.5 86.5t-86.5 37.5q-20 0 -46 -10t-39 -41v10q0 50 23 75t52 25zM185 383q-25 0 -42.5 17.5t-17.5 43.5
q0 25 17.5 42t42.5 17t42.5 -17t17.5 -42q0 -26 -17.5 -43.5t-42.5 -17.5z" />
    <glyph glyph-name="uni2077" unicode="&#x2077;" horiz-adv-x="340" 
d="M313 634v66h-286v-77h189l-162 -308h103z" />
    <glyph glyph-name="uni2078" unicode="&#x2078;" horiz-adv-x="362" 
d="M181 306q63 0 104.5 34t41.5 86q0 31 -19.5 54.5t-50.5 33.5q25 12 41 33.5t16 49.5q0 46 -38 77.5t-95 32.5q-56 -1 -94.5 -32.5t-38.5 -77.5q0 -28 16 -49.5t42 -32.5q-31 -11 -51 -34.5t-20 -54.5q0 -52 42 -86t104 -34zM181 546q-19 0 -33.5 13t-14.5 30
q0 19 14.5 31.5t33.5 12.5q21 0 34.5 -12.5t13.5 -31.5q0 -17 -14.5 -30t-33.5 -13zM181 478q24 0 41 -15t17 -35t-16.5 -33.5t-41.5 -13.5q-24 0 -40.5 13.5t-16.5 33.5t16.5 35t40.5 15z" />
    <glyph glyph-name="uni2079" unicode="&#x2079;" horiz-adv-x="358" 
d="M169 382q-21 0 -36.5 10t-29.5 30l-70 -41q22 -34 55 -53.5t82 -19.5q70 0 112 48.5t42 141.5v25q0 84 -42 133.5t-112 49.5q-59 0 -99 -39t-40 -102q0 -49 35 -87t86 -38q20 0 46 10t39 39v-8q0 -50 -20.5 -74.5t-47.5 -24.5zM174 632q25 0 42 -17.5t17 -43.5
q0 -25 -17.5 -42t-41.5 -17q-26 0 -43.5 17t-17.5 42q0 26 17.5 43.5t43.5 17.5z" />
    <glyph glyph-name="uni2080" unicode="&#x2080;" horiz-adv-x="367" 
d="M33 141q0 -69 42 -109.5t108 -40.5t108.5 40.5t42.5 109.5v104q0 69 -42.5 109t-108.5 40t-108 -40.5t-42 -108.5v-104zM246 144q0 -37 -17 -56t-46 -19q-28 0 -45 19t-17 56v98q0 36 17 55.5t45 19.5q29 0 46 -19t17 -56v-98z" />
    <glyph glyph-name="uni2081" unicode="&#x2081;" horiz-adv-x="304" 
d="M282 77h-87v308h-156v-77h68v-231h-86v-77h261v77z" />
    <glyph glyph-name="uni2082" unicode="&#x2082;" horiz-adv-x="330" 
d="M295 273q0 51 -37 85t-98 34q-49 0 -86 -22t-59 -63l70 -40q14 25 30.5 37.5t37.5 12.5q23 0 38.5 -14t15.5 -36q0 -16 -7 -31t-28 -37l-139 -142v-57h269v77l-144 -3l78 79q37 37 48.5 64.5t10.5 55.5z" />
    <glyph glyph-name="uni2083" unicode="&#x2083;" horiz-adv-x="350" 
d="M175 392q-54 0 -91.5 -22t-56.5 -59l72 -37q11 20 27.5 31.5t38.5 11.5q24 0 38 -12t14 -31q0 -18 -13 -30.5t-34 -12.5h-54v-71h61q24 0 38 -13.5t14 -29.5q0 -21 -16 -35.5t-44 -14.5q-25 0 -44 11.5t-31 31.5l-72 -39q19 -37 57 -58.5t93 -21.5q64 0 105 35.5t41 85.5
q0 31 -19.5 55.5t-49.5 35.5q25 13 40.5 34t15.5 47q0 46 -37.5 76.5t-92.5 31.5z" />
    <glyph glyph-name="uni2084" unicode="&#x2084;" horiz-adv-x="368" 
d="M210 0h88v91h42v73h-42v221h-116l-156 -228v-66h184v-91zM117 164l93 140v-140h-93z" />
    <glyph glyph-name="uni2085" unicode="&#x2085;" horiz-adv-x="345" 
d="M189 252q-21 0 -38 -6t-33 -21l2 83h164v77h-240l-9 -217l73 -12q13 13 24.5 18.5t30.5 5.5q31 0 46.5 -16t15.5 -38q0 -25 -17 -42t-45 -17q-25 0 -41 11.5t-27 32.5l-72 -40q19 -37 55.5 -58.5t89.5 -21.5q65 0 105 41.5t40 98.5q0 50 -34.5 85.5t-89.5 35.5z" />
    <glyph glyph-name="uni2086" unicode="&#x2086;" horiz-adv-x="358" 
d="M195 319q21 0 39 -8t33 -22l52 56q-26 23 -55 35t-69 12q-74 0 -118 -48.5t-44 -141.5v-25q0 -84 42.5 -133.5t113.5 -49.5q58 0 98 39.5t40 102.5q0 49 -35.5 86.5t-86.5 37.5q-20 0 -46 -10t-39 -41v10q0 50 23 75t52 25zM185 68q-25 0 -42.5 17.5t-17.5 43.5
q0 25 17.5 42t42.5 17t42.5 -17t17.5 -42q0 -26 -17.5 -43.5t-42.5 -17.5z" />
    <glyph glyph-name="uni2087" unicode="&#x2087;" horiz-adv-x="340" 
d="M313 319v66h-286v-77h189l-162 -308h103z" />
    <glyph glyph-name="uni2088" unicode="&#x2088;" horiz-adv-x="362" 
d="M181 -9q63 0 104.5 34t41.5 86q0 31 -19.5 54.5t-50.5 33.5q25 12 41 33.5t16 49.5q0 46 -38 77.5t-95 32.5q-56 -1 -94.5 -32.5t-38.5 -77.5q0 -28 16 -49.5t42 -32.5q-31 -11 -51 -34.5t-20 -54.5q0 -52 42 -86t104 -34zM181 231q-19 0 -33.5 13t-14.5 30
q0 19 14.5 31.5t33.5 12.5q21 0 34.5 -12.5t13.5 -31.5q0 -17 -14.5 -30t-33.5 -13zM181 163q24 0 41 -15t17 -35t-16.5 -33.5t-41.5 -13.5q-24 0 -40.5 13.5t-16.5 33.5t16.5 35t40.5 15z" />
    <glyph glyph-name="uni2089" unicode="&#x2089;" horiz-adv-x="358" 
d="M169 67q-21 0 -36.5 10t-29.5 30l-70 -41q22 -34 55 -53.5t82 -19.5q70 0 112 48.5t42 141.5v25q0 84 -42 133.5t-112 49.5q-59 0 -99 -39t-40 -102q0 -49 35 -87t86 -38q20 0 46 10t39 39v-8q0 -50 -20.5 -74.5t-47.5 -24.5zM174 317q25 0 42 -17.5t17 -43.5
q0 -25 -17.5 -42t-41.5 -17q-26 0 -43.5 17t-17.5 42q0 26 17.5 43.5t43.5 17.5z" />
    <glyph glyph-name="uni20A9" unicode="&#x20a9;" horiz-adv-x="1025" 
d="M13 320v-82h133l68 -238h136l73 238h179l73 -238h135l68 238h134v82h-111l18 60h93v82h-70l68 238h-140l-57 -238h-165l-74 238h-119l-74 -238h-164l-57 238h-145l68 -238h-70v-82h93l17 -60h-110zM492 462l21 66l20 -66h-41zM251 320l-14 60h119l-19 -60h-86zM449 320
l18 60h91l18 -60h-127zM692 320l-19 60h120l-15 -60h-86zM271 238h41l-23 -75zM717 238h42l-19 -75z" />
    <glyph glyph-name="Euro" unicode="&#x20ac;" horiz-adv-x="737" 
d="M13 320v-82h103q29 -112 112 -180t199 -68q79 0 145 31t130 99l-104 82q-42 -47 -83 -68.5t-89 -21.5q-62 0 -105.5 33t-64.5 93h148l30 82h-194q-1 7 -1 15v16v14.5t1 14.5h216l32 82h-232q20 61 64 95t106 34q51 0 92.5 -22t81.5 -68l103 83q-65 67 -129 98t-145 31
q-118 0 -202 -68.5t-112 -182.5h-102v-82h90q-1 -7 -1 -14.5v-14.5v-16t1 -15h-90z" />
    <glyph glyph-name="uni20B9" unicode="&#x20b9;" horiz-adv-x="625" 
d="M518 0l-290 258h15q81 0 141 48t76 121h126v99h-127q-5 21 -14.5 40.5t-22.5 35.5h164v98h-537v-98h180q40 0 68.5 -21t40.5 -55h-290v-99h290q-12 -34 -40.5 -55t-68.5 -21h-180v-70l318 -281h151z" />
    <glyph glyph-name="trademark" unicode="&#x2122;" horiz-adv-x="677" 
d="M322 700v-279h63l-1 179l70 -179h48l70 182l-2 -182h64v279h-83l-73 -189l-73 189h-83zM25 700v-56h92v-223h68v223h94v56h-254z" />
    <glyph glyph-name="uni2190" unicode="&#x2190;" horiz-adv-x="1001" 
d="M79 350l271 -375h146l-229 312h654v126h-654l229 312h-146z" />
    <glyph glyph-name="uni2191" unicode="&#x2191;" horiz-adv-x="1000" 
d="M500 759l-375 -271v-146l312 229v-654h126v654l312 -229v146z" />
    <glyph glyph-name="uni2192" unicode="&#x2192;" horiz-adv-x="1001" 
d="M505 725l231 -315h-657v-120h657l-231 -315h141l274 375l-274 375h-141z" />
    <glyph glyph-name="uni2193" unicode="&#x2193;" horiz-adv-x="1000" 
d="M875 274l-315 -231v657h-120v-657l-315 231v-141l375 -274l375 274v141z" />
    <glyph glyph-name="minus" unicode="&#x2212;" horiz-adv-x="542" 
d="M497 410h-452v-102h452v102z" />
    <glyph glyph-name="approxequal" unicode="&#x2248;" horiz-adv-x="542" 
d="M154 430q13 0 25.5 -2t25.5 -5.5t25.5 -8t25.5 -9.5t26 -9.5l26 -9t25.5 -8t25.5 -5.5t26 -2q28 0 54 8t58 28v92q-31 -19 -55.5 -28.5t-50.5 -9.5q-13 0 -26 2t-26 5.5t-26 8t-26 9.5l-26 10t-26 9.5t-25.5 8t-25 5.5t-25.5 2q-28 0 -55 -8.5t-58 -27.5v-92
q31 18 55.5 27.5t52.5 9.5zM154 255q13 0 25.5 -2t25.5 -5.5t25.5 -8t25.5 -9t26 -9.5t26 -9.5t25.5 -8t25.5 -5.5t26 -2q28 0 54 8t58 28v92q-31 -19 -55.5 -28.5t-50.5 -9.5q-13 0 -26 2t-26 5.5t-26 8t-26 9.5l-26 10t-26 9.5t-25.5 8t-25 5.5t-25.5 2q-28 0 -55 -8
t-58 -27v-93q31 19 55.5 28t52.5 9z" />
    <glyph glyph-name="notequal" unicode="&#x2260;" horiz-adv-x="542" 
d="M40 109h113l81 113h263v91h-198l59 83h139v90h-75l81 113h-113l-81 -113h-264v-90h200l-59 -83h-141v-91h76z" />
    <glyph glyph-name="lessequal" unicode="&#x2264;" horiz-adv-x="560" 
d="M476 535v108l-422 -184v-96l422 -184v110l-304 124zM54 282v-102l422 -184v102z" />
    <glyph glyph-name="greaterequal" unicode="&#x2265;" horiz-adv-x="560" 
d="M54 532l305 -123l-305 -123v-107l423 184v96l-423 184v-111zM477 282l-423 -184v-102l423 184v102z" />
    <glyph glyph-name="uni25A0" unicode="&#x25a0;" horiz-adv-x="850" 
d="M775 700h-700v-700h700v700z" />
    <glyph glyph-name="uni25CF" unicode="&#x25cf;" horiz-adv-x="819" 
d="M769 351q0 30 -4.5 58t-13.5 55t-22 51.5t-29.5 47t-36 42t-42 36t-47 29.5t-51.5 22t-55 13.5t-58 4.5t-58.5 -4.5t-55 -13.5t-51.5 -22t-47.5 -29.5t-42 -36t-36 -42t-29.5 -47t-22 -51.5t-13.5 -55t-4.5 -58t4.5 -58.5t13.5 -55t22 -51.5t29.5 -47.5t36 -42t42 -36
t47.5 -29.5t51.5 -22t55 -13.5t58.5 -4.5t58 4.5t55 13.5t51.5 22t47 29.5t42 36t36 42t29.5 47.5t22 51.5t13.5 55t4.5 58.5z" />
    <glyph glyph-name="check" unicode="&#x2713;" horiz-adv-x="1002" 
d="M918 708l-542 -541l-292 291v-175l292 -291l542 541v175z" />
    <glyph glyph-name="close" unicode="&#x2715;" horiz-adv-x="1002" 
d="M880 638l-91 91l-288 -291l-288 291l-91 -91l291 -288l-291 -288l91 -91l288 291l288 -291l91 91l-291 288z" />
    <glyph glyph-name="fi" unicode="&#xfb01;" horiz-adv-x="582" 
d="M10 404h102v-404h130v404h164v-404h130v517h-294v74q0 18 9 26.5t25 8.5h175v113h-203q-66 0 -101 -37t-35 -88v-97h-102v-113z" />
    <glyph glyph-name="fl" unicode="&#xfb02;" horiz-adv-x="582" 
d="M10 404h102v-404h130v404h111v113h-111v74q0 18 9 26.5t25 8.5h130v-626h130v739h-288q-66 0 -101 -37t-35 -88v-97h-102v-113z" />
    <glyph glyph-name="Uber" horiz-adv-x="2119" 
d="M154 268v432h-105v-438q0 -31 5 -59t15 -53.5t24 -47t32 -39.5t39 -32t45 -23.5t50.5 -14.5t54.5 -5q54 0 102 20t83 57v-65h104v700h-105v-432q0 -83 -50 -134.5t-122 -51.5q-73 0 -122.5 51t-49.5 135zM681 0h100v64q34 -35 81.5 -55.5t100.5 -20.5q25 0 48.5 4.5
t45.5 12.5t42 19.5t37.5 26t32 32t26 37t20 41.5t12.5 45.5t4 47.5q0 25 -4 48.5t-12.5 45t-20 41.5t-26 37.5t-32 32t-37.5 26t-42 19.5t-45.5 12.5t-48.5 4.5q-53 0 -100 -20.5t-81 -55.5v255h-101v-700zM1271 255q0 -25 4 -49t12.5 -46t20 -41.5t26 -37t32.5 -32
t38 -25.5t42 -19t46 -12t50 -4q69 0 125.5 29t94.5 80l-73 54q-28 -38 -65.5 -56.5t-81.5 -18.5q-64 0 -111.5 41.5t-57.5 103.5h415v33q0 25 -4 49t-11.5 46t-18 41.5t-24.5 36.5t-30.5 31.5t-35 25.5t-40 19t-44 12t-47.5 4t-48.5 -4.5t-45 -12.5t-41 -19.5t-36.5 -26.5
t-31 -32.5t-25 -37t-19 -41t-12 -44.5t-4 -47zM2101 420v94h-35q-42 0 -72.5 -18t-49.5 -49v63h-100v-510h101v290q0 59 32.5 94.5t81.5 35.5h42zM1531 432q56 0 99 -36t56 -94h-311q13 58 56.5 94t99.5 36zM780 254q0 19 3.5 36t10.5 33t16.5 30.5t21.5 26.5t26 21.5
t29.5 16t33 10t35.5 3.5t35 -3.5t33 -10t30 -16t25.5 -21.5t21 -26.5t16.5 -30.5t10.5 -33t3.5 -36q0 -18 -3.5 -35.5t-10.5 -33.5t-16.5 -30t-21 -26t-25.5 -21.5t-30 -16.5t-33 -10.5t-35 -3.5t-35.5 3.5t-33.5 10.5t-30 16.5t-26 21.5t-21.5 26t-16 30t-10 33.5
t-3.5 35.5z" />
    <glyph glyph-name="idotaccent" 
d="M111 572q31 0 51.5 21t20.5 52t-20.5 51.5t-51.5 20.5t-52.5 -20.5t-21.5 -51.5t21.5 -52t52.5 -21zM176 517h-131v-517h131v517z" />
    <glyph glyph-name="cordinal" horiz-adv-x="398" 
d="M129 513q0 41 28.5 70t68.5 29q28 0 48.5 -12t35.5 -31l76 56q-28 37 -66 59t-94 22q-22 0 -42 -4t-38.5 -11t-34.5 -17.5t-30 -23.5t-25 -28.5t-18.5 -33t-11.5 -36.5t-4 -39t4 -39t11.5 -36.5t18.5 -33t25 -29t30 -24t34.5 -17.5t38.5 -11t42 -4q56 0 94 22t66 59
l-76 56q-15 -19 -35.5 -31t-48.5 -12q-40 0 -68.5 29t-28.5 71z" />
    <glyph glyph-name="a.school" horiz-adv-x="645" 
d="M599 0v517h-130v-48q-34 28 -76.5 44.5t-89.5 16.5q-26 0 -50 -4.5t-47 -12.5t-43 -20t-38 -27t-33.5 -33t-27.5 -38t-20 -42t-12.5 -46t-4.5 -49t4.5 -48.5t12.5 -46t20 -42.5t27.5 -38t33.5 -33t38 -27t43 -20t47 -12.5t50 -4.5q47 0 90 16.5t77 45.5v-48h129zM471 258
q0 -65 -46 -111.5t-111 -46.5q-64 0 -110.5 46.5t-46.5 111.5q0 66 46.5 111.5t110.5 45.5q65 0 111 -45.5t46 -111.5z" />
    <glyph glyph-name="aacute.school" horiz-adv-x="645" 
d="M599 0v517h-130v-48q-34 28 -76.5 44.5t-89.5 16.5q-26 0 -50 -4.5t-47 -12.5t-43 -20t-38 -27t-33.5 -33t-27.5 -38t-20 -42t-12.5 -46t-4.5 -49t4.5 -48.5t12.5 -46t20 -42.5t27.5 -38t33.5 -33t38 -27t43 -20t47 -12.5t50 -4.5q47 0 90 16.5t77 45.5v-48h129zM471 258
q0 -65 -46 -111.5t-111 -46.5q-64 0 -110.5 46.5t-46.5 111.5q0 66 46.5 111.5t110.5 45.5q65 0 111 -45.5t46 -111.5zM343 717l-109 -132h124l129 132h-144z" />
    <glyph glyph-name="abreve.school" horiz-adv-x="645" 
d="M599 0v517h-130v-48q-34 28 -76.5 44.5t-89.5 16.5q-26 0 -50 -4.5t-47 -12.5t-43 -20t-38 -27t-33.5 -33t-27.5 -38t-20 -42t-12.5 -46t-4.5 -49t4.5 -48.5t12.5 -46t20 -42.5t27.5 -38t33.5 -33t38 -27t43 -20t47 -12.5t50 -4.5q47 0 90 16.5t77 45.5v-48h129zM471 258
q0 -65 -46 -111.5t-111 -46.5q-64 0 -110.5 46.5t-46.5 111.5q0 66 46.5 111.5t110.5 45.5q65 0 111 -45.5t46 -111.5zM319 656q-25 0 -48 13.5t-37 54.5l-85 -25q16 -58 64 -90t106 -32t106 32t64 90l-85 25q-13 -41 -37.5 -54.5t-47.5 -13.5z" />
    <glyph glyph-name="acircumflex.school" horiz-adv-x="645" 
d="M599 0v517h-130v-48q-34 28 -76.5 44.5t-89.5 16.5q-26 0 -50 -4.5t-47 -12.5t-43 -20t-38 -27t-33.5 -33t-27.5 -38t-20 -42t-12.5 -46t-4.5 -49t4.5 -48.5t12.5 -46t20 -42.5t27.5 -38t33.5 -33t38 -27t43 -20t47 -12.5t50 -4.5q47 0 90 16.5t77 45.5v-48h129zM471 258
q0 -65 -46 -111.5t-111 -46.5q-64 0 -110.5 46.5t-46.5 111.5q0 66 46.5 111.5t110.5 45.5q65 0 111 -45.5t46 -111.5zM251 585l68 70l68 -70h110l-113 132h-128l-114 -132h109z" />
    <glyph glyph-name="adieresis.school" horiz-adv-x="645" 
d="M599 0v517h-130v-48q-34 28 -76.5 44.5t-89.5 16.5q-26 0 -50 -4.5t-47 -12.5t-43 -20t-38 -27t-33.5 -33t-27.5 -38t-20 -42t-12.5 -46t-4.5 -49t4.5 -48.5t12.5 -46t20 -42.5t27.5 -38t33.5 -33t38 -27t43 -20t47 -12.5t50 -4.5q47 0 90 16.5t77 45.5v-48h129zM471 258
q0 -65 -46 -111.5t-111 -46.5q-64 0 -110.5 46.5t-46.5 111.5q0 66 46.5 111.5t110.5 45.5q65 0 111 -45.5t46 -111.5zM217 575q30 0 50 20.5t20 51.5q0 30 -20 50t-50 20t-51 -20t-21 -50q0 -31 21 -51.5t51 -20.5zM421 575q30 0 50.5 20.5t20.5 51.5q0 30 -20.5 50
t-50.5 20t-50.5 -20t-20.5 -50q0 -31 20.5 -51.5t50.5 -20.5z" />
    <glyph glyph-name="agrave.school" horiz-adv-x="645" 
d="M599 0v517h-130v-48q-34 28 -76.5 44.5t-89.5 16.5q-26 0 -50 -4.5t-47 -12.5t-43 -20t-38 -27t-33.5 -33t-27.5 -38t-20 -42t-12.5 -46t-4.5 -49t4.5 -48.5t12.5 -46t20 -42.5t27.5 -38t33.5 -33t38 -27t43 -20t47 -12.5t50 -4.5q47 0 90 16.5t77 45.5v-48h129zM471 258
q0 -65 -46 -111.5t-111 -46.5q-64 0 -110.5 46.5t-46.5 111.5q0 66 46.5 111.5t110.5 45.5q65 0 111 -45.5t46 -111.5zM295 717h-143l128 -132h125z" />
    <glyph glyph-name="amacron.school" horiz-adv-x="645" 
d="M599 0v517h-130v-48q-34 28 -76.5 44.5t-89.5 16.5q-26 0 -50 -4.5t-47 -12.5t-43 -20t-38 -27t-33.5 -33t-27.5 -38t-20 -42t-12.5 -46t-4.5 -49t4.5 -48.5t12.5 -46t20 -42.5t27.5 -38t33.5 -33t38 -27t43 -20t47 -12.5t50 -4.5q47 0 90 16.5t77 45.5v-48h129zM471 258
q0 -65 -46 -111.5t-111 -46.5q-64 0 -110.5 46.5t-46.5 111.5q0 66 46.5 111.5t110.5 45.5q65 0 111 -45.5t46 -111.5zM452 685h-267v-85h267v85z" />
    <glyph glyph-name="aogonek.school" horiz-adv-x="645" 
d="M599 0v517h-130v-48q-34 28 -76.5 44.5t-89.5 16.5q-26 0 -50 -4.5t-47 -12.5t-43 -20t-38 -27t-33.5 -33t-27.5 -38t-20 -42t-12.5 -46t-4.5 -49t4.5 -48.5t12.5 -46t20 -42.5t27.5 -38t33.5 -33t38 -27t43 -20t47 -12.5t50 -4.5q47 0 90 16.5t77 45.5v-48h51
q-46 -34 -62.5 -66t-16.5 -64q0 -38 27.5 -64.5t79.5 -26.5q19 0 37.5 4t31.5 10l-13 64q-10 -4 -20 -6t-20 -2q-20 0 -32.5 11.5t-12.5 33.5q0 21 14.5 47.5t64.5 58.5zM471 258q0 -65 -46 -111.5t-111 -46.5q-64 0 -110.5 46.5t-46.5 111.5q0 66 46.5 111.5t110.5 45.5
q65 0 111 -45.5t46 -111.5z" />
    <glyph glyph-name="aring.school" horiz-adv-x="645" 
d="M599 0v517h-130v-48q-34 28 -76.5 44.5t-89.5 16.5q-26 0 -50 -4.5t-47 -12.5t-43 -20t-38 -27t-33.5 -33t-27.5 -38t-20 -42t-12.5 -46t-4.5 -49t4.5 -48.5t12.5 -46t20 -42.5t27.5 -38t33.5 -33t38 -27t43 -20t47 -12.5t50 -4.5q47 0 90 16.5t77 45.5v-48h129zM471 258
q0 -65 -46 -111.5t-111 -46.5q-64 0 -110.5 46.5t-46.5 111.5q0 66 46.5 111.5t110.5 45.5q65 0 111 -45.5t46 -111.5zM319 567q48 0 81.5 33t33.5 80q0 46 -33.5 78.5t-81.5 32.5t-81.5 -32.5t-33.5 -78.5q0 -48 33 -80.5t82 -32.5zM319 624q-23 0 -39 16.5t-16 39.5
q0 22 16 37.5t39 15.5t39 -15.5t16 -37.5t-16 -39t-39 -17z" />
    <glyph glyph-name="atilde.school" horiz-adv-x="645" 
d="M599 0v517h-130v-48q-34 28 -76.5 44.5t-89.5 16.5q-26 0 -50 -4.5t-47 -12.5t-43 -20t-38 -27t-33.5 -33t-27.5 -38t-20 -42t-12.5 -46t-4.5 -49t4.5 -48.5t12.5 -46t20 -42.5t27.5 -38t33.5 -33t38 -27t43 -20t47 -12.5t50 -4.5q47 0 90 16.5t77 45.5v-48h129zM471 258
q0 -65 -46 -111.5t-111 -46.5q-64 0 -110.5 46.5t-46.5 111.5q0 66 46.5 111.5t110.5 45.5q65 0 111 -45.5t46 -111.5zM250 707q-39 0 -66 -27.5t-40 -85.5l82 -17q6 27 15 36.5t20 9.5q5 0 11.5 -2t13.5 -5t15 -6.5t16.5 -7.5t17 -7.5t17.5 -6.5t17.5 -5t16.5 -2
q39 0 66 27.5t40 84.5l-82 18q-6 -27 -15 -36.5t-19 -9.5q-5 0 -11.5 2t-14 5t-15.5 6.5t-16 7.5t-17 7.5t-17.5 6.5t-17.5 5t-17 2z" />
    <glyph glyph-name="caronSlovak" horiz-adv-x="177" 
d="M29 475h97l43 225h-122z" />
    <glyph glyph-name="uni00200326" horiz-adv-x="247" 
d="M62 -224v-48q54 4 88.5 41.5t34.5 86.5q0 40 -18.5 63t-48.5 23q-24 0 -41 -16.5t-17 -37.5q0 -8 1.5 -14t4.5 -11t6.5 -9t8 -7.5t8.5 -6.5t8.5 -5.5t8 -4.5t6.5 -4.5t4.5 -5.5t1.5 -6q0 -12 -16 -24t-40 -14z" />
    <glyph glyph-name="colon.alt" 
d="M110 250q-31 0 -53.5 -22t-22.5 -53t22.5 -53t53.5 -22t53.5 22t22.5 53t-22.5 53t-53.5 22zM110 562q-31 0 -53.5 -22t-22.5 -53t22.5 -53t53.5 -22t53.5 22t22.5 53t-22.5 53t-53.5 22z" />
    <glyph glyph-name="reversequoteleft" 
d="M179 504q-29 4 -48.5 24t-19.5 40q0 4 2 8t5.5 7t8.5 6t10.5 6t11 7l11 8t10.5 9t8.5 11.5t5.5 14.5t2 18q0 29 -21.5 50t-50.5 21q-39 0 -62.5 -30t-23.5 -81q0 -67 41.5 -117t109.5 -63v61z" />
    <glyph glyph-name="reversequotedblleft" horiz-adv-x="412" 
d="M179 504q-29 4 -48.5 24t-19.5 40q0 4 2 8t5.5 7t8.5 6t10.5 6t11 7l11 8t10.5 9t8.5 11.5t5.5 14.5t2 18q0 29 -21.5 50t-50.5 21q-39 0 -62.5 -30t-23.5 -81q0 -67 41.5 -117t109.5 -63v61zM370 504q-29 4 -48.5 24t-19.5 40q0 4 2 8t5.5 7t8.5 6t10.5 6t11 7l11 8
t10.5 9t8.5 11.5t5.5 14.5t2 18q0 29 -21.5 50t-50.5 21q-39 0 -62.5 -30t-23.5 -81q0 -67 41.5 -117t109.5 -63v61z" />
    <glyph glyph-name="at.cap" horiz-adv-x="815" 
d="M395 167q37 0 69.5 15.5t55.5 40.5q17 -24 45 -37t65 -13q15 0 29.5 3t28 9.5t25.5 16t22.5 22t19 28t14.5 34t9.5 39.5t3.5 45q0 29 -4.5 56t-13 53t-21 49.5t-29 45t-36 40t-42 34t-48.5 27.5t-54 20.5t-58.5 13t-63.5 4.5q-31 0 -60.5 -4.5t-57.5 -13.5t-53.5 -22
t-48.5 -29.5t-43.5 -36t-37.5 -42.5t-30 -48t-22 -52t-14 -56t-5 -59t4.5 -59t14 -56t22.5 -52.5t29.5 -48t36.5 -42t43 -36t48 -29.5t53 -22t57 -13.5t60 -4.5q70 0 133 24t111 66l-48 48q-40 -34 -92 -54t-110 -20q-27 0 -53 4.5t-49.5 13.5t-45 22t-40.5 29.5t-35 36
t-28.5 41.5t-21.5 46.5t-13.5 51t-4.5 54.5t4.5 54.5t13.5 51t21.5 46.5t28.5 41.5t35.5 36t41.5 29.5t46 22t50 13.5t54 4.5q31 0 59 -4.5t53.5 -12.5t48 -20.5t42 -27.5t35.5 -33.5t28.5 -39t21 -44t13 -48.5t4.5 -51q0 -57 -19.5 -91t-50.5 -34q-25 0 -39 14.5t-14 35.5
v219h-93v-25q-21 16 -46.5 25t-53.5 9q-19 0 -36.5 -3.5t-34 -10.5t-31 -16.5t-26.5 -21.5t-21.5 -26t-16.5 -30t-10.5 -33.5t-3.5 -36.5q0 -18 3.5 -35t10.5 -33t16.5 -30t21.5 -26t26.5 -21.5t31 -16.5t34 -10.5t36.5 -3.5zM402 250q-38 0 -66 27.5t-28 65.5q0 40 28 67
t66 27t65.5 -27t27.5 -67q0 -38 -27.5 -65.5t-65.5 -27.5z" />
    <glyph glyph-name="dollar.alt" horiz-adv-x="591" 
d="M221 305l122 -33q39 -10 61 -29.5t22 -46.5q0 -36 -28.5 -58.5t-82.5 -22.5q-64 0 -102 30t-45 81h-125q7 -81 63.5 -136t143.5 -71v-84h92v79q100 7 155.5 61t55.5 129t-42.5 120.5t-135.5 70.5l-121 32q-38 10 -60 28t-22 47q0 40 30 61.5t76 21.5q57 0 92.5 -29
t45.5 -78h126q-10 78 -64 132.5t-136 70.5v84h-92v-79q-25 -2 -48.5 -8t-44 -15.5t-38 -22.5t-31.5 -28t-24 -33.5t-15 -38.5t-5 -43q0 -75 44.5 -121.5t132.5 -70.5z" />
    <glyph glyph-name="NTD" horiz-adv-x="1758" 
d="M1413 282l27 -7v-157q-32 10 -51.5 33.5t-23.5 56.5h-115q6 -75 57.5 -126.5t132.5 -65.5v-76h85v71q92 7 143.5 58t51.5 120q0 68 -39.5 110t-124.5 64l-31 8v154q27 -11 44 -33t24 -52h117q-10 72 -60 123t-125 65v76h-85v-71q-81 -7 -135.5 -55t-54.5 -121
q0 -68 41 -110.5t122 -64.5zM165 0l-1 474l326 -474h136v644h-115l1 -474l-326 474h-136v-644h115zM680 536h198v-536h124v536h199v108h-521v-108zM1366 462q0 30 21 48t53 24v-146q-33 7 -53.5 26t-20.5 48zM1604 181q0 -28 -20.5 -47t-58.5 -24v148q36 -9 57.5 -29.5
t21.5 -47.5z" />
    <glyph glyph-name=".ttfautohint" horiz-adv-x="850" 
d="M0 0z" />
    </font>
</defs>
</svg>
